Subcategories

Kathy Mattea - Roses (2002)

Posted By: popsakov
Kathy Mattea - Roses (2002)

Kathy Mattea - Roses (2002)
EAC Rip | FLAC (Img) + Cue + Log ~ 290 Mb | MP3 CBR320 ~ 110 Mb
Full Scans ~ 144 Mb | 00:45:32 | RAR 5% Recovery
Folk, Country | Narada #72438-12485-2-2

Kathy Mattea has always teetered on the Nashville edge with her music. On Roses, her 13th studio album, she pushes the envelope, bringing to the forefront the blending of the Scottish/Irish music found in small doses on her last few albums. "That's All the Lumber You Sent," the first track, screams Celtic, as does the instrumental "Isle of Inishmore." But whatever the musical style, brooding and contemplative lyrics accompany all of the tracks. Mattea's warm alto voice comes across opulently in "The Slender Threads That Bind Us Here" and the Kim Richey remake "I'm Alright." This album isn't the country music of the former Grammy-winner and CMA vocalist of the year, but it wins high marks for creative expression and originality.

~ Maria Konicki Dinoia, All Music

***************

Kathy Mattea - Roses (2002)

Kathy Mattea - Roses (2002)

Track List:

01. That's All The Lumber You Sent [0:04:22.10]
02. They Are The Roses [0:03:58.14]
03. Guns Of Love [0:03:34.13]
04. Ashes In The Wind [0:04:37.32]
05. I'm Alright [0:04:13.22]
06. Till I Turn To You [0:04:50.35]
07. Come Away With Me [0:03:45.40]
08. Who We Are [0:04:04.26]
09. Junkyard [0:04:08.45]
10. Isle Of Inishmore Part 1 (Air) [0:02:04.60]
11. Isle Of Inishmore Part 2 (Jig) [0:02:18.25]
12. The Slender Threads That Bind Us Here [0:03:35.19]

Exact Audio Copy V1.2 from 12. August 2016

EAC extraction logfile from 8. February 2017, 21:44

Kathy Mattea / Roses

Used drive : PLEXTOR DVDR PX-716A Adapter: 1 ID: 0

Read mode : Secure
Utilize accurate stream : Yes
Defeat audio cache : Yes
Make use of C2 pointers : No

Read offset correction : 30
Overread into Lead-In and Lead-Out : No
Fill up missing offset samples with silence : Yes
Delete leading and trailing silent blocks : No
Null samples used in CRC calculations : Yes
Used interface : Native Win32 interface for Win NT & 2000

Used output format : User Defined Encoder
Selected bitrate : 1024 kBit/s
Quality : High
Add ID3 tag : No
Command line compressor : C:\Program Files (x86)\Exact Audio Copy\FLAC\FLAC.EXE
Additional command line options : -6 -V -T "ARTIST=%artist%" -T "TITLE=%title%" -T "ALBUM=%albumtitle%" -T "DATE=%year%" -T "TRACKNUMBER=%tracknr%" -T "GENRE=%genre%" -T "COMMENT=%comment%" -T "BAND=%albuminterpret%" -T "ALBUMARTIST=%albuminterpret%" -T "COMPOSER=%composer%" %haslyrics%–tag-from-file=LYRICS="%lyricsfile%"%haslyrics% -T "DISCNUMBER=%cdnumber%" -T "TOTALDISCS=%totalcds%" -T "TOTALTRACKS=%numtracks%" %hascover%–picture="%coverfile%"%hascover% %source% -o %dest%


TOC of the extracted CD

Track | Start | Length | Start sector | End sector
––––––––––––––––––––––––––––-
1 | 0:00.00 | 4:22.10 | 0 | 19659
2 | 4:22.10 | 3:58.14 | 19660 | 37523
3 | 8:20.24 | 3:34.13 | 37524 | 53586
4 | 11:54.37 | 4:37.32 | 53587 | 74393
5 | 16:31.69 | 4:13.22 | 74394 | 93390
6 | 20:45.16 | 4:50.35 | 93391 | 115175
7 | 25:35.51 | 3:45.40 | 115176 | 132090
8 | 29:21.16 | 4:04.26 | 132091 | 150416
9 | 33:25.42 | 4:08.45 | 150417 | 169061
10 | 37:34.12 | 2:04.60 | 169062 | 178421
11 | 39:38.72 | 2:18.25 | 178422 | 188796
12 | 41:57.22 | 3:35.19 | 188797 | 204940


Range status and errors

Selected range

Filename C:\mm\Kathy Mattea\2002 - Roses [72438-12485-2-2]\Kathy Mattea - Roses.wav

Peak level 98.8 %
Extraction speed 12.2 X
Range quality 100.0 %
Test CRC AA050A21
Copy CRC AA050A21
Copy OK

No errors occurred


AccurateRip summary

Track 1 accurately ripped (confidence 11) [3757F29A] (AR v2)
Track 2 accurately ripped (confidence 11) [00CB30BD] (AR v2)
Track 3 accurately ripped (confidence 11) [6476C768] (AR v2)
Track 4 accurately ripped (confidence 11) [8A6D0CBB] (AR v2)
Track 5 accurately ripped (confidence 11) [38FF61EF] (AR v2)
Track 6 accurately ripped (confidence 11) [42C761F8] (AR v2)
Track 7 accurately ripped (confidence 11) [95A1D49C] (AR v2)
Track 8 accurately ripped (confidence 11) [F6237EF0] (AR v2)
Track 9 accurately ripped (confidence 11) [C5651C8D] (AR v2)
Track 10 accurately ripped (confidence 11) [47A5CA08] (AR v2)
Track 11 accurately ripped (confidence 11) [1E4F3DAF] (AR v2)
Track 12 accurately ripped (confidence 11) [CEAC8741] (AR v2)

All tracks accurately ripped

End of status report

–– CUETools DB Plugin V2.1.6

[CTDB TOCID: 1Fvox63H_QZEFWcpZXSXgCLx0wQ-] found
Submit result: 1Fvox63H_QZEFWcpZXSXgCLx0wQ- has been confirmed
Track | CTDB Status
1 | (12/12) Accurately ripped
2 | (12/12) Accurately ripped
3 | (12/12) Accurately ripped
4 | (12/12) Accurately ripped
5 | (12/12) Accurately ripped
6 | (12/12) Accurately ripped
7 | (12/12) Accurately ripped
8 | (12/12) Accurately ripped
9 | (12/12) Accurately ripped
10 | (12/12) Accurately ripped
11 | (12/12) Accurately ripped
12 | (12/12) Accurately ripped

[CUETools log; Date: 11.02.2017 2:14:18; Version: 2.1.5]
[CTDB TOCID: 1Fvox63H_QZEFWcpZXSXgCLx0wQ-] found.
Track | CTDB Status
1 | (13/13) Accurately ripped
2 | (13/13) Accurately ripped
3 | (13/13) Accurately ripped
4 | (13/13) Accurately ripped
5 | (13/13) Accurately ripped
6 | (13/13) Accurately ripped
7 | (13/13) Accurately ripped
8 | (13/13) Accurately ripped
9 | (13/13) Accurately ripped
10 | (13/13) Accurately ripped
11 | (13/13) Accurately ripped
12 | (13/13) Accurately ripped
[AccurateRip ID: 0015a0f6-00c7dd59-9d0aac0c] found.
Track [ CRC | V2 ] Status
01 [672e3a3f|3757f29a] (15+11/26) Accurately ripped
02 [b717a6a1|00cb30bd] (15+11/26) Accurately ripped
03 [330e1de2|6476c768] (15+11/26) Accurately ripped
04 [7c57edd3|8a6d0cbb] (15+11/26) Accurately ripped
05 [f3f1f5d2|38ff61ef] (15+11/26) Accurately ripped
06 [3fbdc225|42c761f8] (15+11/26) Accurately ripped
07 [79c5a07d|95a1d49c] (14+11/25) Accurately ripped
08 [9f4490b7|f6237ef0] (15+11/26) Accurately ripped
09 [36d50755|c5651c8d] (14+11/25) Accurately ripped
10 [a5f3abb1|47a5ca08] (14+11/25) Accurately ripped
11 [203b2c17|1e4f3daf] (14+11/25) Accurately ripped
12 [235e7548|ceac8741] (14+11/25) Accurately ripped

Track Peak [ CRC32 ] [W/O NULL] [ LOG ]
– 98,8 [AA050A21] [64B48198] CRC32
01 98,8 [B0AA2298] [A3AB2F90]
02 98,8 [87266B3D] [90571D91]
03 98,8 [EE7EBE60] [4E815974]
04 98,8 [24D422E8] [61D283AF]
05 98,8 [58E441D6] [92CACCAF]
06 98,8 [23547F6A] [F836957A]
07 98,8 [42088213] [CC6E3A2C]
08 98,8 [7E953FE2] [85D77B9B]
09 98,8 [CD55B041] [160C50DF]
10 98,8 [B5928973] [1B1C1468]
11 98,8 [B989C07D] [6F351934]
12 98,8 [9D87227D] [0C24EE1A]

Kathy Mattea - Roses (2002)


See also:
Kathy Mattea - Ready For The Storm (1995)

All thanks go to sergych

>>> My Blog <<<

DOWNLOAD: