Subcategories
Tags
Language
Tags

Kathy Mattea - The Definitive Collection (2006)

Posted By: popsakov
Kathy Mattea - The Definitive Collection (2006)

Kathy Mattea - The Definitive Collection (2006)
EAC Rip | FLAC (Img) + Cue + Log ~ 397 Mb | MP3 CBR320 ~ 160 Mb
Full Scans ~ 97 Mb | 01:06:24 | RAR 5% Recovery
Contemporary Country, Country-Folk, Country-Pop | Mercury Records #B0007233-02

Integrity is the first word that comes to mind when surveying the musical catalog of Kathy Mattea. It is also the adjective that best describes the artist and the woman. The depth of her personal character pours into her work, as well as in her discussions and interviews. Integrity dictates her choices in each song often infused with folk and bluegrass and always lyrical substance, while every note she sings in her deep, lush voice is clear and deliberate. This is the very best of this classy singer whose music manages to combine country, bluegrass, folk and rock. Her 20 Greatest Hits 1983 To 1993 Features #1s 'Eighteen Wheels And A Dozen Roses,' 'Goin' Gone,' 'Come From The Heart,' & 'Burnin' Old Memories' Also Includes Her Hit Rendition Of Nanci Griffith's 'Love At The Five And Dime'. Gorgeous Photos & Insightful Liner Notes.

The Kathy Mattea entry in Universal Music's discount-priced hits series The Definitive Collection is the most extensive compilation on the country singer yet released, and it contains almost all of her major hits from the six-year period, 1986-1991, when she was one of the top hitmakers in country music. In addition, Robyn Flans' longer-than-usual liner notes benefit from a good interview with Mattea. When her most popular songs are played one after another, the listener is reminded anew of the surprisingly high quality of songwriting Mattea was able to identify within the Nashville publishing houses and the diversity of musical settings in which she placed them, not to mention the clarity and conviction with which she sang. In some cases, of course, she didn't have to look far to find material: the heartbreaking ballad "Where've You Been," a Grammy Award winner for Best Country Song, was co-written by her husband, Jon Vezner, with Don Henry. The only thing that mars this album is the omission of the Top Ten hit "A Few Good Things Remain," which cannot be an oversight. It is included on Mattea's previous compilation, A Collection of Hits, which was still in print when The Definitive Collection was released, and it is the only one of that album's ten songs not to be repeated on the later set. This is typically cynical record company marketing practice, deliberately leaving one hit off a hits collection to force fans to buy another disc. It is especially irritating when the album in question is given a title like The Definitive Collection, and it flies in the face of the tone of Flans' liner notes, which begin with the sentence, "Integrity is the first word that comes to mind when surveying the musical catalog of Kathy Mattea." If only that were also true when surveying the track list of this album.

~ William Ruhlmann, All Music

***************

Track List:

01. Street Talk [0:02:43.02]
02. Love At The Five And Dime [0:03:37.72]
03. Walk The Way The Wind Blows [0:03:47.19]
04. You're The Power [0:03:06.20]
05. Train Of Memories [0:02:52.19]
06. Goin' Gone [0:04:24.31]
07. Eighteen Wheels And A Dozen Roses [0:03:19.70]
08. Untold Stories [0:03:01.19]
09. Life As We Knew It [0:03:19.02]
10. Come From The Heart [0:03:08.37]
11. Burnin' Old Memories [0:02:17.57]
12. Where've You Been [0:03:44.50]
13. She Came From Fort Worth [0:03:31.03]
14. The Battle Hymn Of Love (Featuring Tim O'Brien) [0:02:53.02]
15. Time Passes By [0:02:48.31]
16. Lonesome Standard Time [0:02:50.00]
17. Standing Knee Deep In A River (Dying Of Thirst) [0:04:08.27]
18. Walking Away A Winner [0:03:29.51]
19. 455 Rocket [0:04:08.49]
20. Mary, Did You Know? [0:03:12.50]

Exact Audio Copy V1.0 beta 3 from 29. August 2011

EAC extraction logfile from 7. June 2015, 10:23

Kathy Mattea / The Definitive Collection

Used drive : ATAPI iHAS124 D Adapter: 0 ID: 2

Read mode : Secure
Utilize accurate stream : Yes
Defeat audio cache : Yes
Make use of C2 pointers : No

Read offset correction : 6
Overread into Lead-In and Lead-Out : No
Fill up missing offset samples with silence : Yes
Delete leading and trailing silent blocks : No
Null samples used in CRC calculations : Yes
Used interface : Installed external ASPI interface

Used output format : User Defined Encoder
Selected bitrate : 1024 kBit/s
Quality : High
Add ID3 tag : No
Command line compressor : C:\Program Files (x86)\Exact Audio Copy\Flac\flac.exe
Additional command line options : -6 -V -T "ARTIST=%artist%" -T "TITLE=%title%" -T "ALBUM=%albumtitle%" -T "DATE=%year%" -T "TRACKNUMBER=%tracknr%" -T "GENRE=%genre%" -T "COMMENT=%comment%" -T "BAND=%albuminterpret%" -T "COMPOSER=%composer%" %haslyrics%–tag-from-file=LYRICS="%lyricsfile%"%haslyrics% -T "DISCNUMBER=%cdnumber%" -T "TOTALDISCS=%totalcds%" -T "TOTALTRACKS=%numtracks%" %hascover%–picture="%coverfile%"%hascover% %source% -o %dest%


TOC of the extracted CD

Track | Start | Length | Start sector | End sector
––––––––––––––––––––––––––––-
1 | 0:00.00 | 2:43.02 | 0 | 12226
2 | 2:43.02 | 3:37.72 | 12227 | 28573
3 | 6:20.74 | 3:47.19 | 28574 | 45617
4 | 10:08.18 | 3:06.20 | 45618 | 59587
5 | 13:14.38 | 2:52.19 | 59588 | 72506
6 | 16:06.57 | 4:24.31 | 72507 | 92337
7 | 20:31.13 | 3:19.70 | 92338 | 107332
8 | 23:51.08 | 3:01.19 | 107333 | 120926
9 | 26:52.27 | 3:19.02 | 120927 | 135853
10 | 30:11.29 | 3:08.37 | 135854 | 149990
11 | 33:19.66 | 2:17.57 | 149991 | 160322
12 | 35:37.48 | 3:44.50 | 160323 | 177172
13 | 39:22.23 | 3:31.03 | 177173 | 193000
14 | 42:53.26 | 2:53.02 | 193001 | 205977
15 | 45:46.28 | 2:48.31 | 205978 | 218608
16 | 48:34.59 | 2:50.00 | 218609 | 231358
17 | 51:24.59 | 4:08.27 | 231359 | 249985
18 | 55:33.11 | 3:29.51 | 249986 | 265711
19 | 59:02.62 | 4:08.49 | 265712 | 284360
20 | 63:11.36 | 3:12.50 | 284361 | 298810


Range status and errors

Selected range

Filename C:\mm\Kathy Mattea\2006 - The Definitive Collection [B0007233-02]\Kathy Mattea - The Definitive Collection.wav

Peak level 100.0 %
Extraction speed 10.1 X
Range quality 100.0 %
Test CRC DEBE026A
Copy CRC DEBE026A
Copy OK

No errors occurred


AccurateRip summary

Track 1 accurately ripped (confidence 9) [6D3153E0] (AR v2)
Track 2 accurately ripped (confidence 9) [56ECA3B3] (AR v2)
Track 3 accurately ripped (confidence 9) [691616FF] (AR v2)
Track 4 accurately ripped (confidence 8) [9692B08E] (AR v2)
Track 5 accurately ripped (confidence 9) [A2167865] (AR v2)
Track 6 accurately ripped (confidence 9) [69068124] (AR v2)
Track 7 accurately ripped (confidence 9) [309AA571] (AR v2)
Track 8 accurately ripped (confidence 9) [6278F83B] (AR v2)
Track 9 accurately ripped (confidence 9) [1EB8EA40] (AR v2)
Track 10 accurately ripped (confidence 9) [74E24D55] (AR v2)
Track 11 accurately ripped (confidence 9) [9E1F44DB] (AR v2)
Track 12 accurately ripped (confidence 9) [423EC6A1] (AR v2)
Track 13 accurately ripped (confidence 9) [05E33A93] (AR v2)
Track 14 accurately ripped (confidence 9) [8FBAF0BF] (AR v2)
Track 15 accurately ripped (confidence 9) [A0E5913B] (AR v2)
Track 16 accurately ripped (confidence 9) [FBF90DCD] (AR v2)
Track 17 accurately ripped (confidence 9) [0A556EAC] (AR v2)
Track 18 accurately ripped (confidence 9) [A3FB2ABE] (AR v2)
Track 19 accurately ripped (confidence 9) [6818F23F] (AR v2)
Track 20 accurately ripped (confidence 8) [92DEAEEE] (AR v2)

All tracks accurately ripped

End of status report

[CUETools log; Date: 03.05.2021 2:12:09; Version: 2.1.6]
[CTDB TOCID: KM32il7WvO_byBbTPzB8U3yUxdQ-] found.
Track | CTDB Status
1 | (22/22) Accurately ripped
2 | (22/22) Accurately ripped
3 | (22/22) Accurately ripped
4 | (22/22) Accurately ripped
5 | (22/22) Accurately ripped
6 | (22/22) Accurately ripped
7 | (22/22) Accurately ripped
8 | (22/22) Accurately ripped
9 | (22/22) Accurately ripped
10 | (22/22) Accurately ripped
11 | (22/22) Accurately ripped
12 | (22/22) Accurately ripped
13 | (22/22) Accurately ripped
14 | (22/22) Accurately ripped
15 | (21/22) Accurately ripped
16 | (22/22) Accurately ripped
17 | (19/22) Accurately ripped
18 | (22/22) Accurately ripped
19 | (21/22) Accurately ripped
20 | (20/22) Accurately ripped
[AccurateRip ID: 002f757e-02b79cac-1d0f9014] found.
Track [ CRC | V2 ] Status
01 [72bcde5a|6d3153e0] (08+17/30) Accurately ripped
02 [2d409b0b|56eca3b3] (08+17/30) Accurately ripped
03 [e0683ece|691616ff] (07+17/29) Accurately ripped
04 [fcd9b2fb|9692b08e] (08+16/29) Accurately ripped
05 [259babf5|a2167865] (08+17/30) Accurately ripped
06 [cfbb4fa9|69068124] (08+17/30) Accurately ripped
07 [7ef096d8|309aa571] (08+17/30) Accurately ripped
08 [ad79ecc7|6278f83b] (08+17/30) Accurately ripped
09 [ba94086d|1eb8ea40] (07+17/29) Accurately ripped
10 [35331740|74e24d55] (08+17/30) Accurately ripped
11 [d90061de|9e1f44db] (08+17/30) Accurately ripped
12 [1631f0ad|423ec6a1] (09+17/31) Accurately ripped
13 [a6fd27bb|05e33a93] (08+17/30) Accurately ripped
14 [83d68267|8fbaf0bf] (08+17/30) Accurately ripped
15 [76fe4d19|a0e5913b] (08+17/30) Accurately ripped
16 [5648a063|fbf90dcd] (08+17/30) Accurately ripped
17 [7319e7b2|0a556eac] (09+17/31) Accurately ripped
18 [75d7311e|a3fb2abe] (08+17/30) Accurately ripped
19 [6aa4b88d|6818f23f] (08+17/30) Accurately ripped
20 [968eaad2|92deaeee] (07+16/28) Accurately ripped
Offsetted by -36:
01 [1479fb8b] (00/30) No match (V2 was not tested)
02 [3f71f0f5] (00/30) No match (V2 was not tested)
03 [fc6e78ab] (00/29) No match (V2 was not tested)
04 [597c49da] (00/29) No match (V2 was not tested)
05 [a617b1a7] (00/30) No match (V2 was not tested)
06 [7da0b753] (00/30) No match (V2 was not tested)
07 [cb6c9f3e] (00/30) No match (V2 was not tested)
08 [986f8167] (00/30) No match (V2 was not tested)
09 [feb9b5a4] (00/29) No match (V2 was not tested)
10 [b6413a53] (00/30) No match (V2 was not tested)
11 [f84237f5] (00/30) No match (V2 was not tested)
12 [c717a458] (00/31) No match (V2 was not tested)
13 [3a1e4353] (00/30) No match (V2 was not tested)
14 [f92dbf16] (00/30) No match (V2 was not tested)
15 [d80f0e62] (00/30) No match (V2 was not tested)
16 [49da3c17] (00/30) No match (V2 was not tested)
17 [22d58dad] (00/31) No match (V2 was not tested)
18 [9c86dc9b] (00/30) No match (V2 was not tested)
19 [9f58b122] (00/30) No match (V2 was not tested)
20 [ab36c773] (00/28) No match (V2 was not tested)

Track Peak [ CRC32 ] [W/O NULL] [ LOG ]
– 100,0 [DEBE026A] [B3E41CD5] CRC32
01 100,0 [1062E373] [E24CCBB6]
02 100,0 [3F728104] [A4920380]
03 100,0 [15ADEA02] [D98D33A4]
04 99,4 [88EAB681] [6DEA2F40]
05 95,6 [3988EA26] [58FB1A32]
06 97,0 [264B76F2] [A48BF839]
07 98,4 [5B84E000] [977C2F28]
08 100,0 [1356A212] [831DB043]
09 90,9 [2C545FFF] [81965B29]
10 86,8 [5EB8273A] [19B7E099]
11 78,6 [72EEA642] [A61DB004]
12 73,3 [D1522E72] [A5E6F68F]
13 90,3 [F92DD15A] [53EA8F53]
14 84,3 [5BCC996F] [7632FC7D]
15 100,0 [47E37D00] [215C6A5F]
16 100,0 [75A84E30] [FED362FE]
17 100,0 [FC2C9166] [63B8EB37]
18 100,0 [87F9B6D5] [1F103048]
19 100,0 [61933B07] [C98291E9]
20 80,4 [EF648B81] [53427895]

Kathy Mattea - The Definitive Collection (2006)


All thanks go to sergych

>>> Kathy Mattea in my Blog <<<

DOWNLOAD: