Subcategories
Tags
Language
Tags

Kathy Mattea - Walking Away A Winner (1994)

Posted By: popsakov
Kathy Mattea - Walking Away A Winner (1994)

Kathy Mattea - Walking Away A Winner (1994)
EAC Rip | FLAC (Img) + Cue + Log ~ 272 Mb | MP3 CBR320 ~ 128 Mb
Full Scans | 00:34:45 | RAR 5% Recovery
Contemporary Country / Country-Folk / Country-Pop / Country Rock
Mercury #518 852-2

Walking Away a Winner is the eighth studio album released by American country music artist Kathy Mattea. It was released in May 1994, eight months after her Christmas album Good News. Walking Away a Winner was the final album of her career to be certified gold. Its title track, which peaked at #3 on the Billboard Hot Country Singles & Tracks (now Hot Country Songs) charts in early 1994, was also her final Top Ten country hit. Following this single were "Nobody's Gonna Rain on Our Parade" at #13, "Maybe She's Human" at #34 and "Clown in Your Rodeo" at #20.

Walking Away a Winner is the rocked-up/pop side of Kathy Mattea. With records by Mary Chapin Carpenter gathering steam as well as those of Beth Nielsen Chapman, Lucinda Williams getting some notice, and Bonnie Raitt riding the very top of the charts over the previous two years, Mattea took a listen and apparently liked what she heard. There are layers and layers of guitars on the album, and nowhere are they borne out more than on the title track that opens the album. With producer Josh Leo and a deck of tough songs, Mattea showed a side her country audience hadn't yet seen, and one that the adult contemporary and emerging AAA formats could embrace. In other words, the album, with its tightly knit group of astonishingly well-written pop songs done in a slight country manner by a crack group of players, was a winning formula. It's a record that stands the test of time. What makes Mattea such a great singer – besides her gift of a voice – is her empathy. She finds herself in every song she records. On tape, there is no separation between her and her characters, whether it's the woman finally walking away from a dead relationship and seeing herself not as beaten but as free in the title track, the rambling woman relentlessly seeking that lost love no matter where the search takes her in the rollicking "Streets of Your Town," or the overworked, underappreciated wife and mother who breaks down in "Maybe She's Human." From "Clown in Your Rodeo," with its ringing electric 12-strings and hard-swinging refrain, through the final track, the haunting jazzy ballad "Who's Gonna Know," conviction and commitment are fully on display, along with an elegance that is both accessible and sophisticated. This is a winner indeed.

~ Thom Jurek, All Music

***************

Track List:

01. Walking Away A Winner [0:03:30.20]
02. The Street Of Your Town [0:03:43.33]
03. Maybe She's Human [0:03:01.20]
04. Clown In Your Rodeo [0:03:27.27]
05. Who Turned Out The Light [0:03:37.13]
06. Nobody's Gonna Rain On Our Parade [0:03:44.67]
07. Another Man [0:03:17.73]
08. The Cape [0:02:40.37]
09. Grand Canyon [0:04:22.53]
10. Who's Gonna Know [0:03:19.45]

Exact Audio Copy V1.1 from 23. June 2015

EAC extraction logfile from 1. June 2016, 22:29

Kathy Mattea / Walking Away A Winner

Used drive : ATAPI iHAS124 D Adapter: 0 ID: 2

Read mode : Secure
Utilize accurate stream : Yes
Defeat audio cache : Yes
Make use of C2 pointers : No

Read offset correction : 6
Overread into Lead-In and Lead-Out : No
Fill up missing offset samples with silence : Yes
Delete leading and trailing silent blocks : No
Null samples used in CRC calculations : Yes
Used interface : Installed external ASPI interface

Used output format : User Defined Encoder
Selected bitrate : 1024 kBit/s
Quality : High
Add ID3 tag : Yes
Command line compressor : C:\Program Files (x86)\Exact Audio Copy\Flac\flac.exe
Additional command line options : -6 -V -T "ARTIST=%artist%" -T "TITLE=%title%" -T "ALBUM=%albumtitle%" -T "DATE=%year%" -T "TRACKNUMBER=%tracknr%" -T "GENRE=%genre%" -T "COMMENT=%comment%" -T "BAND=%albuminterpret%" -T "COMPOSER=%composer%" %haslyrics%–tag-from-file=LYRICS="%lyricsfile%"%haslyrics% -T "DISCNUMBER=%cdnumber%" -T "TOTALDISCS=%totalcds%" -T "TOTALTRACKS=%numtracks%" %hascover%–picture="%coverfile%"%hascover% %source% -o %dest%


TOC of the extracted CD

Track | Start | Length | Start sector | End sector
––––––––––––––––––––––––––––-
1 | 0:00.00 | 3:30.20 | 0 | 15769
2 | 3:30.20 | 3:43.33 | 15770 | 32527
3 | 7:13.53 | 3:01.20 | 32528 | 46122
4 | 10:14.73 | 3:27.27 | 46123 | 61674
5 | 13:42.25 | 3:37.13 | 61675 | 77962
6 | 17:19.38 | 3:44.67 | 77963 | 94829
7 | 21:04.30 | 3:17.73 | 94830 | 109677
8 | 24:22.28 | 2:40.37 | 109678 | 121714
9 | 27:02.65 | 4:22.53 | 121715 | 141417
10 | 31:25.43 | 3:19.45 | 141418 | 156387


Range status and errors

Selected range

Filename C:\mm\Kathy Mattea\1994 - Walking Away A Winner [518 852-2]\Kathy Mattea - Walking Away A Winner.wav

Peak level 95.5 %
Extraction speed 7.7 X
Range quality 100.0 %
Test CRC FFCA53F8
Copy CRC FFCA53F8
Copy OK

No errors occurred


AccurateRip summary

Track 1 accurately ripped (confidence 21) [74DACFB5] (AR v2)
Track 2 accurately ripped (confidence 20) [49439812] (AR v2)
Track 3 accurately ripped (confidence 21) [7B8C9B58] (AR v2)
Track 4 accurately ripped (confidence 21) [68C2C06B] (AR v2)
Track 5 accurately ripped (confidence 21) [FCEEF42B] (AR v2)
Track 6 accurately ripped (confidence 21) [0DED78E2] (AR v2)
Track 7 accurately ripped (confidence 21) [F60BA971] (AR v2)
Track 8 accurately ripped (confidence 21) [71589EEC] (AR v2)
Track 9 accurately ripped (confidence 21) [9D0C3EAD] (AR v2)
Track 10 accurately ripped (confidence 21) [911AA0DA] (AR v2)

All tracks accurately ripped

End of status report

–– CUETools DB Plugin V2.1.6

[CTDB TOCID: oSTe8HGq.KDQB4KXQ0uZ2LeLNMA-] found
Submit result: oSTe8HGq.KDQB4KXQ0uZ2LeLNMA- has been confirmed
Track | CTDB Status
1 | (12/12) Accurately ripped
2 | (12/12) Accurately ripped
3 | (12/12) Accurately ripped
4 | (12/12) Accurately ripped
5 | (12/12) Accurately ripped
6 | (12/12) Accurately ripped
7 | (12/12) Accurately ripped
8 | (12/12) Accurately ripped
9 | (12/12) Accurately ripped
10 | (12/12) Accurately ripped

[CUETools log; Date: 09.05.2021 1:13:58; Version: 2.1.6]
[CTDB TOCID: oSTe8HGq.KDQB4KXQ0uZ2LeLNMA-] found.
Track | CTDB Status
1 | (43/44) Accurately ripped
2 | (43/44) Accurately ripped
3 | (43/44) Accurately ripped
4 | (43/44) Accurately ripped
5 | (43/44) Accurately ripped
6 | (43/44) Accurately ripped
7 | (43/44) Accurately ripped
8 | (43/44) Accurately ripped
9 | (43/44) Accurately ripped
10 | (44/44) Accurately ripped
[AccurateRip ID: 000d17e8-0068b057-7708250a] found.
Track [ CRC | V2 ] Status
01 [4735e887|74dacfb5] (09+28/37) Accurately ripped
02 [a3e68e04|49439812] (09+27/36) Accurately ripped
03 [8b4d416f|7b8c9b58] (09+28/37) Accurately ripped
04 [082f5c1d|68c2c06b] (09+28/37) Accurately ripped
05 [5bf07e93|fceef42b] (09+28/37) Accurately ripped
06 [25e93e0e|0ded78e2] (09+28/37) Accurately ripped
07 [8b46ac6d|f60ba971] (09+28/37) Accurately ripped
08 [fbf5b5a8|71589eec] (09+28/37) Accurately ripped
09 [922dbf13|9d0c3ead] (10+28/38) Accurately ripped
10 [cc7c1519|911aa0da] (10+28/38) Accurately ripped

Track Peak [ CRC32 ] [W/O NULL] [ LOG ]
– 95,5 [FFCA53F8] [2AF7393E] CRC32
01 83,1 [3DDA2925] [FE655645]
02 83,1 [4BB73CEE] [241C0CC6]
03 67,6 [3BE0A45D] [277385A8]
04 95,5 [A5ECD018] [E1EF0B52]
05 95,5 [215D52CE] [EE948D38]
06 95,5 [2F01AA00] [47FB9E8A]
07 95,5 [2C4280D9] [D6CEAE8D]
08 79,4 [6FCE10AD] [67913289]
09 95,5 [C6C135BD] [4433206D]
10 90,9 [B370F38C] [329EC6EE]

Kathy Mattea - Walking Away A Winner (1994)


All thanks go to sergych

>>> Kathy Mattea in my Blog <<<

DOWNLOAD: