Subcategories
Tags
Language
Tags

Kathy Mattea - Willow In The Wind (1989)

Posted By: popsakov
Kathy Mattea - Willow In The Wind (1989)

Kathy Mattea - Willow In The Wind (1989)
EAC Rip | FLAC (Img) + Cue + Log ~ 220 Mb | MP3 CBR320 ~ 103 Mb
Full Scans | 00:34:22 | RAR 5% Recovery
Contemporary Country / Country-Folk / Country-Pop
Mercury #836 950-2 | US

The year 1989 was awesome for Kathy Mattea. Her brand of country-pop music began to evolve toward folk and Celtic-oriented influences, which were actually encouraged by her label – changes like this in Nash Vegas are few and far between – and what's more, it all translated in terms of chart success and record sales. A strong and indeed the first completely realized project of her career, Willow in the Wind boasted three hits, "Burnin' Old Memories," "Where've You Been," and "Come from the Heart." The hard honky tonk/West Texas swing of "Burnin' Old Memories," with its slightly rocked-up tempo, is more than just catchy; it's infectious. "Hills of Alabam'" is one of those gorgeous songs where the weary traveler – with a lonesome harmonica in the background – romanticizes home as contrasted with the harsh questions of the present and the uncertain future. Mattea's phrasing is impeccable in that she becomes an itinerant musician riding endless hours on some forsaken urban freeway in the predawn light.

But the true stunner on Willow in the Wind is, of course, a love song. Written by Zen bluegrass queen Laurie Lewis, it's the most springlike testament to new love and is free of sentimentality or emotional manipulation, and Mattea's voice is perfect for its utterance. Slippery acoustic guitars, a piano, and a strolling bass anchored by a small drum kit are what frame the verses, with a shimmering pedal steel on the refrains. It's simply orchestrated, with an old-timey feel, and when Mattea takes the last verse she lays all cheesy, false, and clichéd love songs to waste: "Love cuts like a torch to a heart behind steel/And though you may hide it, love knows how you feel/And though you may trespass on the laws of the land/Your heart has to follow when love takes your hand/And it seems we're two people/Within the same circle/It's drawn tighter and tighter/'Till you're all I can see/I'm full and I'm empty and you're pouring through me/Like the warm rain fallin' through the leaves on a tree/Tell me now if I'm wrong are you feeling the same/Are your feet on the ground/Are you callin' my name/Do you lie awake nights/Please say you do/You can't choose who you love/Love chooses you." The record closes two tracks later, but it hardly matters – the case has been made.

~ Thom Jurek, All Music

***************

Track List:

01. Come From The Heart [0:03:10.57]
02. Here's Hopin' [0:02:56.40]
03. Burnin' Old Memories [0:02:19.00]
04. She Came From Fort Worth [0:03:33.55]
05. True North [0:04:21.70]
06. Hills Of Alabam' [0:03:13.38]
07. Willow In The Wind [0:03:44.55]
08. Love Chooses You [0:04:17.62]
09. I'll Take Care Of You [0:02:59.60]
10. Where've You Been [0:03:44.43]

Exact Audio Copy V1.0 beta 3 from 29. August 2011

EAC extraction logfile from 18. April 2015, 1:26

Kathy Mattea / Willow In The Wind

Used drive : ATAPI iHAS124 D Adapter: 0 ID: 2

Read mode : Secure
Utilize accurate stream : Yes
Defeat audio cache : Yes
Make use of C2 pointers : No

Read offset correction : 6
Overread into Lead-In and Lead-Out : No
Fill up missing offset samples with silence : Yes
Delete leading and trailing silent blocks : No
Null samples used in CRC calculations : Yes
Used interface : Installed external ASPI interface

Used output format : User Defined Encoder
Selected bitrate : 1024 kBit/s
Quality : High
Add ID3 tag : No
Command line compressor : C:\Program Files (x86)\Exact Audio Copy\Flac\flac.exe
Additional command line options : -6 -V -T "ARTIST=%artist%" -T "TITLE=%title%" -T "ALBUM=%albumtitle%" -T "DATE=%year%" -T "TRACKNUMBER=%tracknr%" -T "GENRE=%genre%" -T "COMMENT=%comment%" -T "BAND=%albuminterpret%" -T "COMPOSER=%composer%" %haslyrics%–tag-from-file=LYRICS="%lyricsfile%"%haslyrics% -T "DISCNUMBER=%cdnumber%" -T "TOTALDISCS=%totalcds%" -T "TOTALTRACKS=%numtracks%" %hascover%–picture="%coverfile%"%hascover% %source% -o %dest%


TOC of the extracted CD

Track | Start | Length | Start sector | End sector
––––––––––––––––––––––––––––-
1 | 0:00.33 | 3:10.57 | 33 | 14339
2 | 3:11.15 | 2:56.40 | 14340 | 27579
3 | 6:07.55 | 2:19.00 | 27580 | 38004
4 | 8:26.55 | 3:33.55 | 38005 | 54034
5 | 12:00.35 | 4:21.70 | 54035 | 73679
6 | 16:22.30 | 3:13.38 | 73680 | 88192
7 | 19:35.68 | 3:44.55 | 88193 | 105047
8 | 23:20.48 | 4:17.62 | 105048 | 124384
9 | 27:38.35 | 2:59.60 | 124385 | 137869
10 | 30:38.20 | 3:44.43 | 137870 | 154712


Range status and errors

Selected range

Filename C:\mm\Kathy Mattea\1989 - Willow In The Wind [836 950-2]\Kathy Mattea - Willow In The Wind.wav

Peak level 85.8 %
Extraction speed 7.8 X
Range quality 100.0 %
Test CRC E5D12ECA
Copy CRC E5D12ECA
Copy OK

No errors occurred


AccurateRip summary

Track 1 cannot be verified as accurate (confidence 15) [6B55E954], AccurateRip returned [9DDAF016] (AR v2)
Track 2 cannot be verified as accurate (confidence 16) [FAD5F5EC], AccurateRip returned [7AF23002] (AR v2)
Track 3 cannot be verified as accurate (confidence 16) [704B3C05], AccurateRip returned [EE0633C5] (AR v2)
Track 4 cannot be verified as accurate (confidence 16) [7BA53607], AccurateRip returned [41B32D46] (AR v2)
Track 5 cannot be verified as accurate (confidence 16) [4392AF0B], AccurateRip returned [7FC73121] (AR v2)
Track 6 cannot be verified as accurate (confidence 16) [E886F463], AccurateRip returned [E0CC07FD] (AR v2)
Track 7 cannot be verified as accurate (confidence 16) [113D2EEB], AccurateRip returned [D177F8BC] (AR v2)
Track 8 cannot be verified as accurate (confidence 16) [005241DA], AccurateRip returned [6ACD2773] (AR v2)
Track 9 cannot be verified as accurate (confidence 15) [C9A5A9DB], AccurateRip returned [3BE58B0F] (AR v2)
Track 10 cannot be verified as accurate (confidence 15) [7ACC508C], AccurateRip returned [228A5CA0] (AR v2)

No tracks could be verified as accurate
You may have a different pressing from the one(s) in the database

End of status report

[CUETools log; Date: 01.05.2021 18:22:58; Version: 2.1.6]
Pregap length 00:00:33.
[CTDB TOCID: f2nzCPzWokcAx7g8HgD9dFuxbww-] found.
Track | CTDB Status
1 | (93/95) Accurately ripped
2 | (94/95) Accurately ripped
3 | (94/95) Accurately ripped
4 | (94/95) Accurately ripped
5 | (94/95) Accurately ripped
6 | (93/95) Accurately ripped
7 | (93/95) Accurately ripped
8 | (93/95) Accurately ripped
9 | (93/95) Accurately ripped
10 | (89/95) Accurately ripped
[AccurateRip ID: 000c7ada-006537ff-7f080e0a] found.
Track [ CRC | V2 ] Status
01 [9e0e742f|6b55e954] (00+03/86) Accurately ripped
02 [db5c3892|fad5f5ec] (00+03/87) Accurately ripped
03 [931526ec|704b3c05] (00+03/87) Accurately ripped
04 [aa181abc|7ba53607] (00+03/87) Accurately ripped
05 [2012bc66|4392af0b] (00+03/87) Accurately ripped
06 [5ce01681|e886f463] (00+03/85) Accurately ripped
07 [3f0e36ff|113d2eeb] (00+03/86) Accurately ripped
08 [9b15b8fc|005241da] (00+03/85) Accurately ripped
09 [cfd96d47|c9a5a9db] (00+03/84) Accurately ripped
10 [f0f3fac8|7acc508c] (00+03/85) Accurately ripped
Offsetted by -2055:
01 [1205c1f2] (15/86) Accurately ripped
02 [343df00d] (15/87) Accurately ripped
03 [11660975] (15/87) Accurately ripped
04 [b973dddc] (15/87) Accurately ripped
05 [96c9839c] (15/87) Accurately ripped
06 [5df3722d] (15/85) Accurately ripped
07 [6eb79934] (15/86) Accurately ripped
08 [c47cfd2e] (15/85) Accurately ripped
09 [049e9ab4] (15/84) Accurately ripped
10 [3229397e] (15/85) Accurately ripped
Offsetted by -1506:
01 [80762bc0] (03/86) Accurately ripped
02 [5e6546f4] (03/87) Accurately ripped
03 [367b496d] (03/87) Accurately ripped
04 [dd0f01a0] (03/87) Accurately ripped
05 [e528b972] (03/87) Accurately ripped
06 [8b458d33] (03/85) Accurately ripped
07 [9f4a5cd4] (03/86) Accurately ripped
08 [cde5ce1b] (02/85) Accurately ripped
09 [86b0b5b5] (03/84) Accurately ripped
10 [cde4f82c] (03/85) Accurately ripped
Offsetted by -1486:
01 [248c7554] (02/86) Accurately ripped
02 [93611b5f] (02/87) Accurately ripped
03 [05ceb191] (02/87) Accurately ripped
04 [561f3d55] (02/87) Accurately ripped
05 [1e1435b2] (02/87) Accurately ripped
06 [3b176f61] (02/85) Accurately ripped
07 [b39d0e26] (02/86) Accurately ripped
08 [97ee37a6] (02/85) Accurately ripped
09 [9679cf49] (02/84) Accurately ripped
10 [77612015] (02/85) Accurately ripped
Offsetted by -244:
01 [1103cb1b] (04/86) Accurately ripped
02 [c4a6668e] (04/87) Accurately ripped
03 [f4a1e8cd] (04/87) Accurately ripped
04 [15b35e89] (04/87) Accurately ripped
05 [9dc22dba] (04/87) Accurately ripped
06 [7a8c87e8] (04/85) Accurately ripped
07 [49bbf71d] (04/86) Accurately ripped
08 [d9fd911d] (04/85) Accurately ripped
09 [3db22582] (04/84) Accurately ripped
10 [13afe2d7] (04/85) Accurately ripped
Offsetted by -506:
01 [9dcb646f] (00/86) No match (V2 was not tested)
02 [9cb59637] (00/87) No match (V2 was not tested)
03 [f0dbb2f3] (00/87) No match (V2 was not tested)
04 [7eb048fd] (00/87) No match (V2 was not tested)
05 [8c47cf71] (00/87) No match (V2 was not tested)
06 [9e88cc5d] (00/85) No match (V2 was not tested)
07 [4d3b4384] (00/86) No match (V2 was not tested)
08 [99533327] (00/85) No match (V2 was not tested)
09 [ecfea767] (00/84) No match (V2 was not tested)
10 [20477a28] (00/85) No match (V2 was not tested)

Track Peak [ CRC32 ] [W/O NULL] [ LOG ]
– 85,8 [E5D12ECA] [AC635AAE] CRC32
01 54,9 [5C4448D8] [0A921677]
02 52,7 [1A7075BA] [27D40A39]
03 54,1 [524554AA] [D73946C3]
04 62,5 [EF6D6CE9] [46C61137]
05 77,9 [B4545D3E] [84C1AD79]
06 61,5 [BD946855] [0B1D785D]
07 74,6 [38696061] [4176BEE0]
08 83,1 [19EE6897] [28510BBF]
09 85,8 [9230E5A7] [C8D1E8D0]
10 75,8 [9CAC1A05] [BCA0FF35]

Kathy Mattea - Willow In The Wind (1989)


All thanks go to sergych

>>> Kathy Mattea in my Blog <<<

DOWNLOAD: