Subcategories

Kayak - Journey Through Time: Complete Studio Album Coll (2017) [21CD Box Set]

Posted By: v3122
Kayak - Journey Through Time: Complete Studio Album Coll (2017) [21CD Box Set]

Kayak - Journey Through Time: Complete Studio Album Coll (2017)
EAC | Flac(Image) + Cue + Log & MP3 CBR 320Kbps
21CD | Vertigo, 576 272-0 | ~ 7.07 or 2.55 Gb | Scans(png) -> 939 Mb
Pop Rock / Progressive Rock / Symphonic Rock

Limited 21 CD set from the Dutch progressive rockers. This box holds the band's sixteen studio album (including three double albums) and two bonus CD's with non-album tracks, rarities and demo's. One of the bonus CD's most remarkable items is 'Happy New Year', a Kayak demo dating from '74 or '75, that has never been released. There are several Kayak-related tracks like the singe 'Fluffy'/ 'White Walls' (1970) by High Tide Formation (with Pim Koopman, Ton Scherpenzeel, Chiel van Praag and Ron v.d. Werff). Then there's an outstanding collection of no less than eight home-recorded demos of previously unreleased material by Pim, Ton, Johan Slager and Carwin Gijsing under the name of Ten Ride Ticket. The Plan (with Ton and the Kay-ettes) are represented by their 1982 single If This Ain't Love/Hit Bottom. Finally we mention the version of 'I Want You To Be Mine' that in 1978 took Kayak to the USA Top 50. Worth mentioning is the fact that an empty wallet has included an for the yet to be released album Seventeen, which enables the true Kayak collector to really complete this unique album set. Albums have been remastered from the original studio master tapes.

~ allmusic
Kayak - Journey Through Time: Complete Studio Album Coll (2017) [21CD Box Set]

Kayak - Journey Through Time: Complete Studio Album Coll (2017) [21CD Box Set]

Kayak - Journey Through Time: Complete Studio Album Coll (2017):

Kayak - Journey Through Time: Complete Studio Album Coll (2017) [21CD Box Set]

Tracklist CD1 - 1973 See See The Sun:

01 Reason For It All
02 Lyrics
03 Mouldy Wood
04 Lovely Luna
05 Hope For A Life
06 Ballet Of The Cripple
07 Forever Is A Lonely Thought
08 Mammoth
09 See See The Sun

Exact Audio Copy V1.1 from 23. June 2015

EAC extraction logfile from 21. August 2017, 10:27

Kayak / See See The Sun

Used drive : PLEXTOR BD-R PX-B950SA Adapter: 1 ID: 1

Read mode : Secure
Utilize accurate stream : Yes
Defeat audio cache : Yes
Make use of C2 pointers : No

Read offset correction : 6
Overread into Lead-In and Lead-Out : No
Fill up missing offset samples with silence : Yes
Delete leading and trailing silent blocks : No
Null samples used in CRC calculations : Yes
Used interface : Native Win32 interface for Win NT & 2000

Used output format : Internal WAV Routines
Sample format : 44.100 Hz; 16 Bit; Stereo


TOC of the extracted CD

Track | Start | Length | Start sector | End sector
––––––––––––––––––––––––––––-
1 | 0:00.00 | 6:30.04 | 0 | 29253
2 | 6:30.04 | 3:44.15 | 29254 | 46068
3 | 10:14.19 | 5:17.27 | 46069 | 69870
4 | 15:31.46 | 8:21.02 | 69871 | 107447
5 | 23:52.48 | 6:50.00 | 107448 | 138197
6 | 30:42.48 | 4:39.64 | 138198 | 159186
7 | 35:22.37 | 5:28.63 | 159187 | 183849
8 | 40:51.25 | 2:57.71 | 183850 | 197195
9 | 43:49.21 | 4:11.60 | 197196 | 216080


Range status and errors

Selected range

Filename C:\Users\Meijin\Desktop\ALLexxess\Kayak\2017 Journey Through Time (21CD Box Set Universal Music)\1973 See See The Sun\Kayak - See See The Sun.wav

Peak level 97.6 %
Extraction speed 6.9 X
Range quality 99.9 %
Test CRC 54935E56
Copy CRC 54935E56
Copy OK

No errors occurred


AccurateRip summary

Track 1 not present in database
Track 2 not present in database
Track 3 not present in database
Track 4 not present in database
Track 5 not present in database
Track 6 not present in database
Track 7 not present in database
Track 8 not present in database
Track 9 not present in database

None of the tracks are present in the AccurateRip database

End of status report

–– CUETools DB Plugin V2.1.6

[CTDB TOCID: DFaR1dRnri3UKTEKJ1N7mfz_ZHQ-] found
Submit result: DFaR1dRnri3UKTEKJ1N7mfz_ZHQ- has been confirmed
Track | CTDB Status
1 | (6/6) Accurately ripped
2 | (6/6) Accurately ripped
3 | (6/6) Accurately ripped
4 | (6/6) Accurately ripped
5 | (6/6) Accurately ripped
6 | (6/6) Accurately ripped
7 | (6/6) Accurately ripped
8 | (6/6) Accurately ripped
9 | (6/6) Accurately ripped


==== Log checksum B52D0AC47185188C921B3CD92838E65C2BF5526AB0C7C34E2BAD0082C291819E ====


Kayak - Journey Through Time: Complete Studio Album Coll (2017) [21CD Box Set]

Tracklist CD2 - 1974 Kayak:

01 Alibi
02 Wintertime
03 Mountain Too Rough
04 They Get To Know Me
05 Serenades
06 Woe And Alas
07 Mireille
08 Trust In The Machine
09 His Master's Noise

Exact Audio Copy V1.1 from 23. June 2015

EAC extraction logfile from 21. August 2017, 9:59

Kayak / Kayak

Used drive : PLEXTOR BD-R PX-B950SA Adapter: 1 ID: 1

Read mode : Secure
Utilize accurate stream : Yes
Defeat audio cache : Yes
Make use of C2 pointers : No

Read offset correction : 6
Overread into Lead-In and Lead-Out : No
Fill up missing offset samples with silence : Yes
Delete leading and trailing silent blocks : No
Null samples used in CRC calculations : Yes
Used interface : Native Win32 interface for Win NT & 2000

Used output format : Internal WAV Routines
Sample format : 44.100 Hz; 16 Bit; Stereo


TOC of the extracted CD

Track | Start | Length | Start sector | End sector
––––––––––––––––––––––––––––-
1 | 0:00.00 | 3:40.22 | 0 | 16521
2 | 3:40.22 | 2:53.16 | 16522 | 29512
3 | 6:33.38 | 3:58.45 | 29513 | 47407
4 | 10:32.08 | 9:19.13 | 47408 | 89345
5 | 19:51.21 | 3:33.65 | 89346 | 105385
6 | 23:25.11 | 3:01.06 | 105386 | 118966
7 | 26:26.17 | 2:13.48 | 118967 | 128989
8 | 28:39.65 | 6:06.26 | 128990 | 156465
9 | 34:46.16 | 1:47.33 | 156466 | 164523


Range status and errors

Selected range

Filename C:\Users\Meijin\Desktop\ALLexxess\Kayak\2017 Journey Through Time (21CD Box Set Universal Music)\1974 Kayak\Kayak - Kayak.wav

Peak level 100.0 %
Extraction speed 6.5 X
Range quality 100.0 %
Test CRC E3EA59EB
Copy CRC E3EA59EB
Copy OK

No errors occurred


AccurateRip summary

Track 1 not present in database
Track 2 not present in database
Track 3 not present in database
Track 4 not present in database
Track 5 not present in database
Track 6 not present in database
Track 7 not present in database
Track 8 not present in database
Track 9 not present in database

None of the tracks are present in the AccurateRip database

End of status report

–– CUETools DB Plugin V2.1.6

[CTDB TOCID: OLn5HDsiDoMqH50ALfTNE1UcMfg-] found
Submit result: OLn5HDsiDoMqH50ALfTNE1UcMfg- has been confirmed
Track | CTDB Status
1 | (5/5) Accurately ripped
2 | (5/5) Accurately ripped
3 | (5/5) Accurately ripped
4 | (5/5) Accurately ripped
5 | (5/5) Accurately ripped
6 | (5/5) Accurately ripped
7 | (5/5) Accurately ripped
8 | (5/5) Accurately ripped
9 | (5/5) Accurately ripped


==== Log checksum C46F7EEAA90DAD8AD9E02389995B315306EDD1B7EC9822A1639106338B2072B3 ====


Kayak - Journey Through Time: Complete Studio Album Coll (2017) [21CD Box Set]

Tracklist CD3 - 1975 Royal Bed Bouncer:

01 Royal Bed Bouncer
02 Life Of Gold
03 (You're So) Bizarre
04 Bury The World
05 Chance For A Lifetime
06 If This Is Your Welcome
07 Moments Of Joy
08 Patricia Anglaia
09 Said No Word
10 My Heart Never Changed

Exact Audio Copy V1.1 from 23. June 2015

EAC extraction logfile from 21. August 2017, 9:35

Kayak / Royal Bed Bouncer

Used drive : PLEXTOR BD-R PX-B950SA Adapter: 1 ID: 1

Read mode : Secure
Utilize accurate stream : Yes
Defeat audio cache : Yes
Make use of C2 pointers : No

Read offset correction : 6
Overread into Lead-In and Lead-Out : No
Fill up missing offset samples with silence : Yes
Delete leading and trailing silent blocks : No
Null samples used in CRC calculations : Yes
Used interface : Native Win32 interface for Win NT & 2000

Used output format : Internal WAV Routines
Sample format : 44.100 Hz; 16 Bit; Stereo


TOC of the extracted CD

Track | Start | Length | Start sector | End sector
––––––––––––––––––––––––––––-
1 | 0:00.00 | 4:00.28 | 0 | 18027
2 | 4:00.28 | 3:27.37 | 18028 | 33589
3 | 7:27.65 | 3:50.49 | 33590 | 50888
4 | 11:18.39 | 4:23.32 | 50889 | 70645
5 | 15:41.71 | 4:13.68 | 70646 | 89688
6 | 19:55.64 | 4:56.56 | 89689 | 111944
7 | 24:52.45 | 4:01.66 | 111945 | 130085
8 | 28:54.36 | 2:15.45 | 130086 | 140255
9 | 31:10.06 | 5:14.63 | 140256 | 163868
10 | 36:24.69 | 2:32.25 | 163869 | 175293


Range status and errors

Selected range

Filename C:\Users\Meijin\Desktop\ALLexxess\Kayak\2017 Journey Through Time (21CD Box Set Universal Music)\1975 Royal Bed Bouncer\Kayak - Royal Bed Bouncer.wav

Peak level 100.0 %
Extraction speed 6.6 X
Range quality 100.0 %
Test CRC F7CE13E6
Copy CRC F7CE13E6
Copy OK

No errors occurred


AccurateRip summary

Track 1 not present in database
Track 2 not present in database
Track 3 not present in database
Track 4 not present in database
Track 5 not present in database
Track 6 not present in database
Track 7 not present in database
Track 8 not present in database
Track 9 not present in database
Track 10 not present in database

None of the tracks are present in the AccurateRip database

End of status report

–– CUETools DB Plugin V2.1.6

[CTDB TOCID: efgtiCq7kgHp.ois.iLkG61bln0-] found
Submit result: efgtiCq7kgHp.ois.iLkG61bln0- has been confirmed
Track | CTDB Status
1 | (5/5) Accurately ripped
2 | (5/5) Accurately ripped
3 | (5/5) Accurately ripped
4 | (5/5) Accurately ripped
5 | (5/5) Accurately ripped
6 | (5/5) Accurately ripped
7 | (5/5) Accurately ripped
8 | (5/5) Accurately ripped
9 | (5/5) Accurately ripped
10 | (5/5) Accurately ripped


==== Log checksum 0DB0671B38D5E2D17A69B2F73F10FF7CD1D4F23583B3888DF88322DC1E080CA6 ====


Kayak - Journey Through Time: Complete Studio Album Coll (2017) [21CD Box Set]

Tracklist CD4 - 1976 The Last Encore:

01 Back To The Front
02 Nothingness
03 Love Of A Victim
04 Land On The Water
05 The Last Encore
06 Do You Care
07 Still My Heart Cries For You
08 Relics From A Distant Age
09 Love Me Tonight / Get On Board
10 Evocation
11 Raid Your Own House
12 Well Done

Exact Audio Copy V1.1 from 23. June 2015

EAC extraction logfile from 21. August 2017, 9:08

Kayak / The Last Encore

Used drive : PLEXTOR BD-R PX-B950SA Adapter: 1 ID: 1

Read mode : Secure
Utilize accurate stream : Yes
Defeat audio cache : Yes
Make use of C2 pointers : No

Read offset correction : 6
Overread into Lead-In and Lead-Out : No
Fill up missing offset samples with silence : Yes
Delete leading and trailing silent blocks : No
Null samples used in CRC calculations : Yes
Used interface : Native Win32 interface for Win NT & 2000

Used output format : Internal WAV Routines
Sample format : 44.100 Hz; 16 Bit; Stereo


TOC of the extracted CD

Track | Start | Length | Start sector | End sector
––––––––––––––––––––––––––––-
1 | 0:00.00 | 4:33.32 | 0 | 20506
2 | 4:33.32 | 3:56.74 | 20507 | 38280
3 | 8:30.31 | 2:51.46 | 38281 | 51151
4 | 11:22.02 | 2:29.43 | 51152 | 62369
5 | 13:51.45 | 4:01.59 | 62370 | 80503
6 | 17:53.29 | 2:57.15 | 80504 | 93793
7 | 20:50.44 | 4:36.28 | 93794 | 114521
8 | 25:26.72 | 4:59.26 | 114522 | 136972
9 | 30:26.23 | 2:42.58 | 136973 | 149180
10 | 33:09.06 | 3:52.45 | 149181 | 166625
11 | 37:01.51 | 3:37.62 | 166626 | 182962
12 | 40:39.38 | 0:51.51 | 182963 | 186838


Range status and errors

Selected range

Filename C:\Users\Meijin\Desktop\ALLexxess\Kayak\2017 Journey Through Time (21CD Box Set Universal Music)\1976 The Last Encore\Kayak - The Last Encore.wav

Peak level 100.0 %
Extraction speed 6.7 X
Range quality 100.0 %
Test CRC 788A7821
Copy CRC 788A7821
Copy OK

No errors occurred


AccurateRip summary

Track 1 not present in database
Track 2 not present in database
Track 3 not present in database
Track 4 not present in database
Track 5 not present in database
Track 6 not present in database
Track 7 not present in database
Track 8 not present in database
Track 9 not present in database
Track 10 not present in database
Track 11 not present in database
Track 12 not present in database

None of the tracks are present in the AccurateRip database

End of status report

–– CUETools DB Plugin V2.1.6

[CTDB TOCID: WqTCfBRfbEwzV2BUlx4Oqtw4_lo-] found
Submit result: WqTCfBRfbEwzV2BUlx4Oqtw4_lo- has been confirmed
Track | CTDB Status
1 | (5/5) Accurately ripped
2 | (5/5) Accurately ripped
3 | (5/5) Accurately ripped
4 | (5/5) Accurately ripped
5 | (5/5) Accurately ripped
6 | (5/5) Accurately ripped
7 | (5/5) Accurately ripped
8 | (5/5) Accurately ripped
9 | (5/5) Accurately ripped
10 | (5/5) Accurately ripped
11 | (5/5) Accurately ripped
12 | (5/5) Accurately ripped


==== Log checksum 59ACE6AB3F120C5A1E266AD4AB84B34A601C07C7F600F81354737C68EDA210BA ====


Kayak - Journey Through Time: Complete Studio Album Coll (2017) [21CD Box Set]

Tracklist CD5 - 1977 Starlight Dancer:

01 Daughter Or Son
02 Starlight Dancer
03 Want You To Be Mine
04 Letdown
05 Irene
06 Golddust
07 May
08 Turn The Tide
09 Dead Bird Flies Forever
10 Sweet Revenge
11 Where Do We Go From Here

Exact Audio Copy V1.1 from 23. June 2015

EAC extraction logfile from 20. August 2017, 17:20

Kayak / Starlight Dancer

Used drive : PLEXTOR BD-R PX-B950SA Adapter: 1 ID: 1

Read mode : Secure
Utilize accurate stream : Yes
Defeat audio cache : Yes
Make use of C2 pointers : No

Read offset correction : 6
Overread into Lead-In and Lead-Out : No
Fill up missing offset samples with silence : Yes
Delete leading and trailing silent blocks : No
Null samples used in CRC calculations : Yes
Used interface : Native Win32 interface for Win NT & 2000

Used output format : Internal WAV Routines
Sample format : 44.100 Hz; 16 Bit; Stereo


TOC of the extracted CD

Track | Start | Length | Start sector | End sector
––––––––––––––––––––––––––––-
1 | 0:00.00 | 3:45.10 | 0 | 16884
2 | 3:45.10 | 5:00.27 | 16885 | 39411
3 | 8:45.37 | 3:40.02 | 39412 | 55913
4 | 12:25.39 | 2:49.47 | 55914 | 68635
5 | 15:15.11 | 4:26.01 | 68636 | 88586
6 | 19:41.12 | 2:40.63 | 88587 | 100649
7 | 22:22.00 | 4:28.23 | 100650 | 120772
8 | 26:50.23 | 3:38.16 | 120773 | 137138
9 | 30:28.39 | 4:21.22 | 137139 | 156735
10 | 34:49.61 | 3:33.72 | 156736 | 172782
11 | 38:23.58 | 4:43.02 | 172783 | 194009


Range status and errors

Selected range

Filename C:\Users\Meijin\Desktop\ALLexxess\Kayak\2017 Journey Through Time (21CD Box Set Universal Music)\1977 Starlight Dancer\Kayak - Starlight Dancer.wav

Peak level 100.0 %
Extraction speed 6.7 X
Range quality 100.0 %
Test CRC 70A7284F
Copy CRC 70A7284F
Copy OK

No errors occurred


AccurateRip summary

Track 1 not present in database
Track 2 not present in database
Track 3 not present in database
Track 4 not present in database
Track 5 not present in database
Track 6 not present in database
Track 7 not present in database
Track 8 not present in database
Track 9 not present in database
Track 10 not present in database
Track 11 not present in database

None of the tracks are present in the AccurateRip database

End of status report

–– CUETools DB Plugin V2.1.6

[CTDB TOCID: 45GOoKU818PVWi.yosu6PGzoN08-] found
Submit result: 45GOoKU818PVWi.yosu6PGzoN08- has been confirmed
Track | CTDB Status
1 | (6/6) Accurately ripped
2 | (6/6) Accurately ripped
3 | (6/6) Accurately ripped
4 | (6/6) Accurately ripped
5 | (6/6) Accurately ripped
6 | (6/6) Accurately ripped
7 | (6/6) Accurately ripped
8 | (6/6) Accurately ripped
9 | (6/6) Accurately ripped
10 | (6/6) Accurately ripped
11 | (6/6) Accurately ripped


==== Log checksum 2E0C69AA536CE0F65B6627F2E4EC1F474BE25AB271DACC9CE6C77E7C47E8BA91 ====


Kayak - Journey Through Time: Complete Studio Album Coll (2017) [21CD Box Set]

Tracklist CD6 - 1978 Phantom Of The Night:

01 Winning Ways
02 Keep The Change
03 Ruthless Queen
04 Crime Of Passion
05 First Signs Of Spring
06 Daphne (Laurel Tree)
07 The Poet And The One Man Band
08 No Man's Land
09 Journey Through Time
10 Phantom Of The Night

Exact Audio Copy V1.1 from 23. June 2015

EAC extraction logfile from 20. August 2017, 16:52

Kayak / Phantom Of The Night

Used drive : PLEXTOR BD-R PX-B950SA Adapter: 1 ID: 1

Read mode : Secure
Utilize accurate stream : Yes
Defeat audio cache : Yes
Make use of C2 pointers : No

Read offset correction : 6
Overread into Lead-In and Lead-Out : No
Fill up missing offset samples with silence : Yes
Delete leading and trailing silent blocks : No
Null samples used in CRC calculations : Yes
Used interface : Native Win32 interface for Win NT & 2000

Used output format : Internal WAV Routines
Sample format : 44.100 Hz; 16 Bit; Stereo


TOC of the extracted CD

Track | Start | Length | Start sector | End sector
––––––––––––––––––––––––––––-
1 | 0:00.00 | 3:39.20 | 0 | 16444
2 | 3:39.20 | 3:40.35 | 16445 | 32979
3 | 7:19.55 | 4:51.63 | 32980 | 54867
4 | 12:11.43 | 3:35.32 | 54868 | 71024
5 | 15:47.00 | 3:45.09 | 71025 | 87908
6 | 19:32.09 | 5:12.55 | 87909 | 111363
7 | 24:44.64 | 4:13.65 | 111364 | 130403
8 | 28:58.54 | 4:07.27 | 130404 | 148955
9 | 33:06.06 | 3:25.25 | 148956 | 164355
10 | 36:31.31 | 4:59.57 | 164356 | 186837


Range status and errors

Selected range

Filename C:\Users\Meijin\Desktop\ALLexxess\Kayak\2017 Journey Through Time (21CD Box Set Universal Music)\1978 Phantom Of The Night\Kayak - Phantom Of The Night.wav

Peak level 99.9 %
Extraction speed 6.6 X
Range quality 100.0 %
Test CRC AEDEA888
Copy CRC AEDEA888
Copy OK

No errors occurred


AccurateRip summary

Track 1 not present in database
Track 2 not present in database
Track 3 not present in database
Track 4 not present in database
Track 5 not present in database
Track 6 not present in database
Track 7 not present in database
Track 8 not present in database
Track 9 not present in database
Track 10 not present in database

None of the tracks are present in the AccurateRip database

End of status report

–– CUETools DB Plugin V2.1.6

[CTDB TOCID: qxTYwoZGUwvc0jUkaWsZocech58-] found
Submit result: qxTYwoZGUwvc0jUkaWsZocech58- has been confirmed
Track | CTDB Status
1 | (5/5) Accurately ripped
2 | (5/5) Accurately ripped
3 | (5/5) Accurately ripped
4 | (5/5) Accurately ripped
5 | (5/5) Accurately ripped
6 | (5/5) Accurately ripped
7 | (5/5) Accurately ripped
8 | (5/5) Accurately ripped
9 | (5/5) Accurately ripped
10 | (5/5) Accurately ripped


==== Log checksum AA0C7A4C475A75F4E116E11B62CA7C255DEB85212C7F405E09B9B22B238B0E79 ====


Kayak - Journey Through Time: Complete Studio Album Coll (2017) [21CD Box Set]

Tracklist CD7 - 1980 Periscope Life:

01 Astral Aliens
02 What's In A Name
03 Stop That Song
04 If You Really Need Me Now
05 Periscope Life
06 Beggars Can't Be Choosers
07 The Sight
08 Lost Blue Of Chartres
09 Anne
10 One Way Or Another
11 Sad To Say Farewell

Exact Audio Copy V1.1 from 23. June 2015

EAC extraction logfile from 20. August 2017, 12:23

Kayak / Periscope Life

Used drive : PLEXTOR BD-R PX-B950SA Adapter: 1 ID: 1

Read mode : Secure
Utilize accurate stream : Yes
Defeat audio cache : Yes
Make use of C2 pointers : No

Read offset correction : 6
Overread into Lead-In and Lead-Out : No
Fill up missing offset samples with silence : Yes
Delete leading and trailing silent blocks : No
Null samples used in CRC calculations : Yes
Used interface : Native Win32 interface for Win NT & 2000

Used output format : Internal WAV Routines
Sample format : 44.100 Hz; 16 Bit; Stereo


TOC of the extracted CD

Track | Start | Length | Start sector | End sector
––––––––––––––––––––––––––––-
1 | 0:00.00 | 3:40.56 | 0 | 16555
2 | 3:40.56 | 4:09.15 | 16556 | 35245
3 | 7:49.71 | 3:18.25 | 35246 | 50120
4 | 11:08.21 | 4:19.33 | 50121 | 69578
5 | 15:27.54 | 3:31.56 | 69579 | 85459
6 | 18:59.35 | 4:41.02 | 85460 | 106536
7 | 23:40.37 | 4:02.74 | 106537 | 124760
8 | 27:43.36 | 3:39.10 | 124761 | 141195
9 | 31:22.46 | 4:23.56 | 141196 | 160976
10 | 35:46.27 | 3:24.14 | 160977 | 176290
11 | 39:10.41 | 4:28.52 | 176291 | 196442


Range status and errors

Selected range

Filename C:\Users\Meijin\Desktop\ALLexxess\Kayak\2017 Journey Through Time (21CD Box Set Universal Music)\1980 Periscope Life\Kayak - Periscope Life.wav

Peak level 100.0 %
Extraction speed 6.8 X
Range quality 100.0 %
Test CRC 9C4B723F
Copy CRC 9C4B723F
Copy OK

No errors occurred


AccurateRip summary

Track 1 not present in database
Track 2 not present in database
Track 3 not present in database
Track 4 not present in database
Track 5 not present in database
Track 6 not present in database
Track 7 not present in database
Track 8 not present in database
Track 9 not present in database
Track 10 not present in database
Track 11 not present in database

None of the tracks are present in the AccurateRip database

End of status report

–– CUETools DB Plugin V2.1.6

[CTDB TOCID: 2aI6vZK37Xqq.cMSamjS0fBQIPk-] found
Submit result: 2aI6vZK37Xqq.cMSamjS0fBQIPk- has been confirmed
Track | CTDB Status
1 | (5/5) Accurately ripped
2 | (5/5) Accurately ripped
3 | (5/5) Accurately ripped
4 | (5/5) Accurately ripped
5 | (5/5) Accurately ripped
6 | (5/5) Accurately ripped
7 | (5/5) Accurately ripped
8 | (5/5) Accurately ripped
9 | (5/5) Accurately ripped
10 | (5/5) Accurately ripped
11 | (5/5) Accurately ripped


==== Log checksum 159911740B4F17B5194DE370809E1418D44B5855663C24322AB7DFE56C034E22 ====


Kayak - Journey Through Time: Complete Studio Album Coll (2017) [21CD Box Set]

Tracklist CD8 - 1981 Merlin:

01 Merlin
02 Tintagel
03 The Sword In The Stone
04 The King's Enchanter
05 Niniane (Lady Of The Lake)
06 Seagull
07 Boogie Heart
08 Now That We've Come This Far
09 Can't Afford To Lose
10 Love's Aglow

Exact Audio Copy V1.1 from 23. June 2015

EAC extraction logfile from 20. August 2017, 11:58

Kayak / Merlin

Used drive : PLEXTOR BD-R PX-B950SA Adapter: 1 ID: 1

Read mode : Secure
Utilize accurate stream : Yes
Defeat audio cache : Yes
Make use of C2 pointers : No

Read offset correction : 6
Overread into Lead-In and Lead-Out : No
Fill up missing offset samples with silence : Yes
Delete leading and trailing silent blocks : No
Null samples used in CRC calculations : Yes
Used interface : Native Win32 interface for Win NT & 2000

Used output format : Internal WAV Routines
Sample format : 44.100 Hz; 16 Bit; Stereo


TOC of the extracted CD

Track | Start | Length | Start sector | End sector
––––––––––––––––––––––––––––-
1 | 0:00.00 | 7:21.66 | 0 | 33140
2 | 7:21.66 | 2:40.36 | 33141 | 45176
3 | 10:02.27 | 3:29.70 | 45177 | 60921
4 | 13:32.22 | 2:41.05 | 60922 | 73001
5 | 16:13.27 | 7:22.24 | 73002 | 106175
6 | 23:35.51 | 4:12.50 | 106176 | 125125
7 | 27:48.26 | 4:12.06 | 125126 | 144031
8 | 32:00.32 | 4:30.61 | 144032 | 164342
9 | 36:31.18 | 3:20.65 | 164343 | 179407
10 | 39:52.08 | 6:03.63 | 179408 | 206695


Range status and errors

Selected range

Filename C:\Users\Meijin\Desktop\ALLexxess\Kayak\2017 Journey Through Time (21CD Box Set Universal Music)\1981 Merlin\Kayak - Merlin.wav

Peak level 100.0 %
Extraction speed 6.6 X
Range quality 99.9 %
Test CRC AC602AA5
Copy CRC AC602AA5
Copy OK

No errors occurred


AccurateRip summary

Track 1 not present in database
Track 2 not present in database
Track 3 not present in database
Track 4 not present in database
Track 5 not present in database
Track 6 not present in database
Track 7 not present in database
Track 8 not present in database
Track 9 not present in database
Track 10 not present in database

None of the tracks are present in the AccurateRip database

End of status report

–– CUETools DB Plugin V2.1.6

[CTDB TOCID: pAm2fzOCU2YTybvUAJ2NKTvU.j4-] found
Submit result: pAm2fzOCU2YTybvUAJ2NKTvU.j4- has been confirmed
Track | CTDB Status
1 | (5/5) Accurately ripped
2 | (5/5) Accurately ripped
3 | (5/5) Accurately ripped
4 | (5/5) Accurately ripped
5 | (5/5) Accurately ripped
6 | (5/5) Accurately ripped
7 | (5/5) Accurately ripped
8 | (5/5) Accurately ripped
9 | (5/5) Accurately ripped
10 | (4/5) Accurately ripped


==== Log checksum 9AFCBE5EBF4809B54159491485FFA4CD4C58503B6EDD518FF539981D6A27016B ====


Kayak - Journey Through Time: Complete Studio Album Coll (2017) [21CD Box Set]

Tracklist CD9 - 2000 Close To The Fire:

01 Close To The Fire
02 When Hearts Grow Cold
03 Dream Child
04 Frozen Flame
05 Forever
06 Worlds Apart
07 Crusader
08 Two Wrongs (Don't Make A Right)
09 Anybody's Child
10 Here Today
11 Just A Matter Of Time
12 Full Circle
13 Ruthless Queen

Exact Audio Copy V1.1 from 23. June 2015

EAC extraction logfile from 19. August 2017, 21:16

Kayak / Close To The Fire

Used drive : PLEXTOR BD-R PX-B950SA Adapter: 1 ID: 1

Read mode : Secure
Utilize accurate stream : Yes
Defeat audio cache : Yes
Make use of C2 pointers : No

Read offset correction : 6
Overread into Lead-In and Lead-Out : No
Fill up missing offset samples with silence : Yes
Delete leading and trailing silent blocks : No
Null samples used in CRC calculations : Yes
Used interface : Native Win32 interface for Win NT & 2000

Used output format : Internal WAV Routines
Sample format : 44.100 Hz; 16 Bit; Stereo


TOC of the extracted CD

Track | Start | Length | Start sector | End sector
––––––––––––––––––––––––––––-
1 | 0:00.00 | 8:15.23 | 0 | 37147
2 | 8:15.23 | 3:09.69 | 37148 | 51391
3 | 11:25.17 | 3:33.22 | 51392 | 67388
4 | 14:58.39 | 6:37.08 | 67389 | 97171
5 | 21:35.47 | 4:39.73 | 97172 | 118169
6 | 26:15.45 | 5:13.67 | 118170 | 141711
7 | 31:29.37 | 4:41.17 | 141712 | 162803
8 | 36:10.54 | 3:37.07 | 162804 | 179085
9 | 39:47.61 | 5:03.28 | 179086 | 201838
10 | 44:51.14 | 3:36.73 | 201839 | 218111
11 | 48:28.12 | 3:36.63 | 218112 | 234374
12 | 52:05.00 | 5:57.56 | 234375 | 261205
13 | 58:02.56 | 4:59.56 | 261206 | 283686


Range status and errors

Selected range

Filename C:\Users\Meijin\Desktop\ALLexxess\Kayak\2017 Journey Through Time (21CD Box Set Universal Music)\2000 Close To The Fire\Kayak - Close To The Fire.wav

Peak level 100.0 %
Extraction speed 7.3 X
Range quality 99.9 %
Test CRC 7614EF66
Copy CRC 7614EF66
Copy OK

No errors occurred


AccurateRip summary

Track 1 not present in database
Track 2 not present in database
Track 3 not present in database
Track 4 not present in database
Track 5 not present in database
Track 6 not present in database
Track 7 not present in database
Track 8 not present in database
Track 9 not present in database
Track 10 not present in database
Track 11 not present in database
Track 12 not present in database
Track 13 not present in database

None of the tracks are present in the AccurateRip database

End of status report

–– CUETools DB Plugin V2.1.6

[CTDB TOCID: PAm9J.25eQvE5isgsts0t5.cKT4-] found
Submit result: PAm9J.25eQvE5isgsts0t5.cKT4- has been confirmed
Track | CTDB Status
1 | (4/4) Accurately ripped
2 | (4/4) Accurately ripped
3 | (4/4) Accurately ripped
4 | (4/4) Accurately ripped
5 | (4/4) Accurately ripped
6 | (4/4) Accurately ripped
7 | (4/4) Accurately ripped
8 | (4/4) Accurately ripped
9 | (4/4) Accurately ripped
10 | (4/4) Accurately ripped
11 | (4/4) Accurately ripped
12 | (4/4) Accurately ripped
13 | (4/4) Accurately ripped


==== Log checksum B41DD962EFCE245F60CD0C3EBE23D22D0EF3B582BC9734615A0A1A4E8D42471A ====


Kayak - Journey Through Time: Complete Studio Album Coll (2017) [21CD Box Set]

Tracklist CD10 - 2001 Night Vision:

01 Icarus
02 Miracle Man
03 Cassandra
04 A Million Years
05 Water For Guns
06 The Way Of The World
07 Hold Me Forever
08 Tradition
09 All Over Again
10 Life Without Parole
11 How
12 Carry On Boy
13 Good Riddance
14 Rings Of Saturn

Exact Audio Copy V1.1 from 23. June 2015

EAC extraction logfile from 19. August 2017, 15:41

Kayak / Night Vision

Used drive : PLEXTOR BD-R PX-B950SA Adapter: 1 ID: 1

Read mode : Secure
Utilize accurate stream : Yes
Defeat audio cache : Yes
Make use of C2 pointers : No

Read offset correction : 6
Overread into Lead-In and Lead-Out : No
Fill up missing offset samples with silence : Yes
Delete leading and trailing silent blocks : No
Null samples used in CRC calculations : Yes
Used interface : Native Win32 interface for Win NT & 2000

Used output format : Internal WAV Routines
Sample format : 44.100 Hz; 16 Bit; Stereo


TOC of the extracted CD

Track | Start | Length | Start sector | End sector
––––––––––––––––––––––––––––-
1 | 0:00.00 | 8:24.37 | 0 | 37836
2 | 8:24.37 | 4:54.46 | 37837 | 59932
3 | 13:19.08 | 4:26.14 | 59933 | 79896
4 | 17:45.22 | 4:37.14 | 79897 | 100685
5 | 22:22.36 | 4:09.34 | 100686 | 119394
6 | 26:31.70 | 4:35.59 | 119395 | 140078
7 | 31:07.54 | 3:28.11 | 140079 | 155689
8 | 34:35.65 | 8:00.09 | 155690 | 191698
9 | 42:35.74 | 5:07.26 | 191699 | 214749
10 | 47:43.25 | 4:12.21 | 214750 | 233670
11 | 51:55.46 | 4:58.16 | 233671 | 256036
12 | 56:53.62 | 4:05.12 | 256037 | 274423
13 | 60:58.74 | 4:13.65 | 274424 | 293463
14 | 65:12.64 | 4:04.49 | 293464 | 311812


Range status and errors

Selected range

Filename C:\Users\Meijin\Desktop\ALLexxess\Kayak\2017 Journey Through Time (21CD Box Set Universal Music)\2001 Night Vision\Kayak - Night Vision.wav

Peak level 100.0 %
Extraction speed 8.0 X
Range quality 100.0 %
Test CRC B7604253
Copy CRC B7604253
Copy OK

No errors occurred


AccurateRip summary

Track 1 not present in database
Track 2 not present in database
Track 3 not present in database
Track 4 not present in database
Track 5 not present in database
Track 6 not present in database
Track 7 not present in database
Track 8 not present in database
Track 9 not present in database
Track 10 not present in database
Track 11 not present in database
Track 12 not present in database
Track 13 not present in database
Track 14 not present in database

None of the tracks are present in the AccurateRip database

End of status report

–– CUETools DB Plugin V2.1.6

[CTDB TOCID: xsUFUpVx6rQPEKNnGQDFWe7DIMg-] found
Submit result: xsUFUpVx6rQPEKNnGQDFWe7DIMg- has been confirmed
Track | CTDB Status
1 | (4/4) Accurately ripped
2 | (4/4) Accurately ripped
3 | (4/4) Accurately ripped
4 | (4/4) Accurately ripped
5 | (4/4) Accurately ripped
6 | (4/4) Accurately ripped
7 | (4/4) Accurately ripped
8 | (4/4) Accurately ripped
9 | (4/4) Accurately ripped
10 | (4/4) Accurately ripped
11 | (4/4) Accurately ripped
12 | (4/4) Accurately ripped
13 | (4/4) Accurately ripped
14 | (3/4) Accurately ripped


==== Log checksum CF5700C92E890D56B53B212145B419A2B21B1F2476C65924CACB05698289161E ====


Kayak - Journey Through Time: Complete Studio Album Coll (2017) [21CD Box Set]

Tracklist CD11 - 2003 Merlin - Bard Of The Unseen:

01 Merlin
02 Tintagel
03 The Future King
04 The Sword In The Stone
05 When The Seer Looks Away
06 Branded
07 At Arthur's Court
08 The Otherworld
09 The Purest Of Knights
10 Friendship And Love
11 The King's Enchanter
12 Niniane (Lady Of The Lake)
13 The Last Battle
14 Avalon

Exact Audio Copy V1.1 from 23. June 2015

EAC extraction logfile from 19. August 2017, 15:05

Kayak / Merlin - Bard Of The Unseen

Used drive : PLEXTOR BD-R PX-B950SA Adapter: 1 ID: 1

Read mode : Secure
Utilize accurate stream : Yes
Defeat audio cache : Yes
Make use of C2 pointers : No

Read offset correction : 6
Overread into Lead-In and Lead-Out : No
Fill up missing offset samples with silence : Yes
Delete leading and trailing silent blocks : No
Null samples used in CRC calculations : Yes
Used interface : Native Win32 interface for Win NT & 2000

Used output format : Internal WAV Routines
Sample format : 44.100 Hz; 16 Bit; Stereo


TOC of the extracted CD

Track | Start | Length | Start sector | End sector
––––––––––––––––––––––––––––-
1 | 0:00.00 | 7:52.48 | 0 | 35447
2 | 7:52.48 | 2:51.33 | 35448 | 48305
3 | 10:44.06 | 3:00.38 | 48306 | 61843
4 | 13:44.44 | 3:45.02 | 61844 | 78720
5 | 17:29.46 | 4:19.36 | 78721 | 98181
6 | 21:49.07 | 3:53.46 | 98182 | 115702
7 | 25:42.53 | 3:17.09 | 115703 | 130486
8 | 28:59.62 | 8:01.13 | 130487 | 166574
9 | 37:01.00 | 5:49.50 | 166575 | 192799
10 | 42:50.50 | 5:15.00 | 192800 | 216424
11 | 48:05.50 | 2:33.74 | 216425 | 227973
12 | 50:39.49 | 7:10.40 | 227974 | 260263
13 | 57:50.14 | 8:14.00 | 260264 | 297313
14 | 66:04.14 | 3:44.30 | 297314 | 314143


Range status and errors

Selected range

Filename C:\Users\Meijin\Desktop\ALLexxess\Kayak\2017 Journey Through Time (21CD Box Set Universal Music)\2003 Merlin - Bard Of The Unseen\Kayak - Merlin - Bard Of The Unseen.wav

Peak level 100.0 %
Extraction speed 8.0 X
Range quality 100.0 %
Test CRC D5582C40
Copy CRC D5582C40
Copy OK

No errors occurred


AccurateRip summary

Track 1 not present in database
Track 2 not present in database
Track 3 not present in database
Track 4 not present in database
Track 5 not present in database
Track 6 not present in database
Track 7 not present in database
Track 8 not present in database
Track 9 not present in database
Track 10 not present in database
Track 11 not present in database
Track 12 not present in database
Track 13 not present in database
Track 14 not present in database

None of the tracks are present in the AccurateRip database

End of status report

–– CUETools DB Plugin V2.1.6

[CTDB TOCID: rtDAqUYIGS9zVtgX54GBbtaPyX8-] found
Submit result: rtDAqUYIGS9zVtgX54GBbtaPyX8- has been confirmed
Track | CTDB Status
1 | (4/4) Accurately ripped
2 | (4/4) Accurately ripped
3 | (4/4) Accurately ripped
4 | (4/4) Accurately ripped
5 | (4/4) Accurately ripped
6 | (4/4) Accurately ripped
7 | (4/4) Accurately ripped
8 | (4/4) Accurately ripped
9 | (4/4) Accurately ripped
10 | (4/4) Accurately ripped
11 | (4/4) Accurately ripped
12 | (4/4) Accurately ripped
13 | (4/4) Accurately ripped
14 | (4/4) Accurately ripped


==== Log checksum FA3B9906C4728FDF20886BFB35D739AE953B254828F0F1239F861E1F4C1BA205 ====


Kayak - Journey Through Time: Complete Studio Album Coll (2017) [21CD Box Set]

Tracklist CD12 - 2005 Nostradamus - The Fate Of Man CD1:

01 The Secret Study
02 Overture - A Strange And Cryptic Tale
03 Friends Of The Stars 1
04 Celestial Science
05 The Student
06 Dance Of Death 1
07 Fresh Air, Running Water, Rose Pills
08 The Monk's Comment 1
09 Seekers Of Truth 1
10 Dance Of Death 2
11 Save My Wife
12 The Monk's Comment 2
13 Pagan's Paradise
14 The Inquisition
15 The Wandering Years
16 The Monk's Comment
17 If History Was Mine Alone
18 Friend Of The Stars 2

Exact Audio Copy V1.1 from 23. June 2015

EAC extraction logfile from 19. August 2017, 5:58

Kayak / Nostradamus - The Faith Of Man CD1

Used drive : PLEXTOR BD-R PX-B950SA Adapter: 1 ID: 1

Read mode : Secure
Utilize accurate stream : Yes
Defeat audio cache : Yes
Make use of C2 pointers : No

Read offset correction : 6
Overread into Lead-In and Lead-Out : No
Fill up missing offset samples with silence : Yes
Delete leading and trailing silent blocks : No
Null samples used in CRC calculations : Yes
Used interface : Native Win32 interface for Win NT & 2000

Used output format : Internal WAV Routines
Sample format : 44.100 Hz; 16 Bit; Stereo


TOC of the extracted CD

Track | Start | Length | Start sector | End sector
––––––––––––––––––––––––––––-
1 | 0:00.00 | 1:47.37 | 0 | 8061
2 | 1:47.37 | 3:05.74 | 8062 | 22010
3 | 4:53.36 | 4:22.37 | 22011 | 41697
4 | 9:15.73 | 3:55.49 | 41698 | 59371
5 | 13:11.47 | 1:26.34 | 59372 | 65855
6 | 14:38.06 | 3:27.45 | 65856 | 81425
7 | 18:05.51 | 4:12.49 | 81426 | 100374
8 | 22:18.25 | 0:46.57 | 100375 | 103881
9 | 23:05.07 | 4:16.59 | 103882 | 123140
10 | 27:21.66 | 1:44.73 | 123141 | 131013
11 | 29:06.64 | 5:27.13 | 131014 | 155551
12 | 34:34.02 | 0:33.17 | 155552 | 158043
13 | 35:07.19 | 4:26.17 | 158044 | 178010
14 | 39:33.36 | 5:36.34 | 178011 | 203244
15 | 45:09.70 | 4:42.10 | 203245 | 224404
16 | 49:52.05 | 0:52.73 | 224405 | 228377
17 | 50:45.03 | 3:00.00 | 228378 | 241877
18 | 53:45.03 | 0:33.53 | 241878 | 244405


Range status and errors

Selected range

Filename C:\Users\Meijin\Desktop\ALLexxess\Kayak\2017 Journey Through Time (21CD Box Set Universal Music)\2005 Nostradamus - The Fate Of Man 2CD\CD1\Kayak - Nostradamus - Faith Of Man CD1.wav

Peak level 100.0 %
Extraction speed 7.1 X
Range quality 100.0 %
Test CRC 7F73DCD0
Copy CRC 7F73DCD0
Copy OK

No errors occurred


AccurateRip summary

Track 1 not present in database
Track 2 not present in database
Track 3 not present in database
Track 4 not present in database
Track 5 not present in database
Track 6 not present in database
Track 7 not present in database
Track 8 not present in database
Track 9 not present in database
Track 10 not present in database
Track 11 not present in database
Track 12 not present in database
Track 13 not present in database
Track 14 not present in database
Track 15 not present in database
Track 16 not present in database
Track 17 not present in database
Track 18 not present in database

None of the tracks are present in the AccurateRip database

End of status report

–– CUETools DB Plugin V2.1.6

[CTDB TOCID: Y_ZYlitmBENjs4z.l3RsiTFBNs4-] found
Submit result: Y_ZYlitmBENjs4z.l3RsiTFBNs4- has been confirmed
Track | CTDB Status
1 | (4/4) Accurately ripped
2 | (4/4) Accurately ripped
3 | (4/4) Accurately ripped
4 | (4/4) Accurately ripped
5 | (4/4) Accurately ripped
6 | (4/4) Accurately ripped
7 | (4/4) Accurately ripped
8 | (4/4) Accurately ripped
9 | (4/4) Accurately ripped
10 | (4/4) Accurately ripped
11 | (4/4) Accurately ripped
12 | (4/4) Accurately ripped
13 | (4/4) Accurately ripped
14 | (4/4) Accurately ripped
15 | (4/4) Accurately ripped
16 | (4/4) Accurately ripped
17 | (4/4) Accurately ripped
18 | (3/4) Accurately ripped


==== Log checksum 288D5E0495050DED113210D658AFAF3E992AD689CAD63A5996B7E8CAB0FEFB68 ====


Tracklist CD13 - 2005 Nostradamus - The Fate Of Man CD2:

01 A Man With Remarkable Talents
02 Settle Down
03 The Monk's Comment 4
04 The Flying Squadron
05 Dance Of Mirrors
06 A Cruel Death, The Monk's Comment 5
07 A Royal Invitation
08 Tell Me All
09 The Tournament
10 The Golden Cage
11 Seekers Of Truth 2
12 Living In Two Realities
13 Act Of Despair
14 The Secret Study 2
15 The Centuries
16 (You Won't Find Me) Alive At Sunrise
17 Friend Of The Stars 3
18 Epilogue - The Fate Of Man

Exact Audio Copy V1.1 from 23. June 2015

EAC extraction logfile from 19. August 2017, 5:27

Kayak / Nostradamus - The Faith Of Man CD2

Used drive : PLEXTOR BD-R PX-B950SA Adapter: 1 ID: 1

Read mode : Secure
Utilize accurate stream : Yes
Defeat audio cache : Yes
Make use of C2 pointers : No

Read offset correction : 6
Overread into Lead-In and Lead-Out : No
Fill up missing offset samples with silence : Yes
Delete leading and trailing silent blocks : No
Null samples used in CRC calculations : Yes
Used interface : Native Win32 interface for Win NT & 2000

Used output format : Internal WAV Routines
Sample format : 44.100 Hz; 16 Bit; Stereo


TOC of the extracted CD

Track | Start | Length | Start sector | End sector
––––––––––––––––––––––––––––-
1 | 0:00.00 | 3:33.05 | 0 | 15979
2 | 3:33.05 | 4:21.05 | 15980 | 35559
3 | 7:54.10 | 0:50.26 | 35560 | 39335
4 | 8:44.36 | 4:18.68 | 39336 | 58753
5 | 13:03.29 | 3:27.33 | 58754 | 74311
6 | 16:30.62 | 1:20.14 | 74312 | 80325
7 | 17:51.01 | 4:02.48 | 80326 | 98523
8 | 21:53.49 | 3:31.02 | 98524 | 114350
9 | 25:24.51 | 4:15.08 | 114351 | 133483
10 | 29:39.59 | 2:13.27 | 133484 | 143485
11 | 31:53.11 | 2:05.18 | 143486 | 152878
12 | 33:58.29 | 4:16.38 | 152879 | 172116
13 | 38:14.67 | 4:27.33 | 172117 | 192174
14 | 42:42.25 | 1:43.66 | 192175 | 199965
15 | 44:26.16 | 5:05.67 | 199966 | 222907
16 | 49:32.08 | 3:21.61 | 222908 | 238043
17 | 52:53.69 | 1:16.24 | 238044 | 243767
18 | 54:10.18 | 2:57.01 | 243768 | 257043


Range status and errors

Selected range

Filename C:\Users\Meijin\Desktop\ALLexxess\Kayak\2017 Journey Through Time (21CD Box Set Universal Music)\2005 Nostradamus - The Fate Of Man 2CD\CD2\Kayak - Nostradamus - Faith Of Man CD2.wav

Peak level 100.0 %
Extraction speed 7.1 X
Range quality 99.9 %
Test CRC 95C7ABF8
Copy CRC 95C7ABF8
Copy OK

No errors occurred


AccurateRip summary

Track 1 not present in database
Track 2 not present in database
Track 3 not present in database
Track 4 not present in database
Track 5 not present in database
Track 6 not present in database
Track 7 not present in database
Track 8 not present in database
Track 9 not present in database
Track 10 not present in database
Track 11 not present in database
Track 12 not present in database
Track 13 not present in database
Track 14 not present in database
Track 15 not present in database
Track 16 not present in database
Track 17 not present in database
Track 18 not present in database

None of the tracks are present in the AccurateRip database

End of status report

–– CUETools DB Plugin V2.1.6

[CTDB TOCID: Uq7jeVAnZB9YCiaokIvOLnnJRAo-] found
Submit result: Uq7jeVAnZB9YCiaokIvOLnnJRAo- has been confirmed
Track | CTDB Status
1 | (4/4) Accurately ripped
2 | (4/4) Accurately ripped
3 | (4/4) Accurately ripped
4 | (4/4) Accurately ripped
5 | (4/4) Accurately ripped
6 | (4/4) Accurately ripped
7 | (4/4) Accurately ripped
8 | (4/4) Accurately ripped
9 | (4/4) Accurately ripped
10 | (4/4) Accurately ripped
11 | (4/4) Accurately ripped
12 | (4/4) Accurately ripped
13 | (4/4) Accurately ripped
14 | (4/4) Accurately ripped
15 | (4/4) Accurately ripped
16 | (4/4) Accurately ripped
17 | (4/4) Accurately ripped
18 | (4/4) Accurately ripped


==== Log checksum 238F47A0806C7917CEFD4B9FA3BD2D64A01341E8797673D66A1C9889A4AA4D6D ====


Kayak - Journey Through Time: Complete Studio Album Coll (2017) [21CD Box Set]

Tracklist CD14 - 2008 Coming Up For Air:

01 Alienation
02 Man In The Cocoon
03 Time Stand Still
04 Freezing
05 Medea
06 Daughter Of The Moon
07 Undecided
08 Sad State Of Affairs
09 About You Without You
10 The Mask And The Mirror
11 Selfmade Castle
12 What I'm About To Say
13 Wonderful Day
14 Broken White
15 Coming Up For Air

Exact Audio Copy V1.1 from 23. June 2015

EAC extraction logfile from 18. August 2017, 18:32

Kayak / Coming Up For Air

Used drive : PLEXTOR BD-R PX-B950SA Adapter: 1 ID: 1

Read mode : Secure
Utilize accurate stream : Yes
Defeat audio cache : Yes
Make use of C2 pointers : No

Read offset correction : 6
Overread into Lead-In and Lead-Out : No
Fill up missing offset samples with silence : Yes
Delete leading and trailing silent blocks : No
Null samples used in CRC calculations : Yes
Used interface : Native Win32 interface for Win NT & 2000

Used output format : Internal WAV Routines
Sample format : 44.100 Hz; 16 Bit; Stereo


TOC of the extracted CD

Track | Start | Length | Start sector | End sector
––––––––––––––––––––––––––––-
1 | 0:00.00 | 3:55.10 | 0 | 17634
2 | 3:55.10 | 2:54.40 | 17635 | 30724
3 | 6:49.50 | 3:22.04 | 30725 | 45878
4 | 10:11.54 | 3:51.73 | 45879 | 63276
5 | 14:03.52 | 3:46.71 | 63277 | 80297
6 | 17:50.48 | 3:41.45 | 80298 | 96917
7 | 21:32.18 | 4:10.28 | 96918 | 115695
8 | 25:42.46 | 4:23.28 | 115696 | 135448
9 | 30:05.74 | 3:15.44 | 135449 | 150117
10 | 33:21.43 | 4:45.47 | 150118 | 171539
11 | 38:07.15 | 3:32.51 | 171540 | 187490
12 | 41:39.66 | 4:24.63 | 187491 | 207353
13 | 46:04.54 | 3:41.09 | 207354 | 223937
14 | 49:45.63 | 4:22.65 | 223938 | 243652
15 | 54:08.53 | 6:13.09 | 243653 | 271636


Range status and errors

Selected range

Filename C:\Users\Meijin\Desktop\ALLexxess\Kayak\2017 Journey Through Time (21CD Box Set Universal Music)\2008 Coming Up For Air\Kayak - Coming Up For Air.wav

Peak level 100.0 %
Extraction speed 7.4 X
Range quality 100.0 %
Test CRC DC4E46D4
Copy CRC DC4E46D4
Copy OK

No errors occurred


AccurateRip summary

Track 1 not present in database
Track 2 not present in database
Track 3 not present in database
Track 4 not present in database
Track 5 not present in database
Track 6 not present in database
Track 7 not present in database
Track 8 not present in database
Track 9 not present in database
Track 10 not present in database
Track 11 not present in database
Track 12 not present in database
Track 13 not present in database
Track 14 not present in database
Track 15 not present in database

None of the tracks are present in the AccurateRip database

End of status report

–– CUETools DB Plugin V2.1.6

[CTDB TOCID: MAYs0O6RaCrhjwVydteTIJZRKkA-] found
Submit result: MAYs0O6RaCrhjwVydteTIJZRKkA- has been confirmed
Track | CTDB Status
1 | (4/4) Accurately ripped
2 | (4/4) Accurately ripped
3 | (4/4) Accurately ripped
4 | (4/4) Accurately ripped
5 | (4/4) Accurately ripped
6 | (4/4) Accurately ripped
7 | (4/4) Accurately ripped
8 | (4/4) Accurately ripped
9 | (4/4) Accurately ripped
10 | (4/4) Accurately ripped
11 | (4/4) Accurately ripped
12 | (4/4) Accurately ripped
13 | (4/4) Accurately ripped
14 | (4/4) Accurately ripped
15 | (3/4) Accurately ripped


==== Log checksum 4671C38DFB0362F57F803CA4CE2A87D0BFEB632DF008508EC2604F04573C3776 ====


Kayak - Journey Through Time: Complete Studio Album Coll (2017) [21CD Box Set]

Tracklist CD15 - 2009 Letters From Utopia CD1:

01 Rhea
02 Because I …
03 Turbulence
04 Before The Angels Fell
05 Breaking The News
06 For All The Wrong Reasons
07 Under The Radar
08 Hard Work
09 Nobody Wins

Exact Audio Copy V1.1 from 23. June 2015

EAC extraction logfile from 18. August 2017, 17:41

Kayak / Letters From Utopia CD1

Used drive : PLEXTOR BD-R PX-B950SA Adapter: 1 ID: 1

Read mode : Secure
Utilize accurate stream : Yes
Defeat audio cache : Yes
Make use of C2 pointers : No

Read offset correction : 6
Overread into Lead-In and Lead-Out : No
Fill up missing offset samples with silence : Yes
Delete leading and trailing silent blocks : No
Null samples used in CRC calculations : Yes
Used interface : Native Win32 interface for Win NT & 2000

Used output format : Internal WAV Routines
Sample format : 44.100 Hz; 16 Bit; Stereo


TOC of the extracted CD

Track | Start | Length | Start sector | End sector
––––––––––––––––––––––––––––-
1 | 0:00.00 | 4:45.49 | 0 | 21423
2 | 4:45.49 | 3:17.54 | 21424 | 36252
3 | 8:03.28 | 3:43.26 | 36253 | 53003
4 | 11:46.54 | 8:43.03 | 53004 | 92231
5 | 20:29.57 | 3:52.35 | 92232 | 109666
6 | 24:22.17 | 4:00.13 | 109667 | 127679
7 | 28:22.30 | 2:48.55 | 127680 | 140334
8 | 31:11.10 | 3:45.15 | 140335 | 157224
9 | 34:56.25 | 4:58.38 | 157225 | 179612


Range status and errors

Selected range

Filename C:\Users\Meijin\Desktop\ALLexxess\Kayak\2017 Journey Through Time (21CD Box Set Universal Music)\2009 Letters From Utopia 2CD\CD1\Kayak - Letters From Utopia CD1.wav

Peak level 100.0 %
Extraction speed 6.6 X
Range quality 100.0 %
Test CRC 78830988
Copy CRC 78830988
Copy OK

No errors occurred


AccurateRip summary

Track 1 not present in database
Track 2 not present in database
Track 3 not present in database
Track 4 not present in database
Track 5 not present in database
Track 6 not present in database
Track 7 not present in database
Track 8 not present in database
Track 9 not present in database

None of the tracks are present in the AccurateRip database

End of status report

–– CUETools DB Plugin V2.1.6

[CTDB TOCID: 1sdUIM2KaQOszUBczoWpshpoEgA-] found
Submit result: 1sdUIM2KaQOszUBczoWpshpoEgA- has been confirmed
Track | CTDB Status
1 | (3/3) Accurately ripped
2 | (3/3) Accurately ripped
3 | (3/3) Accurately ripped
4 | (3/3) Accurately ripped
5 | (3/3) Accurately ripped
6 | (3/3) Accurately ripped
7 | (3/3) Accurately ripped
8 | (3/3) Accurately ripped
9 | (2/3) Accurately ripped


==== Log checksum 328B840CA986437429DF2C3AC447434E0BCAD47D740C2538DBA9398464A7F6FA ====


Tracklist CD16 - 2009 Letters From Utopia CD2:

01 Circles In The Sand
02 Never Was
03 Glass Bottom Boat
04 Horror In Action
05 A Whisper
06 Parallel Universe
07 Let The Record Show
08 Brothers In Rhyme
09 When The Love Has Gone
10 Letters From Utopia

Exact Audio Copy V1.1 from 23. June 2015

EAC extraction logfile from 18. August 2017, 17:14

Kayak / Letters From Utopia CD2

Used drive : PLEXTOR BD-R PX-B950SA Adapter: 1 ID: 1

Read mode : Secure
Utilize accurate stream : Yes
Defeat audio cache : Yes
Make use of C2 pointers : No

Read offset correction : 6
Overread into Lead-In and Lead-Out : No
Fill up missing offset samples with silence : Yes
Delete leading and trailing silent blocks : No
Null samples used in CRC calculations : Yes
Used interface : Native Win32 interface for Win NT & 2000

Used output format : Internal WAV Routines
Sample format : 44.100 Hz; 16 Bit; Stereo


TOC of the extracted CD

Track | Start | Length | Start sector | End sector
––––––––––––––––––––––––––––-
1 | 0:00.00 | 3:51.68 | 0 | 17392
2 | 3:51.68 | 4:28.20 | 17393 | 37512
3 | 8:20.13 | 3:46.51 | 37513 | 54513
4 | 12:06.64 | 4:34.40 | 54514 | 75103
5 | 16:41.29 | 4:06.17 | 75104 | 93570
6 | 20:47.46 | 4:08.43 | 93571 | 112213
7 | 24:56.14 | 3:56.43 | 112214 | 129956
8 | 28:52.57 | 4:27.60 | 129957 | 150041
9 | 33:20.42 | 4:06.33 | 150042 | 168524
10 | 37:27.00 | 4:04.31 | 168525 | 186855


Range status and errors

Selected range

Filename C:\Users\Meijin\Desktop\ALLexxess\Kayak\2017 Journey Through Time (21CD Box Set Universal Music)\2009 Letters From Utopia 2CD\CD2\Kayak - Letters From Utopia CD2.wav

Peak level 100.0 %
Extraction speed 6.7 X
Range quality 100.0 %
Test CRC 2A7221E5
Copy CRC 2A7221E5
Copy OK

No errors occurred


AccurateRip summary

Track 1 not present in database
Track 2 not present in database
Track 3 not present in database
Track 4 not present in database
Track 5 not present in database
Track 6 not present in database
Track 7 not present in database
Track 8 not present in database
Track 9 not present in database
Track 10 not present in database

None of the tracks are present in the AccurateRip database

End of status report

–– CUETools DB Plugin V2.1.6

[CTDB TOCID: 774feyIi8tVaPZGg.D54FnDvU8I-] found
Submit result: 774feyIi8tVaPZGg.D54FnDvU8I- has been confirmed
Track | CTDB Status
1 | (3/3) Accurately ripped
2 | (3/3) Accurately ripped
3 | (3/3) Accurately ripped
4 | (3/3) Accurately ripped
5 | (3/3) Accurately ripped
6 | (3/3) Accurately ripped
7 | (3/3) Accurately ripped
8 | (3/3) Accurately ripped
9 | (3/3) Accurately ripped
10 | (3/3) Accurately ripped


==== Log checksum DFD3B54B231D5A4592458622F972A048A2C4DCF6B06E7B4A34263D93BEE4E468 ====


Kayak - Journey Through Time: Complete Studio Album Coll (2017) [21CD Box Set]

Tracklist CD17 - 2011 Anywhere But Here:

01 Credible Lie
02 November Morning
03 Behind The Scenes
04 Anywhere But Here
05 Most Underrated Band In The World
06 Hunter And Prey
07 In Between Tides
08 Passing Cloud
09 Demon In Her Eyes
10 Life Is Good
11 Wherever She Goes
12 Messinian Skies
13 Over You
14 Bang

Exact Audio Copy V1.1 from 23. June 2015

EAC extraction logfile from 18. August 2017, 13:23

Kayak / Anywhere But Here

Used drive : PLEXTOR BD-R PX-B950SA Adapter: 1 ID: 1

Read mode : Secure
Utilize accurate stream : Yes
Defeat audio cache : Yes
Make use of C2 pointers : No

Read offset correction : 6
Overread into Lead-In and Lead-Out : No
Fill up missing offset samples with silence : Yes
Delete leading and trailing silent blocks : No
Null samples used in CRC calculations : Yes
Used interface : Native Win32 interface for Win NT & 2000

Used output format : Internal WAV Routines
Sample format : 44.100 Hz; 16 Bit; Stereo


TOC of the extracted CD

Track | Start | Length | Start sector | End sector
––––––––––––––––––––––––––––-
1 | 0:00.00 | 4:10.03 | 0 | 18752
2 | 4:10.03 | 3:58.48 | 18753 | 36650
3 | 8:08.51 | 3:45.43 | 36651 | 53568
4 | 11:54.19 | 4:21.15 | 53569 | 73158
5 | 16:15.34 | 3:32.17 | 73159 | 89075
6 | 19:47.51 | 5:24.54 | 89076 | 113429
7 | 25:12.30 | 4:29.23 | 113430 | 133627
8 | 29:41.53 | 2:31.34 | 133628 | 144986
9 | 32:13.12 | 3:50.66 | 144987 | 162302
10 | 36:04.03 | 4:12.71 | 162303 | 181273
11 | 40:16.74 | 4:18.26 | 181274 | 200649
12 | 44:35.25 | 3:11.54 | 200650 | 215028
13 | 47:47.04 | 4:19.14 | 215029 | 234467
14 | 52:06.18 | 2:00.22 | 234468 | 243489


Range status and errors

Selected range

Filename C:\Users\Meijin\Desktop\ALLexxess\Kayak\2017 Journey Through Time (21CD Box Set Universal Music)\2011 Anywhere But Here\Kayak - Anywhere But Here.wav

Peak level 100.0 %
Extraction speed 7.2 X
Range quality 100.0 %
Test CRC 3F1AF841
Copy CRC 3F1AF841
Copy OK

No errors occurred


AccurateRip summary

Track 1 not present in database
Track 2 not present in database
Track 3 not present in database
Track 4 not present in database
Track 5 not present in database
Track 6 not present in database
Track 7 not present in database
Track 8 not present in database
Track 9 not present in database
Track 10 not present in database
Track 11 not present in database
Track 12 not present in database
Track 13 not present in database
Track 14 not present in database

None of the tracks are present in the AccurateRip database

End of status report

–– CUETools DB Plugin V2.1.6

[CTDB TOCID: d4dQSMTYsIHkC5xsuVmbr2PfjBQ-] found
Submit result: d4dQSMTYsIHkC5xsuVmbr2PfjBQ- has been confirmed
Track | CTDB Status
1 | (4/4) Accurately ripped
2 | (4/4) Accurately ripped
3 | (4/4) Accurately ripped
4 | (4/4) Accurately ripped
5 | (4/4) Accurately ripped
6 | (4/4) Accurately ripped
7 | (4/4) Accurately ripped
8 | (4/4) Accurately ripped
9 | (4/4) Accurately ripped
10 | (4/4) Accurately ripped
11 | (4/4) Accurately ripped
12 | (4/4) Accurately ripped
13 | (4/4) Accurately ripped
14 | (3/4) Accurately ripped


==== Log checksum 344DDD2FB8F466B891CC93F9FE92D991C10A8E51605525C164791E5F24A182B7 ====


Kayak - Journey Through Time: Complete Studio Album Coll (2017) [21CD Box Set]

Tracklist CD18 - 2014 Cleopatra - The Crown Of Isis CD1:

01 The Living Isis
02 A Family Divided
03 Alexandria
04 She Rules My World (I)
05 Goodbye Pharos
06 Stranger In Rome
07 Hail
08 She Came, She Saw, She Conquered
09 The Ides Of March
10 Matters Of The Heart
11 The Curse Of Isis

Exact Audio Copy V1.1 from 23. June 2015

EAC extraction logfile from 18. August 2017, 12:47

Kayak / Cleopatra - The Crown Of Isis CD1

Used drive : PLEXTOR BD-R PX-B950SA Adapter: 1 ID: 1

Read mode : Secure
Utilize accurate stream : Yes
Defeat audio cache : Yes
Make use of C2 pointers : No

Read offset correction : 6
Overread into Lead-In and Lead-Out : No
Fill up missing offset samples with silence : Yes
Delete leading and trailing silent blocks : No
Null samples used in CRC calculations : Yes
Used interface : Native Win32 interface for Win NT & 2000

Used output format : Internal WAV Routines
Sample format : 44.100 Hz; 16 Bit; Stereo


TOC of the extracted CD

Track | Start | Length | Start sector | End sector
––––––––––––––––––––––––––––-
1 | 0:00.00 | 4:10.42 | 0 | 18791
2 | 4:10.42 | 3:01.18 | 18792 | 32384
3 | 7:11.60 | 8:28.68 | 32385 | 70552
4 | 15:40.53 | 3:06.66 | 70553 | 84568
5 | 18:47.44 | 4:06.26 | 84569 | 103044
6 | 22:53.70 | 4:39.31 | 103045 | 124000
7 | 27:33.26 | 2:52.38 | 124001 | 136938
8 | 30:25.64 | 5:11.31 | 136939 | 160294
9 | 35:37.20 | 6:02.36 | 160295 | 187480
10 | 41:39.56 | 3:50.07 | 187481 | 204737
11 | 45:29.63 | 6:03.73 | 204738 | 232035


Range status and errors

Selected range

Filename C:\Users\Meijin\Desktop\ALLexxess\Kayak\2017 Journey Through Time (21CD Box Set Universal Music)\2014 Cleopatra - The Crown Of Isis 2CD\CD1\Kayak - Cleopatra - The Crown Of Isis CD1.wav

Peak level 100.0 %
Extraction speed 7.1 X
Range quality 100.0 %
Test CRC 6621081A
Copy CRC 6621081A
Copy OK

No errors occurred


AccurateRip summary

Track 1 not present in database
Track 2 not present in database
Track 3 not present in database
Track 4 not present in database
Track 5 not present in database
Track 6 not present in database
Track 7 not present in database
Track 8 not present in database
Track 9 not present in database
Track 10 not present in database
Track 11 not present in database

None of the tracks are present in the AccurateRip database

End of status report

–– CUETools DB Plugin V2.1.6

[CTDB TOCID: O1rqq5WJ4Erf1W3RCpd5SKkTTfc-] found
Submit result: O1rqq5WJ4Erf1W3RCpd5SKkTTfc- has been confirmed
Track | CTDB Status
1 | (3/3) Accurately ripped
2 | (3/3) Accurately ripped
3 | (3/3) Accurately ripped
4 | (3/3) Accurately ripped
5 | (3/3) Accurately ripped
6 | (3/3) Accurately ripped
7 | (3/3) Accurately ripped
8 | (3/3) Accurately ripped
9 | (3/3) Accurately ripped
10 | (3/3) Accurately ripped
11 | (3/3) Accurately ripped


==== Log checksum A54ED9422216CF956B17A028503BFEAB5523A67CCB210736D21730555CE53091 ====


Tracklist CD19 - 2014 Cleopatra - The Crown Of Isis CD2:

01 Tarsus
02 Whatever It Takes
03 The Crown Of Isis
04 Philae
05 The Inimitable Livers
06 The Queen Of Kings
07 Actium
08 Setting Things Straight
09 The Message
10 Larger Than Life
11 The Arms Of Isis
12 Alexandra Reprise
13 That Sacred Kiss

Exact Audio Copy V1.1 from 23. June 2015

EAC extraction logfile from 18. August 2017, 12:08

Kayak / Cleopatra - The Crown Of Isis CD2

Used drive : PLEXTOR BD-R PX-B950SA Adapter: 1 ID: 1

Read mode : Secure
Utilize accurate stream : Yes
Defeat audio cache : Yes
Make use of C2 pointers : No

Read offset correction : 6
Overread into Lead-In and Lead-Out : No
Fill up missing offset samples with silence : Yes
Delete leading and trailing silent blocks : No
Null samples used in CRC calculations : Yes
Used interface : Native Win32 interface for Win NT & 2000

Used output format : Internal WAV Routines
Sample format : 44.100 Hz; 16 Bit; Stereo


TOC of the extracted CD

Track | Start | Length | Start sector | End sector
––––––––––––––––––––––––––––-
1 | 0:00.00 | 4:46.61 | 0 | 21510
2 | 4:46.61 | 3:28.59 | 21511 | 37169
3 | 8:15.45 | 5:05.74 | 37170 | 60118
4 | 13:21.44 | 3:28.39 | 60119 | 75757
5 | 16:50.08 | 3:28.10 | 75758 | 91367
6 | 20:18.18 | 7:40.29 | 91368 | 125896
7 | 27:58.47 | 7:48.17 | 125897 | 161013
8 | 35:46.64 | 3:41.23 | 161014 | 177611
9 | 39:28.12 | 2:32.45 | 177612 | 189056
10 | 42:00.57 | 4:25.56 | 189057 | 208987
11 | 46:26.38 | 2:28.47 | 208988 | 220134
12 | 48:55.10 | 3:03.62 | 220135 | 233921
13 | 51:58.72 | 4:56.63 | 233922 | 256184


Range status and errors

Selected range

Filename C:\Users\Meijin\Desktop\ALLexxess\Kayak\2017 Journey Through Time (21CD Box Set Universal Music)\2014 Cleopatra - The Crown Of Isis 2CD\CD2\Kayak - Cleopatra - The Crown Of Isis CD2.wav

Peak level 100.0 %
Extraction speed 7.3 X
Range quality 100.0 %
Test CRC F47C65B4
Copy CRC F47C65B4
Copy OK

No errors occurred


AccurateRip summary

Track 1 not present in database
Track 2 not present in database
Track 3 not present in database
Track 4 not present in database
Track 5 not present in database
Track 6 not present in database
Track 7 not present in database
Track 8 not present in database
Track 9 not present in database
Track 10 not present in database
Track 11 not present in database
Track 12 not present in database
Track 13 not present in database

None of the tracks are present in the AccurateRip database

End of status report

–– CUETools DB Plugin V2.1.6

[CTDB TOCID: DW0HsRP7Hx7D4tyja2f2OQIFHiI-] found
Submit result: DW0HsRP7Hx7D4tyja2f2OQIFHiI- has been confirmed
Track | CTDB Status
1 | (4/4) Accurately ripped
2 | (4/4) Accurately ripped
3 | (4/4) Accurately ripped
4 | (4/4) Accurately ripped
5 | (4/4) Accurately ripped
6 | (4/4) Accurately ripped
7 | (4/4) Accurately ripped
8 | (4/4) Accurately ripped
9 | (4/4) Accurately ripped
10 | (4/4) Accurately ripped
11 | (4/4) Accurately ripped
12 | (4/4) Accurately ripped
13 | (4/4) Accurately ripped


==== Log checksum 6B6E9499777C0CFDA450A4CF31FD39C6AEC1E1C142963F660280CEAE0F2CD73B ====


Kayak - Journey Through Time: Complete Studio Album Coll (2017) [21CD Box Set]

Tracklist CD20 - 2017 More Kayak CD1:

01 Fluffy (Single Only) / High Tide Formation
02 White Walls (B-Side Single Fluffy) / High Tide Formation
03 Give It A Name (B-Side Single See See Sun)
04 Try To Write A Book (B-Side Single Lyrics)
05 Bulldozer (Non Album Track)
06 We Are Not Amused (Single Only)
07 Chance For A Lifetime (Single Edit)
08 Boezem (Albumtrack From Zing Je Moerstaal)
09 Ballad For A Lost Friend (B-Side Single Phantom Of The Night)
10 I Want You To Be Mine (USA Album Version)
11 Irene (USA Album Version)
12 Ivory Dance (B-Side Single Ruthless Queen)
13 Theme From Spetters (Single Only)
14 Total Loss (Single Only)
15 What's Done Is Done (B-Side Single Total Loss)
16 Eyewitness (Albumtrack From Eyewitness)
17 Only You And I Know (Albumtrack From Eyewitness)
18 Who's Fooling Who (Albumtrack From Eyewitness)
19 Monte Carlo Rally (No Total Loss) (Single Only)
20 The Car Enchanters (Sikkens Song) (Single Only)
21 If This Ain't Love (Single Only) / The Plan
22 Hit Bottom (B-Side Single If This Ain't Love) / The Plan

Exact Audio Copy V1.1 from 23. June 2015

EAC extraction logfile from 17. August 2017, 19:41

Kayak / More Kayak CD1

Used drive : PLEXTOR BD-R PX-B950SA Adapter: 1 ID: 1

Read mode : Secure
Utilize accurate stream : Yes
Defeat audio cache : Yes
Make use of C2 pointers : No

Read offset correction : 6
Overread into Lead-In and Lead-Out : No
Fill up missing offset samples with silence : Yes
Delete leading and trailing silent blocks : No
Null samples used in CRC calculations : Yes
Used interface : Native Win32 interface for Win NT & 2000

Used output format : Internal WAV Routines
Sample format : 44.100 Hz; 16 Bit; Stereo


TOC of the extracted CD

Track | Start | Length | Start sector | End sector
––––––––––––––––––––––––––––-
1 | 0:00.00 | 2:43.47 | 0 | 12271
2 | 2:43.47 | 2:13.37 | 12272 | 22283
3 | 4:57.09 | 2:45.61 | 22284 | 34719
4 | 7:42.70 | 2:02.72 | 34720 | 43941
5 | 9:45.67 | 4:54.21 | 43942 | 66012
6 | 14:40.13 | 3:01.53 | 66013 | 79640
7 | 17:41.66 | 2:54.68 | 79641 | 92758
8 | 20:36.59 | 4:32.23 | 92759 | 113181
9 | 25:09.07 | 4:15.30 | 113182 | 132336
10 | 29:24.37 | 5:15.24 | 132337 | 155985
11 | 34:39.61 | 4:24.14 | 155986 | 175799
12 | 39:04.00 | 1:58.30 | 175800 | 184679
13 | 41:02.30 | 2:22.28 | 184680 | 195357
14 | 43:24.58 | 4:14.14 | 195358 | 214421
15 | 47:38.72 | 3:41.71 | 214422 | 231067
16 | 51:20.68 | 3:20.18 | 231068 | 246085
17 | 54:41.11 | 3:10.24 | 246086 | 260359
18 | 57:51.35 | 3:44.19 | 260360 | 277178
19 | 61:35.54 | 4:12.43 | 277179 | 296121
20 | 65:48.22 | 2:36.34 | 296122 | 307855
21 | 68:24.56 | 3:39.00 | 307856 | 324280
22 | 72:03.56 | 3:54.52 | 324281 | 341882


Range status and errors

Selected range

Filename C:\Users\Meijin\Desktop\ALLexxess\Kayak\2017 Journey Through Time (21CD Box Set Universal Music)\2017 More Kayak 2CD\CD1\Kayak - More Kayak CD1.wav

Peak level 99.9 %
Extraction speed 8.5 X
Range quality 100.0 %
Test CRC 8FFE3C76
Copy CRC 8FFE3C76
Copy OK

No errors occurred


AccurateRip summary

Track 1 not present in database
Track 2 not present in database
Track 3 not present in database
Track 4 not present in database
Track 5 not present in database
Track 6 not present in database
Track 7 not present in database
Track 8 not present in database
Track 9 not present in database
Track 10 not present in database
Track 11 not present in database
Track 12 not present in database
Track 13 not present in database
Track 14 not present in database
Track 15 not present in database
Track 16 not present in database
Track 17 not present in database
Track 18 not present in database
Track 19 not present in database
Track 20 not present in database
Track 21 not present in database
Track 22 not present in database

None of the tracks are present in the AccurateRip database

End of status report

–– CUETools DB Plugin V2.1.6

[CTDB TOCID: l4J2qLnvXCcCKHO0N7YD61mNYu4-] found
Submit result: l4J2qLnvXCcCKHO0N7YD61mNYu4- has been confirmed
Track | CTDB Status
1 | (4/4) Accurately ripped
2 | (4/4) Accurately ripped
3 | (4/4) Accurately ripped
4 | (4/4) Accurately ripped
5 | (4/4) Accurately ripped
6 | (4/4) Accurately ripped
7 | (4/4) Accurately ripped
8 | (4/4) Accurately ripped
9 | (4/4) Accurately ripped
10 | (4/4) Accurately ripped
11 | (4/4) Accurately ripped
12 | (4/4) Accurately ripped
13 | (4/4) Accurately ripped
14 | (4/4) Accurately ripped
15 | (4/4) Accurately ripped
16 | (4/4) Accurately ripped
17 | (4/4) Accurately ripped
18 | (4/4) Accurately ripped
19 | (4/4) Accurately ripped
20 | (4/4) Accurately ripped
21 | (4/4) Accurately ripped
22 | (4/4) Accurately ripped


==== Log checksum 4D69111B1D7451A955CEF11AF86ED86D3D0607C73CF42A64C6A10714D526EB04 ====


Tracklist CD21 - 2017 More Kayak CD2:

01 Close To The Fire (Radio Edit)
02 Love Lies (Demo / Bonus Track On Japenese Version Of Close To The Fire)
03 Cried For Love (Demo / Bonus Track On Japenese Version Of Close To The Fire)
04 Never Before (Bonus Track On Japenese Version Of Night Vision)
05 The Inquisition (New Edit)
06 Beat The Clock (B-Side Of Single Undecided)
07 Dear Lover (Bonus Track On Th 35th Anniversary Box)
08 Life Is Good (Special Remix)
09 Symmetry (2012 Version)
10 Cleopatra The Crown Of Isis (Original Edit)
11 Lost In Hell (Demo / Never Relesed Before) / Ten Ride Ticket
12 A 1000 Dreams (Demo / Never Relesed Before) / Ten Ride Ticket
13 Scardia (Demo / Never Relesed Before) / Ten Ride Ticket
14 Green Eyed Morning (Demo / Never Relesed Before) / Ten Ride Ticket
15 Catch Your Dreams (Demo / Never Relesed Before) / Ten Ride Ticket
16 Children Unite (Demo / Never Relesed Before) / Ten Ride Ticket
17 It's Your Problem (Demo / Never Relesed Before) / Ten Ride Ticket
18 Still Try To Write A Book (Demo / Never Relesed Before) / Ten Ride Ticket
19 Happy New Year (Demo / Never Relesed Before)

Exact Audio Copy V1.1 from 23. June 2015

EAC extraction logfile from 17. August 2017, 19:03

Kayak / More Kayak CD2

Used drive : PLEXTOR BD-R PX-B950SA Adapter: 1 ID: 1

Read mode : Secure
Utilize accurate stream : Yes
Defeat audio cache : Yes
Make use of C2 pointers : No

Read offset correction : 6
Overread into Lead-In and Lead-Out : No
Fill up missing offset samples with silence : Yes
Delete leading and trailing silent blocks : No
Null samples used in CRC calculations : Yes
Used interface : Native Win32 interface for Win NT & 2000

Used output format : Internal WAV Routines
Sample format : 44.100 Hz; 16 Bit; Stereo


TOC of the extracted CD

Track | Start | Length | Start sector | End sector
––––––––––––––––––––––––––––-
1 | 0:00.00 | 4:15.17 | 0 | 19141
2 | 4:15.17 | 3:43.62 | 19142 | 35928
3 | 7:59.04 | 3:24.09 | 35929 | 51237
4 | 11:23.13 | 3:40.16 | 51238 | 67753
5 | 15:03.29 | 4:04.60 | 67754 | 86113
6 | 19:08.14 | 3:43.53 | 86114 | 102891
7 | 22:51.67 | 4:17.69 | 102892 | 122235
8 | 27:09.61 | 3:25.29 | 122236 | 137639
9 | 30:35.15 | 9:25.30 | 137640 | 180044
10 | 40:00.45 | 7:37.68 | 180045 | 214387
11 | 47:38.38 | 2:14.62 | 214388 | 224499
12 | 49:53.25 | 4:17.36 | 224500 | 243810
13 | 54:10.61 | 2:54.73 | 243811 | 256933
14 | 57:05.59 | 3:08.26 | 256934 | 271059
15 | 60:14.10 | 3:40.55 | 271060 | 287614
16 | 63:54.65 | 3:36.35 | 287615 | 303849
17 | 67:31.25 | 3:49.24 | 303850 | 321048
18 | 71:20.49 | 2:30.15 | 321049 | 332313
19 | 73:50.64 | 2:32.67 | 332314 | 343780


Range status and errors

Selected range

Filename C:\Users\Meijin\Desktop\ALLexxess\Kayak\2017 Journey Through Time (21CD Box Set Universal Music)\2017 More Kayak 2CD\CD2\Kayak - More Kayak CD2.wav

Peak level 100.0 %
Extraction speed 8.5 X
Range quality 100.0 %
Test CRC 2D32D955
Copy CRC 2D32D955
Copy OK

No errors occurred


AccurateRip summary

Track 1 not present in database
Track 2 not present in database
Track 3 not present in database
Track 4 not present in database
Track 5 not present in database
Track 6 not present in database
Track 7 not present in database
Track 8 not present in database
Track 9 not present in database
Track 10 not present in database
Track 11 not present in database
Track 12 not present in database
Track 13 not present in database
Track 14 not present in database
Track 15 not present in database
Track 16 not present in database
Track 17 not present in database
Track 18 not present in database
Track 19 not present in database

None of the tracks are present in the AccurateRip database

End of status report

–– CUETools DB Plugin V2.1.6

[CTDB TOCID: GvAhHPT2ofFIgh46Ye4bpGzFMmg-] found
Submit result: GvAhHPT2ofFIgh46Ye4bpGzFMmg- has been confirmed
Track | CTDB Status
1 | (3/3) Accurately ripped
2 | (3/3) Accurately ripped
3 | (3/3) Accurately ripped
4 | (3/3) Accurately ripped
5 | (3/3) Accurately ripped
6 | (3/3) Accurately ripped
7 | (3/3) Accurately ripped
8 | (3/3) Accurately ripped
9 | (3/3) Accurately ripped
10 | (3/3) Accurately ripped
11 | (3/3) Accurately ripped
12 | (3/3) Accurately ripped
13 | (3/3) Accurately ripped
14 | (3/3) Accurately ripped
15 | (3/3) Accurately ripped
16 | (3/3) Accurately ripped
17 | (3/3) Accurately ripped
18 | (3/3) Accurately ripped
19 | (2/3) Accurately ripped


==== Log checksum 64686535D43D593FDD2616AFA6882337DA64E2E0068F46A4E381A0C1C20529F3 ====


* * *

All thanks go to ALLexxess

Kayak in my Blog

Download Kayak - Journey Through Time: Complete Studio Album Coll (2017):