Subcategories

Kayak - Chance For A Live Time (2001)

Posted By: uff
Kayak - Chance For A Live Time (2001)

Kayak - Chance For A Live Time (2001)
Rock | 2cd | XLD Rip | Flac + Cue + Log | covers
ProActs procd 2027 | rec: 2000 | 585Mb

I would consider this album as the first KAYAK true live album because it has everything: there were gigs performed and recorded, and there were audience involved. Yes, you are right, "Eyewitness" was the band first live recording but it missed essential elements of "true" live records: the gig and the audience. "Eyewitness" was recorded to remark the end of the band in 1982. A sad story. This album was recorded live fro a set of "Close To The Fire" Tour in 2000: Rotterdam, Utrecht, Leeuwarden, Hrdenberg and Enschede, Holland. Wel well well . I truly envy on people who had a chance seeing the band performed the gigs. What a wonderful nights they might have. I cannot imagine that, my friends . Yeah, kayak has been in my life since I heard and fell in love with their wonderfully crafted tune "Woe and Allas", sometime in mid 70s, that has become my lifetime favorite. Even until now, whenever I heard this song, it crunches my heart. It's killing me man!
As I have reviewed a lot of Kayak albums in this site, I would not repeat reviewing them, musically, in this live record. I'd rather comment on how the live itself has provided us with a sort of musical quality different than studio version. I could only assure you that this live act is really an excellent performance. It's definitely true for those of you who like Kayak's music. You don't need to love the band's music, just like it - and you would enjoy their music. For me personally, Kayak music is not something that I consider a true "prog" music. But their music is definitely not a typical pop rock vein. I enjoy Kayak music for a change, usually, having listened to complex music such as The Tangent, Island, Somnambulist, Gentle Giant, etc. It's a relaxing music, I would say. Forget about prog nature, even though I know that there are some elements that constitute a prog nature of their music.
All tracks that come from "Close To The Fire" album were performed excellently by the band. For my listening observation, this live set is much more dynamic and more rocking than the studio version. All musicians contribute their best in this live show. There are seven tracks coming from "Close To The Fire" album. The other 11 tracks coming from their classic albums. One thing that makes me happy, despite the new album, is their performance of classic hits like "Mammoth","Periscope of Life", and "Wintertime". I especially like "Wintertime" that is performed nicely in this album. My favorite classic "Starlight Dancer" that has a killing melody at intro part is also featured in this CD.
I don't think there is no human being that dislike "Anne". Yup, the band fetures also this song in here. Again, I cannot imagine how would I feel if I were in the crowd watching these guys perform this live. For sure, I would sing a long during the show! "Merlin" - hey, tell me who the guys on earth don't like this tune??? "Ninianne" - another excellent shot. ~progarchives

Track listing
CD 1:
1. Close To The Fire (8:03)
2. Crusader (3:47)
3. When Hearts Grow Cold (3:55)
4. Mammoth (3:07)
5. Wintertime (3:00)
6. Periscope Life (3:47)
7. Sweet Revenge (3:47)
8. See See the Sun (4:36)
9. Anne (3:34)
10. Anybody's Child (4:16)
~ 41:56

CD 2:
1. Two Wrongs (4:54)
2. Forever (4:30)
3. Merlin (7:38)
4. Niniane (5:52)
5. Chance For a Lifetime (4:30)
6. Starlight Dancer (5:09)
7. Ruthless Queen (5:47)
8. Full Circle (5:41)
~ 44:01

Personnel
- Ton Scherpenzeel - keyboards, accordion, backing vocals
- Pim Koopman - drums, acoustic guitar, backing vocals
- Bert Heerink - lead and backing vocals, percussion
- Bert Veldkamp - bass guitar, backing vocals
- Rob Winter - guitars, backing vocals
- Rob Vunderink - guitars, lead and backing vocals


X Lossless Decoder version 20100218 (116.4)

XLD extraction logfile from 2010-02-18 19:01:18 +0100

Kayak / Chance For A Live Time (disc 1)

Used drive : TSSTcorp CDDVDW SE-S224Q (revision TS00)

Use cdparanoia mode : YES (CDParanoia III 10.2 engine)
Disable audio cache : OK for the drive with cache less than 2750KB
Make use of C2 pointers : NO
Read offset correction : 6
Max retry count : 100

TOC of the extracted CD
Track | Start | Length | Start sector | End sector
––––––––––––––––––––––––––––-
1 | 00:00:00 | 08:03:69 | 0 | 36293
2 | 08:03:69 | 03:47:53 | 36294 | 53371
3 | 11:51:47 | 03:55:55 | 53372 | 71051
4 | 15:47:27 | 03:07:71 | 71052 | 85147
5 | 18:55:23 | 03:00:60 | 85148 | 98707
6 | 21:56:08 | 03:47:27 | 98708 | 115759
7 | 25:43:35 | 03:46:74 | 115760 | 132783
8 | 29:30:34 | 04:35:64 | 132784 | 153472
9 | 34:06:23 | 03:34:28 | 153473 | 169550
10 | 37:40:51 | 04:22:61 | 169551 | 189261


All Tracks
Filename : /• Marcel/Geconverteerd/Kayak - Chance For A Live Time (disc 1) [FLAC].flac
Album gain : -3.45 dB
Peak : 0.999939
CRC32 hash (test run) : E2DA1CAE
CRC32 hash : E2DA1CAE
CRC32 hash (skip zero) : 0F6E4842
Statistics
Read error : 0
Skipped (treated as error) : 0
Edge jitter error (maybe fixed) : 0
Atom jitter error (maybe fixed) : 0
Drift error (maybe fixed) : 0
Dropped bytes error (maybe fixed) : 0
Duplicated bytes error (maybe fixed) : 0
Inconsistency in error sectors : 0

Track 01

Pre-gap length : 00:02:00

Track gain : -2.58 dB
Peak : 0.996185
CRC32 hash (test run) : 526E6932
CRC32 hash : 526E6932
CRC32 hash (skip zero) : 2AA336CD
AccurateRip signature : 48C35B22
->Accurately ripped! (confidence 2)
Statistics
Read error : 0
Skipped (treated as error) : 0
Edge jitter error (maybe fixed) : 0
Atom jitter error (maybe fixed) : 0
Drift error (maybe fixed) : 0
Dropped bytes error (maybe fixed) : 0
Duplicated bytes error (maybe fixed) : 0
Inconsistency in error sectors : 0

Track 02

Track gain : -2.35 dB
Peak : 0.958099
CRC32 hash (test run) : 832A3A13
CRC32 hash : 832A3A13
CRC32 hash (skip zero) : A4A4A771
AccurateRip signature : DC2A76D4
->Accurately ripped! (confidence 2)
Statistics
Read error : 0
Skipped (treated as error) : 0
Edge jitter error (maybe fixed) : 0
Atom jitter error (maybe fixed) : 0
Drift error (maybe fixed) : 0
Dropped bytes error (maybe fixed) : 0
Duplicated bytes error (maybe fixed) : 0
Inconsistency in error sectors : 0

Track 03

Track gain : -3.12 dB
Peak : 0.945374
CRC32 hash (test run) : E9B581C6
CRC32 hash : E9B581C6
CRC32 hash (skip zero) : 4F9FD12E
AccurateRip signature : DFB49790
->Accurately ripped! (confidence 2)
Statistics
Read error : 0
Skipped (treated as error) : 0
Edge jitter error (maybe fixed) : 0
Atom jitter error (maybe fixed) : 0
Drift error (maybe fixed) : 0
Dropped bytes error (maybe fixed) : 0
Duplicated bytes error (maybe fixed) : 0
Inconsistency in error sectors : 0

Track 04

Track gain : -2.23 dB
Peak : 0.929047
CRC32 hash (test run) : F4CB56B6
CRC32 hash : F4CB56B6
CRC32 hash (skip zero) : 80FCAF05
AccurateRip signature : 1DD7D218
->Accurately ripped! (confidence 2)
Statistics
Read error : 0
Skipped (treated as error) : 0
Edge jitter error (maybe fixed) : 0
Atom jitter error (maybe fixed) : 0
Drift error (maybe fixed) : 0
Dropped bytes error (maybe fixed) : 0
Duplicated bytes error (maybe fixed) : 0
Inconsistency in error sectors : 0

Track 05

Track gain : -3.20 dB
Peak : 0.939972
CRC32 hash (test run) : 427CF4E7
CRC32 hash : 427CF4E7
CRC32 hash (skip zero) : 14381A12
AccurateRip signature : F6B9CDC0
->Accurately ripped! (confidence 2)
Statistics
Read error : 0
Skipped (treated as error) : 0
Edge jitter error (maybe fixed) : 0
Atom jitter error (maybe fixed) : 0
Drift error (maybe fixed) : 0
Dropped bytes error (maybe fixed) : 0
Duplicated bytes error (maybe fixed) : 0
Inconsistency in error sectors : 0

Track 06

Track gain : -3.15 dB
Peak : 0.934387
CRC32 hash (test run) : B7BCCD1A
CRC32 hash : B7BCCD1A
CRC32 hash (skip zero) : 937B1278
AccurateRip signature : 06916C60
->Accurately ripped! (confidence 2)
Statistics
Read error : 0
Skipped (treated as error) : 0
Edge jitter error (maybe fixed) : 0
Atom jitter error (maybe fixed) : 0
Drift error (maybe fixed) : 0
Dropped bytes error (maybe fixed) : 0
Duplicated bytes error (maybe fixed) : 0
Inconsistency in error sectors : 0

Track 07

Track gain : -4.06 dB
Peak : 0.999939
CRC32 hash (test run) : 22678CDE
CRC32 hash : 22678CDE
CRC32 hash (skip zero) : EF30D646
AccurateRip signature : 164F98FA
->Accurately ripped! (confidence 2)
Statistics
Read error : 0
Skipped (treated as error) : 0
Edge jitter error (maybe fixed) : 0
Atom jitter error (maybe fixed) : 0
Drift error (maybe fixed) : 0
Dropped bytes error (maybe fixed) : 0
Duplicated bytes error (maybe fixed) : 0
Inconsistency in error sectors : 0

Track 08

Track gain : -3.33 dB
Peak : 0.860962
CRC32 hash (test run) : 51BB6556
CRC32 hash : 51BB6556
CRC32 hash (skip zero) : EAD0587E
AccurateRip signature : B2BD5AFC
->Accurately ripped! (confidence 2)
Statistics
Read error : 0
Skipped (treated as error) : 0
Edge jitter error (maybe fixed) : 0
Atom jitter error (maybe fixed) : 0
Drift error (maybe fixed) : 0
Dropped bytes error (maybe fixed) : 0
Duplicated bytes error (maybe fixed) : 0
Inconsistency in error sectors : 0

Track 09

Track gain : -3.32 dB
Peak : 0.874603
CRC32 hash (test run) : 7C27C5EB
CRC32 hash : 7C27C5EB
CRC32 hash (skip zero) : A28D004A
AccurateRip signature : B959E8DD
->Accurately ripped! (confidence 2)
Statistics
Read error : 0
Skipped (treated as error) : 0
Edge jitter error (maybe fixed) : 0
Atom jitter error (maybe fixed) : 0
Drift error (maybe fixed) : 0
Dropped bytes error (maybe fixed) : 0
Duplicated bytes error (maybe fixed) : 0
Inconsistency in error sectors : 0

Track 10

Track gain : -5.11 dB
Peak : 0.940460
CRC32 hash (test run) : 21B92C67
CRC32 hash : 21B92C67
CRC32 hash (skip zero) : C6CC1551
AccurateRip signature : FF43A3B9
->Accurately ripped! (confidence 2)
Statistics
Read error : 0
Skipped (treated as error) : 0
Edge jitter error (maybe fixed) : 0
Atom jitter error (maybe fixed) : 0
Drift error (maybe fixed) : 0
Dropped bytes error (maybe fixed) : 0
Duplicated bytes error (maybe fixed) : 0
Inconsistency in error sectors : 0

No errors occurred

End of status report
–––-
X Lossless Decoder version 20100218 (116.4)

XLD extraction logfile from 2010-02-18 19:25:57 +0100

Kayak / Chance For A Live Time (disc 2)

Used drive : TSSTcorp CDDVDW SE-S224Q (revision TS00)

Use cdparanoia mode : YES (CDParanoia III 10.2 engine)
Disable audio cache : OK for the drive with cache less than 2750KB
Make use of C2 pointers : NO
Read offset correction : 6
Max retry count : 100

TOC of the extracted CD
Track | Start | Length | Start sector | End sector
––––––––––––––––––––––––––––-
1 | 00:00:00 | 04:54:02 | 0 | 22051
2 | 04:54:02 | 04:30:16 | 22052 | 42317
3 | 09:24:18 | 07:38:02 | 42318 | 76669
4 | 17:02:20 | 05:52:18 | 76670 | 103087
5 | 22:54:38 | 04:30:10 | 103088 | 123347
6 | 27:24:48 | 05:09:08 | 123348 | 146530
7 | 32:33:56 | 05:47:10 | 146531 | 172565
8 | 38:20:66 | 05:41:18 | 172566 | 198158


All Tracks
Filename : /• Marcel/Geconverteerd/Kayak - Chance For A Live Time (disc 2) [FLAC].flac
Album gain : -3.67 dB
Peak : 0.999969
CRC32 hash (test run) : 1540C85F
CRC32 hash : 1540C85F
CRC32 hash (skip zero) : 3AD027A1
Statistics
Read error : 0
Skipped (treated as error) : 0
Edge jitter error (maybe fixed) : 0
Atom jitter error (maybe fixed) : 0
Drift error (maybe fixed) : 0
Dropped bytes error (maybe fixed) : 0
Duplicated bytes error (maybe fixed) : 0
Inconsistency in error sectors : 0

Track 01

Pre-gap length : 00:02:00

Track gain : -3.23 dB
Peak : 0.950043
CRC32 hash (test run) : 956ACD2F
CRC32 hash : 956ACD2F
CRC32 hash (skip zero) : 1FC07D05
AccurateRip signature : C1F032C7
->Accurately ripped! (confidence 2)
Statistics
Read error : 0
Skipped (treated as error) : 0
Edge jitter error (maybe fixed) : 0
Atom jitter error (maybe fixed) : 0
Drift error (maybe fixed) : 0
Dropped bytes error (maybe fixed) : 0
Duplicated bytes error (maybe fixed) : 0
Inconsistency in error sectors : 0

Track 02

Track gain : -3.85 dB
Peak : 0.999969
CRC32 hash (test run) : FAB4F201
CRC32 hash : FAB4F201
CRC32 hash (skip zero) : A064DE58
AccurateRip signature : 64284CF0
->Accurately ripped! (confidence 2)
Statistics
Read error : 0
Skipped (treated as error) : 0
Edge jitter error (maybe fixed) : 0
Atom jitter error (maybe fixed) : 0
Drift error (maybe fixed) : 0
Dropped bytes error (maybe fixed) : 0
Duplicated bytes error (maybe fixed) : 0
Inconsistency in error sectors : 0

Track 03

Track gain : -3.32 dB
Peak : 0.997314
CRC32 hash (test run) : 45182F7E
CRC32 hash : 45182F7E
CRC32 hash (skip zero) : E4960C64
AccurateRip signature : 05C10853
->Accurately ripped! (confidence 2)
Statistics
Read error : 0
Skipped (treated as error) : 0
Edge jitter error (maybe fixed) : 0
Atom jitter error (maybe fixed) : 0
Drift error (maybe fixed) : 0
Dropped bytes error (maybe fixed) : 0
Duplicated bytes error (maybe fixed) : 0
Inconsistency in error sectors : 0

Track 04

Track gain : -2.43 dB
Peak : 0.999939
CRC32 hash (test run) : 773C1AE6
CRC32 hash : 773C1AE6
CRC32 hash (skip zero) : 1FD7AA54
AccurateRip signature : 94787B71
->Accurately ripped! (confidence 2)
Statistics
Read error : 0
Skipped (treated as error) : 0
Edge jitter error (maybe fixed) : 0
Atom jitter error (maybe fixed) : 0
Drift error (maybe fixed) : 0
Dropped bytes error (maybe fixed) : 0
Duplicated bytes error (maybe fixed) : 0
Inconsistency in error sectors : 0

Track 05

Track gain : -4.19 dB
Peak : 0.999969
CRC32 hash (test run) : 17866EB5
CRC32 hash : 17866EB5
CRC32 hash (skip zero) : 47D8262A
AccurateRip signature : 39B002B8
->Accurately ripped! (confidence 2)
Statistics
Read error : 0
Skipped (treated as error) : 0
Edge jitter error (maybe fixed) : 0
Atom jitter error (maybe fixed) : 0
Drift error (maybe fixed) : 0
Dropped bytes error (maybe fixed) : 0
Duplicated bytes error (maybe fixed) : 0
Inconsistency in error sectors : 0

Track 06

Track gain : -4.47 dB
Peak : 0.999390
CRC32 hash (test run) : ED9EAE69
CRC32 hash : ED9EAE69
CRC32 hash (skip zero) : F62935C0
AccurateRip signature : 8C8F4D99
->Accurately ripped! (confidence 2)
Statistics
Read error : 0
Skipped (treated as error) : 0
Edge jitter error (maybe fixed) : 0
Atom jitter error (maybe fixed) : 0
Drift error (maybe fixed) : 0
Dropped bytes error (maybe fixed) : 0
Duplicated bytes error (maybe fixed) : 0
Inconsistency in error sectors : 0

Track 07

Track gain : -3.98 dB
Peak : 0.963745
CRC32 hash (test run) : CE77152D
CRC32 hash : CE77152D
CRC32 hash (skip zero) : 13B7BE29
AccurateRip signature : 24BFDBFF
->Accurately ripped! (confidence 2)
Statistics
Read error : 0
Skipped (treated as error) : 0
Edge jitter error (maybe fixed) : 0
Atom jitter error (maybe fixed) : 0
Drift error (maybe fixed) : 0
Dropped bytes error (maybe fixed) : 0
Duplicated bytes error (maybe fixed) : 0
Inconsistency in error sectors : 0

Track 08

Track gain : -2.20 dB
Peak : 0.897461
CRC32 hash (test run) : A93BEED2
CRC32 hash : A93BEED2
CRC32 hash (skip zero) : D7F0BD76
AccurateRip signature : FA4BB6BF
->Accurately ripped! (confidence 2)
Statistics
Read error : 0
Skipped (treated as error) : 0
Edge jitter error (maybe fixed) : 0
Atom jitter error (maybe fixed) : 0
Drift error (maybe fixed) : 0
Dropped bytes error (maybe fixed) : 0
Duplicated bytes error (maybe fixed) : 0
Inconsistency in error sectors : 0

No errors occurred

End of status report



[CUETools log; Date: 2015.03.25. 11:05:12; Version: 2.1.4]
[CTDB TOCID: W7uGef0Fks3VhjdzMvtC.9YtmXY-] found.
Track | CTDB Status
1 | (4/4) Accurately ripped
2 | (4/4) Accurately ripped
3 | (4/4) Accurately ripped
4 | (3/4) Accurately ripped
5 | (4/4) Accurately ripped
6 | (4/4) Accurately ripped
7 | (4/4) Accurately ripped
8 | (4/4) Accurately ripped
9 | (4/4) Accurately ripped
10 | (4/4) Accurately ripped
[AccurateRip ID: 0010ddfc-0082b57e-8709db0a] found.
Track [ CRC | V2 ] Status
01 [48c35b22|6c6dff5e] (5+3/8) Accurately ripped
02 [dc2a76d4|2a04cb91] (5+3/8) Accurately ripped
03 [dfb49790|0156cf1e] (5+3/8) Accurately ripped
04 [1dd7d218|4e62ff02] (5+3/8) Accurately ripped
05 [f6b9cdc0|7a95e4a3] (5+3/8) Accurately ripped
06 [06916c60|2f67cfbc] (5+3/8) Accurately ripped
07 [164f98fa|4ed0164a] (5+3/8) Accurately ripped
08 [b2bd5afc|25bedf5a] (5+3/8) Accurately ripped
09 [b959e8dd|29d38545] (5+3/8) Accurately ripped
10 [ff43a3b9|e85e0a45] (5+3/8) Accurately ripped

Track Peak [ CRC32 ] [W/O NULL]
– 99,9 [E2DA1CAE] [0F6E4842]
01 99,6 [526E6932] [2AA336CD]
02 95,8 [832A3A13] [A4A4A771]
03 94,5 [E9B581C6] [4F9FD12E]
04 92,9 [F4CB56B6] [80FCAF05]
05 94,0 [427CF4E7] [14381A12]
06 93,4 [B7BCCD1A] [937B1278]
07 99,9 [22678CDE] [EF30D646]
08 86,0 [51BB6556] [EAD0587E]
09 87,4 [7C27C5EB] [A28D004A]
10 94,0 [21B92C67] [C6CC1551]
–-
[CUETools log; Date: 2015.03.25. 11:05:53; Version: 2.1.4]
[CTDB TOCID: TcWsi_CLIFfJS0CBU19dY2QS9wI-] found.
Track | CTDB Status
1 | (4/4) Accurately ripped
2 | (4/4) Accurately ripped
3 | (4/4) Accurately ripped
4 | (3/4) Accurately ripped
5 | (4/4) Accurately ripped
6 | (4/4) Accurately ripped
7 | (4/4) Accurately ripped
8 | (4/4) Accurately ripped
[AccurateRip ID: 000d7ffc-005a607f-680a5208] found.
Track [ CRC | V2 ] Status
01 [c1f032c7|486a911e] (5+3/8) Accurately ripped
02 [64284cf0|ad6330da] (5+3/8) Accurately ripped
03 [05c10853|2f611e15] (5+3/8) Accurately ripped
04 [94787b71|a0d9316f] (5+3/8) Accurately ripped
05 [39b002b8|cf08a45c] (5+3/8) Accurately ripped
06 [8c8f4d99|0fae9235] (5+3/8) Accurately ripped
07 [24bfdbff|156fdbfb] (5+4/9) Accurately ripped
08 [fa4bb6bf|b48cdf05] (5+3/8) Accurately ripped

Track Peak [ CRC32 ] [W/O NULL]
– 100,0 [1540C85F] [3AD027A1]
01 95,0 [956ACD2F] [1FC07D05]
02 100,0 [FAB4F201] [A064DE58]
03 99,7 [45182F7E] [E4960C64]
04 99,9 [773C1AE6] [1FD7AA54]
05 100,0 [17866EB5] [47D8262A]
06 99,9 [ED9EAE69] [F62935C0]
07 96,3 [CE77152D] [13B7BE29]
08 89,7 [A93BEED2] [D7F0BD76]


Thx to bond1961