Subcategories

Kayak - Nostradamus - The Fate Of Man (2CD) - 2005

Posted By: popsakov
Kayak - Nostradamus - The Fate Of Man (2CD) - 2005

Kayak - Nostradamus - The Fate Of Man (2CD) - 2005
EAC Rip | FLAC, Img+Cue, Log+Checker ~ 766 Mb | MP3 CBR320 ~ 287 Mb
Scans Included | FileSonic, FileServe, Uploaded | 3% Recovery
Progressive Rock | Label: SMH Recordings | Catalog#: SMHR 2515

Nostradamus - The Fate Of Man is a studio album by the Dutch progressive rock band Kayak. This concept-album tells the story of French doctor and seer Nostradamus, but from the viewpoint of a Flemish monk, Yves de Lessines. The (unproven) theory behind this is that Nostradamus was not the writer of his famous "Centuries". These poems were in fact written 200 years earlier by De Lessines, and they were a secret code to find the treasures of the Knights Templar. On one of his journeys, Nostradamus found the book that De Lessines wrote, and interpreted the poems in his own way, turning them into predictions. This theory was launched and motivated by Belgian professor and historian Rudy Cambier in his book "Nostradamus and the lost Templar legacy" (2003). Kayak found this approach much more interesting than the usual Nostradamus-stories, and decided to take this theory as a starting point for their second rock-opera.
Kayak from Wiki
Kayak - Nostradamus - The Fate Of Man (2CD) - 2005

Track List:

CD1

01. The Secret Study [01:46]
02. A Strange And Cryptic Tale [03:07]
03. Friend Of The Stars [04:21]
04. Celestial Science [03:53]
05. The Student [01:26]
06. Dance Of Death [03:27]
07. Fresh Air, Running Water, Rose Pills [04:13]
08. The Monk's Comment 1 [00:47]
09. Seekers Of Truth 1 [04:16]
10. Dance Of Death 2 [01:43]
11. Save My Wife [05:27]
12. The Monk's Comment 2 [00:34]
13. Pagan's Paradise [04:26]
14. The Inquisition [05:34]
15. The Wandering Years [04:47]
16. The Monk's Comment 3 [00:51]
17. If History Was Mine Alone [03:00]
18. Friend Of The Stars 2 [00:37]

Exact Audio Copy V0.99 prebeta 5 from 4. May 2009

Отчёт EAC об извлечении, выполненном 1. июня 2011, 22:10

Kayak / Nostradamus - The Fate of Man CD1

Дисковод: HL-DT-STDVDRAM GT30N Adapter: 0 ID: 1

Режим чтения : Достоверность
Использование точного потока : Да
Отключение кэша аудио : Да
Использование указателей C2 : Нет

Коррекция смещения при чтении : 103
Способность читать области Lead-in и Lead-out : Нет
Заполнение пропущенных сэмплов тишиной : Да
Удаление блоков с тишиной в начале и конце : Нет
При вычислениях CRC использовались нулевые сэмплы : Да
Интерфейс : Встроенный Win32-интерфейс для Win NT/2000

Выходной формат : Внутренние WAV-операции
Формат сэмплов : 44.100 Гц; 16 бит; стерео


TOC извлечённого CD

Трек | Старт | Длительность | Начальный сектор | Конечный сектор
––––––––––––––––––––––––––––––––––-
1 | 0:00.00 | 1:50.45 | 0 | 8294
2 | 1:50.45 | 3:06.00 | 8295 | 22244
3 | 4:56.45 | 4:20.37 | 22245 | 41781
4 | 9:17.07 | 3:53.45 | 41782 | 59301
5 | 13:10.52 | 1:25.09 | 59302 | 65685
6 | 14:35.61 | 3:27.33 | 65686 | 81243
7 | 18:03.19 | 4:12.49 | 81244 | 100192
8 | 22:15.68 | 0:46.57 | 100193 | 103699
9 | 23:02.50 | 4:16.60 | 103700 | 122959
10 | 27:19.35 | 1:42.73 | 122960 | 130682
11 | 29:02.33 | 5:27.03 | 130683 | 155210
12 | 34:29.36 | 0:33.21 | 155211 | 157706
13 | 35:02.57 | 4:26.00 | 157707 | 177656
14 | 39:28.57 | 5:34.30 | 177657 | 202736
15 | 45:03.12 | 4:43.69 | 202737 | 224030
16 | 49:47.06 | 0:51.41 | 224031 | 227896
17 | 50:38.47 | 3:00.00 | 227897 | 241396
18 | 53:38.47 | 0:37.12 | 241397 | 244183


Характеристики диапазона извлечения и сообщения об ошибках

Выбранный диапазон

Имя файла C:\Users\… Rip by a_warrior\Kayak - Nostradamus - The Fate of Man CD1.wav

Пиковый уровень 98.8 %
Качество диапазона 100.0 %
CRC теста 157029A5
CRC копии 157029A5
Копирование… OK

Ошибок не произошло


AccurateRip: сводка

Трек 1 точное извлечение (доверие 2) [FEC41850]
Трек 2 точное извлечение (доверие 2) [83F70D23]
Трек 3 точное извлечение (доверие 2) [4C3FA5A3]
Трек 4 точное извлечение (доверие 2) [9DE6D6BC]
Трек 5 точное извлечение (доверие 2) [889AD1A8]
Трек 6 точное извлечение (доверие 2) [2340BE8B]
Трек 7 точное извлечение (доверие 2) [72584370]
Трек 8 точное извлечение (доверие 2) [A7325A18]
Трек 9 точное извлечение (доверие 2) [6D8C9938]
Трек 10 точное извлечение (доверие 2) [43520D0E]
Трек 11 точное извлечение (доверие 2) [D9491956]
Трек 12 точное извлечение (доверие 2) [18147F35]
Трек 13 точное извлечение (доверие 2) [24B67BEB]
Трек 14 точное извлечение (доверие 2) [0D9005C9]
Трек 15 точное извлечение (доверие 2) [B5BF3594]
Трек 16 точное извлечение (доверие 2) [3CF305A4]
Трек 17 точное извлечение (доверие 2) [F395405A]
Трек 18 точное извлечение (доверие 2) [69C605DA]

Все треки извлечены точно

Конец отчёта

AUDIOCHECKER v2.0 beta (build 457) - by Dester - opdester@freemail.hu
~~~~~~~~~~~~~~~~~~~~~~~~~~~~~~~~~~
-=== НЕ РЕДАКТИРУЙТЕ ЭТОТ ФАЙЛ! ===-

Путь: …\Kayak - Nostradamus - The Fate of Man CD1

1 -=- Kayak - Nostradamus - The Fate of Man CD1.flac -=- CDDA (100%)

19874260

[Verification date: 21.06.2011 1:16:13]
[Disc ID: 00241dbf-01e52b8c-f10cb712]
Track [ CRC ] Status
01 [fec41850] (02/04) Accurately ripped as in pressing(s) #2
02 [83f70d23] (02/04) Accurately ripped as in pressing(s) #2
03 [4c3fa5a3] (02/04) Accurately ripped as in pressing(s) #2
04 [9de6d6bc] (02/04) Accurately ripped as in pressing(s) #2
05 [889ad1a8] (02/04) Accurately ripped as in pressing(s) #2
06 [2340be8b] (02/04) Accurately ripped as in pressing(s) #2
07 [72584370] (02/04) Accurately ripped as in pressing(s) #2
08 [a7325a18] (02/04) Accurately ripped as in pressing(s) #2
09 [6d8c9938] (02/04) Accurately ripped as in pressing(s) #2
10 [43520d0e] (02/04) Accurately ripped as in pressing(s) #2
11 [d9491956] (02/04) Accurately ripped as in pressing(s) #2
12 [18147f35] (02/04) Accurately ripped as in pressing(s) #2
13 [24b67beb] (02/04) Accurately ripped as in pressing(s) #2
14 [0d9005c9] (02/04) Accurately ripped as in pressing(s) #2
15 [b5bf3594] (02/04) Accurately ripped as in pressing(s) #2
16 [3cf305a4] (02/04) Accurately ripped as in pressing(s) #2
17 [f395405a] (02/04) Accurately ripped as in pressing(s) #2
18 [69c605da] (02/04) Accurately ripped as in pressing(s) #2
Offsetted by 664:
01 [f0e48ec1] (02/04) Accurately ripped as in pressing(s) #1
02 [526a6a69] (02/04) Accurately ripped as in pressing(s) #1
03 [9510c02e] (02/04) Accurately ripped as in pressing(s) #1
04 [dddd2cc6] (02/04) Accurately ripped as in pressing(s) #1
05 [e440870d] (02/04) Accurately ripped as in pressing(s) #1
06 [09a44959] (02/04) Accurately ripped as in pressing(s) #1
07 [bf557074] (02/04) Accurately ripped as in pressing(s) #1
08 [13177524] (02/04) Accurately ripped as in pressing(s) #1
09 [3f49c250] (02/04) Accurately ripped as in pressing(s) #1
10 [e36910a0] (02/04) Accurately ripped as in pressing(s) #1
11 [31dfb737] (02/04) Accurately ripped as in pressing(s) #1
12 [796ebef1] (02/04) Accurately ripped as in pressing(s) #1
13 [5e615507] (02/04) Accurately ripped as in pressing(s) #1
14 [61a8c9ae] (02/04) Accurately ripped as in pressing(s) #1
15 [ce7817d6] (02/04) Accurately ripped as in pressing(s) #1
16 [bc87ded9] (02/04) Accurately ripped as in pressing(s) #1
17 [8ae7abb7] (02/04) Accurately ripped as in pressing(s) #1
18 [f9a7cbaf] (02/04) Accurately ripped as in pressing(s) #1

Track [ CRC32 ] [W/O NULL] [ LOG ]
– [157029A5] [29C0C6FB] CRC32
01 [C8BF5EE5] [68B88EEE]
02 [2217298A] [2078A056]
03 [E7353ED5] [0F11DDA8]
04 [992FAE4B] [6AF2E585]
05 [AEE2D148] [431B317B]
06 [FB7DBDC0] [0BBA939E]
07 [497473D8] [02D64DD4]
08 [7F942999] [FE34AB47]
09 [AA8B5996] [9DE77601]
10 [CA83F6EA] [12E9BA0D]
11 [2A977F7F] [5DF78413]
12 [288BFCF0] [1E229C9B]
13 [F94C64D0] [F2B60ABB]
14 [F3F074EC] [8F281013]
15 [073326DC] [4B60486D]
16 [DE891110] [F0E5DCFA]
17 [D96CE0AE] [FED9121A]
18 [15541B8C] [261AF6D8]

Kayak - Nostradamus - The Fate Of Man (2CD) - 2005

CD2

01. A Man With Remarkable Talents [03:30]
02. Settle Down [04:24]
03. The Monk's Comment 4 [00:45]
04. The Flying Squadron [04:17]
05. Dance Of Mirrors [03:26]
06. A Royal Invitation [01:18]
07. A Cruel Death + The Monk's Comment 5 [04:00]
08. Tell Me All [03:30]
09. The Tournament [04:16]
10. The Golden Cage [02:11]
11. Seekers Of Truth [02:04]
12. Living In Two Realities [04:14]
13. Act Of Despair [04:25]
14. The Secret Study [01:44]
15. The Centuries [05:09]
16. (You Won't Find Me) Alive At Sunrise [03:22]
17. Friend Of The Stars [01:16]
18. Epilogue - The Fate Of Man [02:57]

Exact Audio Copy V0.99 prebeta 5 from 4. May 2009

Отчёт EAC об извлечении, выполненном 1. июня 2011, 22:52

Kayak / Nostradamus - The Fate of Man - CD2

Дисковод: HL-DT-STDVDRAM GT30N Adapter: 0 ID: 1

Режим чтения : Достоверность
Использование точного потока : Да
Отключение кэша аудио : Да
Использование указателей C2 : Нет

Коррекция смещения при чтении : 103
Способность читать области Lead-in и Lead-out : Нет
Заполнение пропущенных сэмплов тишиной : Да
Удаление блоков с тишиной в начале и конце : Нет
При вычислениях CRC использовались нулевые сэмплы : Да
Интерфейс : Встроенный Win32-интерфейс для Win NT/2000

Выходной формат : Внутренние WAV-операции
Формат сэмплов : 44.100 Гц; 16 бит; стерео


TOC извлечённого CD

Трек | Старт | Длительность | Начальный сектор | Конечный сектор
––––––––––––––––––––––––––––––––––-
1 | 0:00.00 | 3:33.23 | 0 | 15997
2 | 3:33.23 | 4:24.00 | 15998 | 35797
3 | 7:57.23 | 0:44.42 | 35798 | 39139
4 | 8:41.65 | 4:17.57 | 39140 | 58471
5 | 12:59.47 | 3:25.33 | 58472 | 73879
6 | 16:25.05 | 1:17.69 | 73880 | 79723
7 | 17:42.74 | 4:00.48 | 79724 | 97771
8 | 21:43.47 | 3:30.06 | 97772 | 113527
9 | 25:13.53 | 4:15.15 | 113528 | 132667
10 | 29:28.68 | 2:11.27 | 132668 | 142519
11 | 31:40.20 | 2:03.46 | 142520 | 151790
12 | 33:43.66 | 4:14.23 | 151791 | 170863
13 | 37:58.14 | 4:25.33 | 170864 | 190771
14 | 42:23.47 | 1:43.66 | 190772 | 198562
15 | 44:07.38 | 5:05.67 | 198563 | 221504
16 | 49:13.30 | 3:21.61 | 221505 | 236640
17 | 52:35.16 | 1:16.24 | 236641 | 242364
18 | 53:51.40 | 2:57.01 | 242365 | 255640


Характеристики диапазона извлечения и сообщения об ошибках

Выбранный диапазон

Имя файла C:\Users\… Rip by a_warrior\Kayak - Nostradamus - The Fate of Man - CD2.wav

Пиковый уровень 98.8 %
Качество диапазона 100.0 %
CRC теста 10BD6515
CRC копии 10BD6515
Копирование… OK

Ошибок не произошло


AccurateRip: сводка

Трек 1 точность не определена (достоверность 2) [4190D3CB], AccurateRip вернул [AA057029]
Трек 2 точность не определена (достоверность 2) [C3328D38], AccurateRip вернул [BEB7204D]
Трек 3 точность не определена (достоверность 2) [5134128C], AccurateRip вернул [03A8E58A]
Трек 4 точность не определена (достоверность 2) [8119F498], AccurateRip вернул [2FB43787]
Трек 5 точность не определена (достоверность 2) [5F5760FF], AccurateRip вернул [E2B4BC3D]
Трек 6 точность не определена (достоверность 2) [87D65F8E], AccurateRip вернул [689C9E01]
Трек 7 точность не определена (достоверность 2) [E76C5A77], AccurateRip вернул [EE625D15]
Трек 8 точность не определена (достоверность 2) [422DE024], AccurateRip вернул [00074440]
Трек 9 точность не определена (достоверность 2) [788F7DB2], AccurateRip вернул [1C05F7C7]
Трек 10 точность не определена (достоверность 2) [AD757F04], AccurateRip вернул [8C27DCFF]
Трек 11 точность не определена (достоверность 2) [6D286F4A], AccurateRip вернул [689F1AC6]
Трек 12 точность не определена (достоверность 2) [D9EE7442], AccurateRip вернул [B5F3796C]
Трек 13 точность не определена (достоверность 2) [1C1F65C8], AccurateRip вернул [B38A3666]
Трек 14 точность не определена (достоверность 2) [1B6FCEB6], AccurateRip вернул [A2ED1CC6]
Трек 15 точность не определена (достоверность 2) [E40ABBF6], AccurateRip вернул [E4D36572]
Трек 16 точность не определена (достоверность 2) [2619BE62], AccurateRip вернул [B7B34B23]
Трек 17 точность не определена (достоверность 2) [E88C5B3D], AccurateRip вернул [3CDCE355]
Трек 18 точность не определена (достоверность 2) [EA6FF4DB], AccurateRip вернул [50DE9313]

Ни один трек не прошёл проверки на точность
В вашей базе может быть иной вариант штамповки диска

Конец отчёта

AUDIOCHECKER v2.0 beta (build 457) - by Dester - opdester@freemail.hu
~~~~~~~~~~~~~~~~~~~~~~~~~~~~~~~~~~
-=== НЕ РЕДАКТИРУЙТЕ ЭТОТ ФАЙЛ! ===-

Путь: …\Kayak - Nostradamus - The Fate of Man CD2

1 -=- Kayak - Nostradamus - The Fate of Man - CD2.flac -=- CDDA (100%)

19123460

[Verification date: 21.06.2011 1:16:54]
[Disc ID: 0025802a-01f3fae2-f50d5012]
Track [ CRC ] Status
01 [4190d3cb] (00/02) No matches
02 [c3328d38] (00/02) No matches
03 [5134128c] (00/02) No matches
04 [8119f498] (00/02) No matches
05 [5f5760ff] (00/02) No matches
06 [87d65f8e] (00/02) No matches
07 [e76c5a77] (00/02) No matches
08 [422de024] (00/02) No matches
09 [788f7db2] (00/02) No matches
10 [ad757f04] (00/02) No matches
11 [6d286f4a] (00/02) No matches
12 [d9ee7442] (00/02) No matches
13 [1c1f65c8] (00/02) No matches
14 [1b6fceb6] (00/02) No matches
15 [e40abbf6] (00/02) No matches
16 [2619be62] (00/02) No matches
17 [e88c5b3d] (00/02) No matches
18 [ea6ff4db] (00/02) No matches
Offsetted by 664:
01 [aa057029] (02/02) Accurately ripped as in pressing(s) #1
02 [beb7204d] (02/02) Accurately ripped as in pressing(s) #1
03 [03a8e58a] (02/02) Accurately ripped as in pressing(s) #1
04 [2fb43787] (02/02) Accurately ripped as in pressing(s) #1
05 [e2b4bc3d] (02/02) Accurately ripped as in pressing(s) #1
06 [689c9e01] (02/02) Accurately ripped as in pressing(s) #1
07 [ee625d15] (02/02) Accurately ripped as in pressing(s) #1
08 [00074440] (02/02) Accurately ripped as in pressing(s) #1
09 [1c05f7c7] (02/02) Accurately ripped as in pressing(s) #1
10 [8c27dcff] (02/02) Accurately ripped as in pressing(s) #1
11 [689f1ac6] (02/02) Accurately ripped as in pressing(s) #1
12 [b5f3796c] (02/02) Accurately ripped as in pressing(s) #1
13 [b38a3666] (02/02) Accurately ripped as in pressing(s) #1
14 [a2ed1cc6] (02/02) Accurately ripped as in pressing(s) #1
15 [e4d36572] (02/02) Accurately ripped as in pressing(s) #1
16 [b7b34b23] (02/02) Accurately ripped as in pressing(s) #1
17 [3cdce355] (02/02) Accurately ripped as in pressing(s) #1
18 [50de9313] (02/02) Accurately ripped as in pressing(s) #1

Track [ CRC32 ] [W/O NULL] [ LOG ]
– [10BD6515] [DC215439] CRC32
01 [2D3FC7F3] [58240552]
02 [E1ED0A44] [C61E3EDE]
03 [9DEE41A3] [DBDE6FBB]
04 [A850A742] [309B9B84]
05 [19A65DA5] [43E1B67A]
06 [BCC8FFC1] [B162F3AD]
07 [670E8383] [AFF6F901]
08 [863CD637] [CE5A2A40]
09 [BAC0A129] [28FA4A0C]
10 [EAAD02EE] [52E14A80]
11 [3FCFA851] [8D8795F8]
12 [F8C85B4E] [96422700]
13 [6A93F27F] [C6A8D4D0]
14 [0E501BED] [A36ED003]
15 [382573C7] [8F2AF231]
16 [234139D1] [72AC88CE]
17 [90AD4C8A] [2AD1B44B]
18 [442E8DF9] [E83828FB]

Kayak - Nostradamus - The Fate Of Man (2CD) - 2005

Kayak - Nostradamus - The Fate Of Man (2CD) - 2005

Download:

FileSonic: FLAC-part 1 | FLAC-part 2 | FLAC-part 3 ||| mp3-part 1 | mp3-part 2

FileServe: FLAC-part 1 | FLAC-part 2 | FLAC-part 3 ||| mp3-part 1 | mp3-part 2

Uploaded: FLAC-part 1 | FLAC-part 2 | FLAC-part 3 ||| mp3-part 1 | mp3-part 2

pass: avaxhome.ws

In case you encounter some dead links, please leave the comment here or send me a private message!

Visit my blog!

All thanks go to "a_warrior"