Subcategories

Kayhan Kalhor & Erdal Erzincan - The Wind (2006) {ECM 1981} [Re-Up]

Posted By: tiburon
Kayhan Kalhor & Erdal Erzincan - The Wind (2006) {ECM 1981} [Re-Up]

Kayhan Kalhor & Erdal Erzincan - The Wind (2006) {ECM 1981}
EAC 0.99pb4 | FLAC tracks level 8 | Cue+Log+M3U | Full Scans 400dpi | 419MB + 5% Recovery
MP3 CBR 320 Kbps | 216MB + 5% Recovery
Genre: Ethnic Fusion

The Wind is Kalhor's second musical journey outside of his native land, this time to Turkey to meet and learn from the premier baglama (saz) master, Erdal Erzincan. Kalhor plays kamanche (Iranian spike fiddle), which is usually bowed, and thus contrasts with the plucked sounds of both the sitar and oud-like baglama.Made up of twelve unnamed "Parts" that run into each other, The Wind is really one long improvisation that rises and falls, inhales and exhales as Kalhor and Erzincan become one musician with one mind.
Track List
01. Part I 5:43
02. Part II 4:12
03. Part III 4:39
04. Part IV 3:42
05. Part V 7:27
06. Part VI 4:41
07. Part VII 2:44
08. Part VIII 3:58
09. Part IX 5:58
10. Part X 4:48
11. Part XI 8:19
12. Part XII 7:23

musicians
Kayhan Kalhor - kamancheh
Erdal Erzincan - baglama
Ulas Ozdemir - divan baglama

Produced by Kayhan Kalhor and Manfred Eicher


Exact Audio Copy V0.99 prebeta 4 from 23. January 2008

EAC extraction logfile from 6. April 2008, 8:16

Kayhan Kalhor & Erdal Erzincan / The Wind

Used drive : PLEXTOR CD-R PREMIUM2 Adapter: 1 ID: 1

Read mode : Secure
Utilize accurate stream : Yes
Defeat audio cache : Yes
Make use of C2 pointers : No

Read offset correction : 30
Overread into Lead-In and Lead-Out : No
Fill up missing offset samples with silence : Yes
Delete leading and trailing silent blocks : No
Null samples used in CRC calculations : Yes
Used interface : Installed external ASPI interface
Gap handling : Appended to previous track

Used output format : User Defined Encoder
Selected bitrate : 32 kBit/s
Quality : High
Add ID3 tag : No
Command line compressor : C:\Programmi\FLAC\flac.exe
Additional command line options : -8 -V -T "ARTIST=%a" -T "TITLE=%t" -T "ALBUM=%g" -T "DATE=%y" -T "TRACKNUMBER=%n" -T "GENRE=%m" -T "COMMENT=EAC FLAC -8" %s


TOC of the extracted CD

Track | Start | Length | Start sector | End sector
––––––––––––––––––––––––––––-
1 | 0:00.00 | 5:43.23 | 0 | 25747
2 | 5:43.23 | 4:12.18 | 25748 | 44665
3 | 9:55.41 | 4:39.45 | 44666 | 65635
4 | 14:35.11 | 3:42.59 | 65636 | 82344
5 | 18:17.70 | 7:27.30 | 82345 | 115899
6 | 25:45.25 | 4:41.08 | 115900 | 136982
7 | 30:26.33 | 2:44.67 | 136983 | 149349
8 | 33:11.25 | 3:58.48 | 149350 | 167247
9 | 37:09.73 | 5:58.69 | 167248 | 194166
10 | 43:08.67 | 4:48.24 | 194167 | 215790
11 | 47:57.16 | 8:19.41 | 215791 | 253256
12 | 56:16.57 | 7:23.65 | 253257 | 286546


Track 1

Filename C:\My Rip\01 - The Wind I.wav

Pre-gap length 0:00:02.00

Peak level 59.9 %
Track quality 100.0 %
Test CRC 871FDA95
Copy CRC 871FDA95
Accurately ripped (confidence 3) [4C257D89]
Copy OK

Track 2

Filename C:\My Rip\02 - The Wind II.wav

Peak level 84.8 %
Track quality 100.0 %
Test CRC A1D77C8F
Copy CRC A1D77C8F
Accurately ripped (confidence 3) [D622E20D]
Copy OK

Track 3

Filename C:\My Rip\03 - The Wind III.wav

Peak level 91.0 %
Track quality 99.9 %
Test CRC 6C22CB25
Copy CRC 6C22CB25
Accurately ripped (confidence 3) [8FC62462]
Copy OK

Track 4

Filename C:\My Rip\04 - The Wind IV.wav

Peak level 91.2 %
Track quality 100.0 %
Test CRC F33A57C2
Copy CRC F33A57C2
Accurately ripped (confidence 3) [C3B9B177]
Copy OK

Track 5

Filename C:\My Rip\05 - The Wind V.wav

Peak level 92.6 %
Track quality 100.0 %
Test CRC C70CFD91
Copy CRC C70CFD91
Accurately ripped (confidence 3) [C40D77BA]
Copy OK

Track 6

Filename C:\My Rip\06 - The Wind VI.wav

Peak level 70.6 %
Track quality 100.0 %
Test CRC 9B9D6D0E
Copy CRC 9B9D6D0E
Accurately ripped (confidence 3) [AC54E384]
Copy OK

Track 7

Filename C:\My Rip\07 - The Wind VII.wav

Peak level 78.2 %
Track quality 100.0 %
Test CRC E457CC01
Copy CRC E457CC01
Accurately ripped (confidence 3) [510DDAD1]
Copy OK

Track 8

Filename C:\My Rip\08 - The Wind VIII.wav

Peak level 87.4 %
Track quality 100.0 %
Test CRC A19C40D3
Copy CRC A19C40D3
Accurately ripped (confidence 3) [52E2FA4B]
Copy OK

Track 9

Filename C:\My Rip\09 - The Wind IX.wav

Peak level 91.3 %
Track quality 100.0 %
Test CRC 461C34D6
Copy CRC 461C34D6
Accurately ripped (confidence 3) [5FED209D]
Copy OK

Track 10

Filename C:\My Rip\10 - The Wind X.wav

Peak level 76.9 %
Track quality 100.0 %
Test CRC 22BAFC7D
Copy CRC 22BAFC7D
Accurately ripped (confidence 3) [AFD7051D]
Copy OK

Track 11

Filename C:\My Rip\11 - The Wind XI.wav

Peak level 98.6 %
Track quality 100.0 %
Test CRC E86B907E
Copy CRC E86B907E
Accurately ripped (confidence 3) [922A5CE9]
Copy OK

Track 12

Filename C:\My Rip\12 - The Wind XII.wav

Peak level 98.6 %
Track quality 100.0 %
Test CRC D3E727F4
Copy CRC D3E727F4
Accurately ripped (confidence 3) [D0009F09]
Copy OK


All tracks accurately ripped

No errors occurred

End of status report


––––––––––––––––––––––––––––––––––––––––
Analyzed: Kayhan Kalhor & Erdal Erzincan / The Wind
––––––––––––––––––––––––––––––––––––––––

DR Peak RMS Duration Track
––––––––––––––––––––––––––––––––––––––––
DR12 -4.45 dB -21.24 dB 5:43 01-The Wind I
DR12 -1.43 dB -18.17 dB 4:12 02-The Wind II
DR12 -0.82 dB -19.13 dB 4:40 03-The Wind III
DR13 -0.79 dB -17.86 dB 3:43 04-The Wind IV
DR13 -0.66 dB -17.75 dB 7:27 05-The Wind V
DR12 -3.01 dB -20.19 dB 4:41 06-The Wind VI
DR12 -2.14 dB -18.37 dB 2:45 07-The Wind VII
DR11 -1.17 dB -17.39 dB 3:59 08-The Wind VIII
DR13 -0.79 dB -17.48 dB 5:59 09-The Wind IX
DR11 -2.28 dB -16.65 dB 4:48 10-The Wind X
DR14 -0.12 dB -16.34 dB 8:20 11-The Wind XI
DR15 -0.12 dB -17.25 dB 7:24 12-The Wind XII
––––––––––––––––––––––––––––––––––––––––

Number of tracks: 12
Official DR value: DR13

Samplerate: 44100 Hz
Channels: 2
Bits per sample: 16
Bitrate: 795 kbps
Codec: FLAC
================================================================================

Kayhan Kalhor & Erdal Erzincan - The Wind (2006) {ECM 1981} [Re-Up]
Kayhan Kalhor & Erdal Erzincan - The Wind (2006) {ECM 1981} [Re-Up]
Kayhan Kalhor & Erdal Erzincan - The Wind (2006) {ECM 1981} [Re-Up]


Thanks to the original ripper