Subcategories

Kazumi Watanabe - Guitar Renaissance V (2012) {Hybrid SACD}

Posted By: popsakov
Kazumi Watanabe - Guitar Renaissance V (2012) {Hybrid SACD}

Kazumi Watanabe - Guitar Renaissance V (2012) {Hybrid SACD}
EAC Rip | FLAC (Img) + Cue + Log ~ 346 Mb | MP3 CBR320 ~ 146 Mb
Scans (JPG, 600 dpi) ~ 34 Mb | RAR 5% Recovery
World, Fusion, New Age, Acoustic | EWE Records #EWSA 0189

Kazumi Watanabe is a jazz and jazz fusion guitarist, from Tokyo, Japan. Kazumi learned to play guitar from Sadanori Nakamure, one of Japan's grandmaster guitarists. Kazumi released his first recording in 1971, and quickly became a promising guitarist in his own right. In 1979, he formed an all-star band with some of Japan's leading studio musicians, and recorded the album Kylyn, which is considered a masterpiece in fusion music.

During the eighties Watanabe released a considerable number of jazz-rock albums. To Chi Ka (1980), with its funk influences and bright sound, is probably the most famous early title. Some latter albums, such as Mobo Club (1983) and Mobo Splash (1985) display more experimental tendencies. But the most famous of all is Spice of Life (1987) which is done in a strongly melodic style. A DVD has been issued from the tour in which the music was played with drummer Bill Bruford and bassist Jeff Berlin (who also play on the studio record). In the 1990s Kazumi assembled an all-Japanese line-up called Resonance Vox (Vagabonde Suzuki on bass, Rikiya Higahihara on drums, Tomohiro Yahiro on percussion). This band has released several adventurous fusion albums.

Watanabe has worked with numerous musicians such as Steve Gadd, Tony Levin, Jeff Berlin, Bill Bruford, Sly and Robbie, Wayne Shorter, Patrick Moraz, Marcus Miller, Richard Bona, and Peter Erskine. Since 1996, he has been a visiting professor of music at Senzoku Gakuen College. He endorses Steinberger and Paul Reed Smith guitars, and has been chosen Best Jazzman 24 years in a row by Swing Journal's annual poll.
~ jazzmusicarchives.com

Kazumi Watanabe - Guitar Renaissance V (2012) {Hybrid SACD}


***************

Kazumi Watanabe - Guitar Renaissance V (2012) {Hybrid SACD}

Kazumi Watanabe - Guitar Renaissance V (2012) {Hybrid SACD}

Kazumi Watanabe - Guitar Renaissance V (2012) {Hybrid SACD}

Track List:

01. Hey Jude [06:20]
02. Fly Me To The Moon [05:35]
03. Going Home [06:11]
04. Menuetii [03:52]
05. Gigue [01:56]
06. Birdland [08:08]
07. Gei Mori Blues [05:31]
08. Imujing Gawa [04:24]
09. Kwano Nagareno Youni [05:34]
10. Revive Fukkouno Kane [08:45]
11. My Favorite Things [04:39]

Exact Audio Copy V1.0 beta 6 from 9. April 2015

EAC extraction logfile from 7. March 2016, 19:32

Kazumi Watanabe / Guitar Renaissance V

Used drive : TSSTcorpCDDVDW SH-224DB Adapter: 1 ID: 0

Read mode : Secure
Utilize accurate stream : Yes
Defeat audio cache : Yes
Make use of C2 pointers : No

Read offset correction : 6
Overread into Lead-In and Lead-Out : No
Fill up missing offset samples with silence : Yes
Delete leading and trailing silent blocks : No
Null samples used in CRC calculations : Yes
Used interface : Native Win32 interface for Win NT & 2000

Used output format : User Defined Encoder
Selected bitrate : 1024 kBit/s
Quality : High
Add ID3 tag : No
Command line compressor : C:\Program Files (x86)\Exact Audio Copy\wavpack.exe
Additional command line options : -hm %source% %dest%


TOC of the extracted CD

Track | Start | Length | Start sector | End sector
––––––––––––––––––––––––––––-
1 | 0:00.00 | 6:19.14 | 0 | 28438
2 | 6:19.14 | 5:34.15 | 28439 | 53503
3 | 11:53.29 | 6:10.32 | 53504 | 81285
4 | 18:03.61 | 3:51.23 | 81286 | 98633
5 | 21:55.09 | 1:55.45 | 98634 | 107303
6 | 23:50.54 | 8:07.20 | 107304 | 143848
7 | 31:57.74 | 5:30.37 | 143849 | 168635
8 | 37:28.36 | 4:23.10 | 168636 | 188370
9 | 41:51.46 | 5:33.40 | 188371 | 213385
10 | 47:25.11 | 8:44.66 | 213386 | 252751
11 | 56:10.02 | 4:38.14 | 252752 | 273615


Range status and errors

Selected range

Filename G:\iso\Kazumi Watanabe - Guitar Renaissance V\Kazumi Watanabe - Guitar Renaissance V.wav

Peak level 99.7 %
Extraction speed 3.2 X
Range quality 100.0 %
Test CRC 8D3A4566
Copy CRC 8D3A4566
Copy OK

No errors occurred


AccurateRip summary

Track 1 accurately ripped (confidence 3) [96B5C81F] (AR v2)
Track 2 accurately ripped (confidence 3) [9621103F] (AR v2)
Track 3 accurately ripped (confidence 3) [09A53497] (AR v2)
Track 4 accurately ripped (confidence 3) [AB3904A7] (AR v2)
Track 5 accurately ripped (confidence 3) [C67C52B4] (AR v2)
Track 6 accurately ripped (confidence 3) [0675FB7D] (AR v2)
Track 7 accurately ripped (confidence 3) [32F56795] (AR v2)
Track 8 accurately ripped (confidence 3) [98A5982A] (AR v2)
Track 9 accurately ripped (confidence 3) [C15412A2] (AR v2)
Track 10 accurately ripped (confidence 3) [5698C0B1] (AR v2)
Track 11 accurately ripped (confidence 3) [13BFBE40] (AR v2)

All tracks accurately ripped

End of status report

–– CUETools DB Plugin V2.1.6

[CTDB TOCID: 5xQNuNoOfLW7Y7IyFw_i9A9meWU-] found
Submit result: 5xQNuNoOfLW7Y7IyFw_i9A9meWU- has been confirmed
Track | CTDB Status
1 | (6/6) Accurately ripped
2 | (6/6) Accurately ripped
3 | (6/6) Accurately ripped
4 | (6/6) Accurately ripped
5 | (6/6) Accurately ripped
6 | (6/6) Accurately ripped
7 | (6/6) Accurately ripped
8 | (6/6) Accurately ripped
9 | (6/6) Accurately ripped
10 | (6/6) Accurately ripped
11 | (6/6) Accurately ripped


==== Log checksum 65A9BF34C0C062009A253EC03013279EB8BD9E7AB89A3DECFB45DB690EEECD5C ====

foobar2000 1.2.6 / Dynamic Range Meter 1.1.1
log date: 2016-07-12 12:18:32

––––––––––––––––––––––––––––––––––––––––
Analyzed: Kazumi Watanabe / Guitar Renaissance V
––––––––––––––––––––––––––––––––––––––––

DR Peak RMS Duration Track
––––––––––––––––––––––––––––––––––––––––
DR7 -0.03 dB -10.73 dB 6:19 01-Hey Jude
DR8 -0.05 dB -10.84 dB 5:34 02-Fly Me To The Moon
DR10 -0.08 dB -12.89 dB 6:10 03-Going Home
DR10 -0.31 dB -12.37 dB 3:51 04-Menuetii
DR9 -0.17 dB -11.14 dB 1:56 05-Gigue
DR9 -0.03 dB -11.02 dB 8:07 06-Birdland
DR9 -0.03 dB -11.82 dB 5:30 07-Gei Mori Blues
DR11 -0.18 dB -14.16 dB 4:23 08-Imujing Gawa
DR11 -0.28 dB -13.80 dB 5:34 09-Kwano Nagareno Youni
DR7 -0.03 dB -9.92 dB 8:45 10-Revive Fukkouno Kane
DR10 -0.03 dB -11.77 dB 4:38 11-My Favorite Things
––––––––––––––––––––––––––––––––––––––––

Number of tracks: 11
Official DR value: DR9

Samplerate: 44100 Hz
Channels: 2
Bits per sample: 16
Bitrate: 754 kbps
Codec: FLAC
================================================================================

[CUETools log; Date: 12.07.2016 12:18:16; Version: 2.1.5]
[CTDB TOCID: 5xQNuNoOfLW7Y7IyFw_i9A9meWU-] found.
Track | CTDB Status
1 | (7/7) Accurately ripped
2 | (7/7) Accurately ripped
3 | (7/7) Accurately ripped
4 | (7/7) Accurately ripped
5 | (7/7) Accurately ripped
6 | (7/7) Accurately ripped
7 | (7/7) Accurately ripped
8 | (7/7) Accurately ripped
9 | (7/7) Accurately ripped
10 | (7/7) Accurately ripped
11 | (7/7) Accurately ripped
[AccurateRip ID: 00189031-00d487e7-8b0e400b] found.
Track [ CRC | V2 ] Status
01 [607b1c38|96b5c81f] (0+4/4) Accurately ripped
02 [38edf0c3|9621103f] (0+4/4) Accurately ripped
03 [c221e285|09a53497] (0+4/4) Accurately ripped
04 [57a93fc6|ab3904a7] (0+4/4) Accurately ripped
05 [5fef5b52|c67c52b4] (0+4/4) Accurately ripped
06 [c20f7bac|0675fb7d] (0+4/4) Accurately ripped
07 [f1fe0045|32f56795] (0+4/4) Accurately ripped
08 [24198b5e|98a5982a] (0+4/4) Accurately ripped
09 [ea643634|c15412a2] (0+4/4) Accurately ripped
10 [949f96cb|5698c0b1] (0+4/4) Accurately ripped
11 [7d94e6bf|13bfbe40] (0+4/4) Accurately ripped

Track Peak [ CRC32 ] [W/O NULL] [ LOG ]
– 99,7 [8D3A4566] [50F1A83E] CRC32
01 99,7 [00DC4321] [BDAF774A]
02 99,4 [7B326C87] [CE3D4928]
03 99,0 [D6FC5BA8] [FF5899D5]
04 96,4 [6B8022F0] [AC9EA033]
05 98,0 [8D986502] [2EE54B92]
06 99,7 [CB7D934A] [C3FDAFE9]
07 99,6 [482C5837] [4E5B8856]
08 97,9 [ECC47711] [221BF897]
09 96,8 [0C28C068] [ACFC1D80]
10 99,6 [DBE0D4C4] [19805894]
11 99,6 [2728106D] [42539316]

Kazumi Watanabe - Guitar Renaissance V (2012) {Hybrid SACD}

Kazumi Watanabe - Guitar Renaissance V (2012) {Hybrid SACD}

All thanks go to the original ripper(s) …

Visit my blog!

Download: