Subcategories
Tags
Language
Tags

Keiko Matsui - The Road... (2011) {Japanese Edition}

Posted By: popsakov
Keiko Matsui - The Road... (2011) {Japanese Edition}

Keiko Matsui - The Road… (2011) {Japanese Edition}
EAC Rip | FLAC (Img) + Cue + Log ~ 281 Mb | MP3 CBR320 ~ 120 Mb
Full Scans (JPG, 600 dpi) ~ 94 Mb | RAR 5% Recovery
Jazz, Jazz Fusion, New Age, Smooth Jazz | Avex Trax #AVCD 38358

It's been four long years since pianist and composer Keiko Matsui released the spare, elegant Moyo. That is an atypical break for an artist who has recorded 22 studio albums since her debut in the late 1980s. Appearing on Shanachie for the first time, The Road was largely self-produced. Matsui appears in varying contexts here, from trios to quartets and quintets to an octet on a musically diverse set that sums up virtually every place she's been while continuing to point the way forward. Some of these players have collaborated with her for decades while still others make their initial appearances. The opening "Secret Pond" utilizes Matsui's love of new age music in a context that also employs Japanese folk melodies and classical themes; it is arranged by Heigo Yokouchi and features bassist Reggie Hamilton and drummer Vinnie Colaiuta. Cameroonian bassist, composer, and vocalist Richard Bona appears on the successive tracks "Falcon's Wing," and "Nguea Wonja." The former is a breezy minor-key affair with Matsui playing a classical theme counter to Bona's lithe, nocturnal bassline and shimmering wordless vocal. The latter is an exercise in world jazz that encompasses African and Latin rhythms in a stridently syncopated context. "Bohemian Concerto" is a dead cross between tango and flamenco with Matsui's piano trio pairing with a quartet of accordion, classical guitar, violin, and cello. Kirk Whalum appears on the 21st century funky blues that is "Awakening" in a septet; he trades breaks with James Hara's guitar and Matsui. He also guests on the smooth-gooving "Affirmation," in which his soulful saxophone solo is the centerpiece. The set closes with the title track. Jackiem Joyner plays saxophone in the slowly developing tune which weds classical and new age. Derek Nakamoto's arrangement places Joyner's bluesy saxophone in direct juxtaposition to Kay Ta Matsuno's guitar and dulcimer, but the track is captured by a knotty, startling piano solo by Matsui that ends in a percussive crescendo. The Road is yet another fascinating chapter in the career of a prolific artist whose approach to contemporary music knows no bounds.
~ Thom Jurek, All Music

***************

Keiko Matsui - The Road... (2011) {Japanese Edition}

Keiko Matsui - The Road... (2011) {Japanese Edition}

Track List:

01. Secret Pond [0:05:01.08]
02. Falcon's Wing [0:04:47.13]
03. Ngued Wonja [0:04:06.32]
04. Bobemian Concerto [0:05:20.53]
05. Embrace & Surrender [0:04:46.32]
06. Awakening [0:05:29.40]
07. Touching Peace [0:04:46.65]
08. Affirmation [0:06:00.49]
09. The Road [0:04:30.40]
10. Hikari [0:05:04.31]

Exact Audio Copy V1.0 beta 3 from 29. August 2011

Отчёт EAC об извлечении, выполненном 5. января 2018, 14:49

Keiko Matsui / The Road

Дисковод: PLEXTOR DVDR PX-755A Adapter: 1 ID: 1

Режим чтения : Достоверность
Использование точного потока : Да
Отключение кэша аудио : Да
Использование указателей C2 : Нет

Коррекция смещения при чтении : 30
Способность читать области Lead-in и Lead-out : Нет
Заполнение пропущенных сэмплов тишиной : Да
Удаление блоков с тишиной в начале и конце : Нет
При вычислениях CRC использовались нулевые сэмплы : Да
Интерфейс : Установленный внешний ASPI-интерфейс

Выходной формат : Пользовательский кодировщик
Выбранный битрейт : 1024 kBit/s
Качество : Высокий
Добавление ID3-тега : Нет
Утилита сжатия : C:\Program Files (x86)\Exact Audio Copy\Flac\flac.exe
Дополнительные параметры : -V -8 -T "Date=%year%" -T "Genre=%genre%" %source%


TOC извлечённого CD

Трек | Старт | Длительность | Начальный сектор | Конечный сектор
––––––––––––––––––––––––––––––––––-
1 | 0:00.00 | 5:01.08 | 0 | 22582
2 | 5:01.08 | 4:47.13 | 22583 | 44120
3 | 9:48.21 | 4:06.32 | 44121 | 62602
4 | 13:54.53 | 5:20.53 | 62603 | 86655
5 | 19:15.31 | 4:46.32 | 86656 | 108137
6 | 24:01.63 | 5:29.40 | 108138 | 132852
7 | 29:31.28 | 4:46.65 | 132853 | 154367
8 | 34:18.18 | 6:00.49 | 154368 | 181416
9 | 40:18.67 | 4:30.40 | 181417 | 201706
10 | 44:49.32 | 5:04.31 | 201707 | 224537


Характеристики диапазона извлечения и сообщения об ошибках

Выбранный диапазон

Имя файла E:\РАЗДАЧА\Keiko Matsui - The Road [Japan]\Keiko Matsui - The Road.wav

Пиковый уровень 98.8 %
Скорость извлечения 8.0 X
Качество диапазона 100.0 %
CRC теста E389AD77
CRC копии E389AD77
Копирование… OK

Ошибок не произошло


AccurateRip: сводка

Трек 1 : извлечено точно (доверие 10) [8278471B] (AR v2)
Трек 2 : извлечено точно (доверие 10) [F1D15AA8] (AR v2)
Трек 3 : извлечено точно (доверие 10) [C1469493] (AR v2)
Трек 4 : извлечено точно (доверие 10) [46530A12] (AR v2)
Трек 5 : извлечено точно (доверие 10) [3C43AA37] (AR v2)
Трек 6 : извлечено точно (доверие 10) [96600B45] (AR v2)
Трек 7 : извлечено точно (доверие 10) [9EEFF05E] (AR v2)
Трек 8 : извлечено точно (доверие 10) [96532608] (AR v2)
Трек 9 : извлечено точно (доверие 10) [B1A1761E] (AR v2)
Трек 10 : извлечено точно (доверие 10) [A700546B] (AR v2)

Все треки извлечены точно

Конец отчёта

==== Контрольная сумма отчёта 8AF16CE6A2E1C6D3D86B021C68DF2809FC77A0BA4464FF8D8830D6F186AFC4BC ====

foobar2000 1.3.16 / Dynamic Range Meter 1.1.1
log date: 2018-01-05 14:40:48

––––––––––––––––––––––––––––––––––––––––
Analyzed: Keiko Matsui / The Road
––––––––––––––––––––––––––––––––––––––––

DR Peak RMS Duration Track
––––––––––––––––––––––––––––––––––––––––
DR8 -0.10 dB -12.01 dB 5:01 01-Secret Pond
DR9 -0.20 dB -12.45 dB 4:47 02-Falcon's Wing
DR9 -0.20 dB -11.38 dB 4:06 03-Ngued Wonja
DR8 -0.20 dB -10.19 dB 5:21 04-Bobemian Concerto
DR9 -0.20 dB -11.52 dB 4:46 05-Embrace & Surrender
DR8 -0.20 dB -11.04 dB 5:30 06-Awakening
DR12 -0.20 dB -15.31 dB 4:47 07-Touching Peace
DR8 -0.20 dB -11.70 dB 6:01 08-Affirmation
DR8 -0.20 dB -12.69 dB 4:31 09-The Road
DR12 -0.10 dB -17.18 dB 5:04 10-Hikari
––––––––––––––––––––––––––––––––––––––––

Number of tracks: 10
Official DR value: DR9

Samplerate: 44100 Hz
Channels: 2
Bits per sample: 16
Bitrate: 747 kbps
Codec: FLAC
================================================================================

[CUETools log; Date: 05.01.2018 14:40:39; Version: 2.1.5]
[CTDB TOCID: YGN.CCLCWk2v5p4NQDoH5nwrXt8-] found.
Track | CTDB Status
1 | (13/13) Accurately ripped
2 | (13/13) Accurately ripped
3 | (13/13) Accurately ripped
4 | (13/13) Accurately ripped
5 | (13/13) Accurately ripped
6 | (13/13) Accurately ripped
7 | (13/13) Accurately ripped
8 | (13/13) Accurately ripped
9 | (13/13) Accurately ripped
10 | (13/13) Accurately ripped
[AccurateRip ID: 001299a8-00957492-750bb10a] found.
Track [ CRC | V2 ] Status
01 [cb383cbc|8278471b] (00+10/10) Accurately ripped
02 [418eca6a|f1d15aa8] (00+10/10) Accurately ripped
03 [6b7b3cd0|c1469493] (00+10/10) Accurately ripped
04 [ab82d67d|46530a12] (00+10/10) Accurately ripped
05 [c7850923|3c43aa37] (00+10/10) Accurately ripped
06 [893c2a00|96600b45] (00+10/10) Accurately ripped
07 [32c5a20d|9eeff05e] (00+10/10) Accurately ripped
08 [bf814b6d|96532608] (00+10/10) Accurately ripped
09 [3fefa98b|b1a1761e] (00+10/10) Accurately ripped
10 [eaab24ee|a700546b] (00+10/10) Accurately ripped

Track Peak [ CRC32 ] [W/O NULL] [ LOG ]
– 98,8 [E389AD77] [0549710D] CRC32
01 98,8 [FB4FC9B6] [56632C2B]
02 97,7 [C3984CAD] [4937AFE2]
03 97,7 [987DD442] [A3A18059]
04 97,7 [A1D213DA] [4074C3B5]
05 97,7 [7181A3B4] [ED689805]
06 97,7 [E71BEAB7] [74E60DEF]
07 97,7 [7E48304C] [95733275]
08 97,7 [62745307] [353ADA7B]
09 97,7 [C689F79D] [1180B5AE]
10 98,8 [74FD7CD8] [F10BE917]

Keiko Matsui - The Road... (2011) {Japanese Edition}

All thanks go to pishin

>>> My Blog <<<

Download from icerbox.com: