Subcategories

Keith Richards And The X-Pensive Winos - Live At The Hollywood Palladium (1988) {2020, Remastered}

Posted By: popsakov
Keith Richards And The X-Pensive Winos - Live At The Hollywood Palladium (1988) {2020, Remastered}

Keith Richards And The X-Pensive Winos - Live At The Hollywood Palladium (1988) {2020, Remastered}
EAC Rip | FLAC (Img) + Cue + Log ~ 503 Mb | MP3 CBR320 ~ 162 Mb
Full Scans ~ 84 Mb | 01:07:23 | RAR 5% Recovery
Blues Rock, Classic Rock, Rock & Roll | Mindless Records / BMG #538588160

Recorded on December 15, 1988, during the tour for Talk Is Cheap, Live at the Hollywood Palladium is a loose, groove-laden affair, featuring the best from Keith Richards' first solo album as well as some Stones classics – mostly tunes he took lead vocals on. Opening with "Take It So Hard," the first thing that hits the listener is the lack of the gloss that was probably the only drawback to Talk Is Cheap, which is a very good thing, because while the album was still leaps and bounds more real than, say, Dirty Work, this live collection is loose without ever getting away from the band, and has an organic feel not present in the Stones' work since the early '70s. Rockers like "Whip It Up" and "Struggle" swagger, while Sarah Dash shines on "Make No Mistake" and "Time Is On My Side." Richards even manages to get into the reggae groove without sounding too clichéd on "Too Rude." Live at the Hollywood Palladium is a solid live album that stands head and shoulders above most of the Stones' live records, and is easily a must-have for any serious Rolling Stones or Keith Richards fan.

~ Chris True, All Music

***************

Keith Richards And The X-Pensive Winos - Live At The Hollywood Palladium (1988) {2020, Remastered}


Track List:

01. Take It So Hard [4:28]
02. How I Wish [4:05]
03. I Could Have Stood You Up [4:26]
04. Too Rude [7:49]
05. Make No Mistake [6:27]
06. Time Is on My Side [4:33]
07. Big Enough [3:46]
08. Whip It Up [5:31]
09. Locked Away [5:49]
10. Struggle [4:36]
11. Happy [7:08]
12. Connection [2:34]
13. Rockawhile [6:16]

Exact Audio Copy V1.3 from 2. September 2016

EAC extraction logfile from 16. November 2020, 10:03

Keith Richards and The X-Pensive Winos / Live At The Hollywood Palladium

Used drive : ATAPI iHAS122 C Adapter: 1 ID: 0

Read mode : Secure
Utilize accurate stream : Yes
Defeat audio cache : Yes
Make use of C2 pointers : No

Read offset correction : 6
Overread into Lead-In and Lead-Out : No
Fill up missing offset samples with silence : Yes
Delete leading and trailing silent blocks : No
Null samples used in CRC calculations : Yes
Used interface : Native Win32 interface for Win NT & 2000

Used output format : Internal WAV Routines
Sample format : 44.100 Hz; 16 Bit; Stereo


TOC of the extracted CD

Track | Start | Length | Start sector | End sector
––––––––––––––––––––––––––––-
1 | 0:00.00 | 4:27.72 | 0 | 20096
2 | 4:27.72 | 4:04.62 | 20097 | 38458
3 | 8:32.59 | 4:25.38 | 38459 | 58371
4 | 12:58.22 | 7:48.55 | 58372 | 93526
5 | 20:47.02 | 6:26.67 | 93527 | 122543
6 | 27:13.69 | 4:32.05 | 122544 | 142948
7 | 31:45.74 | 3:45.42 | 142949 | 159865
8 | 35:31.41 | 5:30.18 | 159866 | 184633
9 | 41:01.59 | 5:48.29 | 184634 | 210762
10 | 46:50.13 | 4:35.11 | 210763 | 231398
11 | 51:25.24 | 7:07.46 | 231399 | 263469
12 | 58:32.70 | 2:33.16 | 263470 | 274960
13 | 61:06.11 | 6:15.74 | 274961 | 303159


Range status and errors

Selected range

Filename C:\Users\LondonW1\Desktop\Keith Richards and The X-Pensive Winos - Live At The Hollywood Palladium.wav

Peak level 99.5 %
Extraction speed 3.2 X
Range quality 99.9 %
Test CRC 137FAF22
Copy CRC 137FAF22
Copy OK

No errors occurred


AccurateRip summary

Track 1 not present in database
Track 2 not present in database
Track 3 not present in database
Track 4 not present in database
Track 5 not present in database
Track 6 not present in database
Track 7 not present in database
Track 8 not present in database
Track 9 not present in database
Track 10 not present in database
Track 11 not present in database
Track 12 not present in database
Track 13 not present in database

None of the tracks are present in the AccurateRip database

End of status report

–– CUETools DB Plugin V2.1.6

[CTDB TOCID: l6q93yi_ep.3pCD6n4AWdOm0AG4-] disk not present in database
Submit result: l6q93yi_ep.3pCD6n4AWdOm0AG4- has been uploaded


==== Log checksum 7AEB25CD4E165FF4E70F4E93187EB16227AE665030F2DDB4142E318C7C2DDEA6 ====

Keith Richards And The X-Pensive Winos - Live At The Hollywood Palladium (1988) {2020, Remastered}


All thanks go to London

>>> Keith Richards in my Blog <<<

DOWNLOAD: