Subcategories

Keith Richards - Talk Is Cheap (1988) [MFSL UDCD 557]

Posted By: v3122
Keith Richards - Talk Is Cheap (1988) [MFSL UDCD 557]

Keith Richards - Talk Is Cheap (1988)
EAC | Flac(Image) + Cue + Log & MP3 CBR 320Kbps
Mobile Fidelity Sound Lab, UDCD 557 | ~ 289 or 111 Mb | Scans(500dpi, jpg) -> 56 Mb
Classic Rock / Blues Rock

In 1987, it was anyone's guess if the Stones would ever get back together. Sure, Mick Jagger and Keith Richards were well known for their public disagreements, but when Jagger decided to tour in support of his second solo album, Primitive Cool, Richards was disheartened and finally succumbed to the idea of recording without the Rolling Stones. Taking the band he had assembled to back up Chuck Berry for the Hail! Hail! Rock 'n' Roll documentary (along with longtime session player Waddy Wachtel), Richards put together an album that was straightforward, musical, and better than a good portion of the Stones' output in the first half of the '80s. The lead single "Take It So Hard," "Whip It Up," and "Struggle" are classic Richards riffology, and tracks like "Locked Away" are emotional without being maudlin and worldly but not sounding adult contemporary. The main point of Talk Is Cheap is the music, nothing more; Richards obviously didn't want to fret about anything but the groove. While Jagger's solo work sounded like Mick with some studio musicians, Keith had assembled a band, found a productive songwriting partner in Steve Jordan, and created a record that was free of frills. Simply put, Richards sounded like he was playing for himself, and playing with a certain sense of enjoyment. The new band, the X-pensive Winos, had a different work ethic than the Stones, forcing Richards to focus on the music. What resulted was a solid album built on fundamentals rather than style. It's hard not to see who the real musical force was in the Stones after hearing Talk Is Cheap.

by Chris True, AMG
Keith Richards - Talk Is Cheap (1988) [MFSL UDCD 557]


Keith Richards - Talk Is Cheap (1988):

Keith Richards - Talk Is Cheap (1988) [MFSL UDCD 557]

Tracklist:

01. Big Enough 3:18
02. Take It So Hard 3:17
03. Struggle 4:11
04. I Could Have Stood You Up 3:13
05. Make No Mistake 4:53
06. You Don't Move Me 4:50
07. How I Wish 3:32
08. Rockawhile 4:39
09. Whip It Up 4:03
10. Locked Away 5:50
11. It Means A Lot 5:21

Exact Audio Copy V1.0 beta 3 from 29. August 2011

Отчёт EAC об извлечении, выполненном 14. октября 2015, 16:41

Keith Richards / Talk Is Cheap (MFSL)

Дисковод: Optiarc DVD RW AD-7203S Adapter: 0 ID: 0

Режим чтения : Достоверность
Использование точного потока : Да
Отключение кэша аудио : Да
Использование указателей C2 : Нет

Коррекция смещения при чтении : 48
Способность читать области Lead-in и Lead-out : Нет
Заполнение пропущенных сэмплов тишиной : Да
Удаление блоков с тишиной в начале и конце : Нет
При вычислениях CRC использовались нулевые сэмплы : Да
Интерфейс : Встроенный Win32-интерфейс для Win NT/2000

Выходной формат : Пользовательский кодировщик
Выбранный битрейт : 128 kBit/s
Качество : Высокий
Добавление ID3-тега : Нет
Утилита сжатия : C:\Program Files\Exact Audio Copy\Flac\flac.exe
Дополнительные параметры : -V -8 -T "Date=%year%" -T "Genre=%genre%" %source%


TOC извлечённого CD

Трек | Старт | Длительность | Начальный сектор | Конечный сектор
––––––––––––––––––––––––––––––––––-
1 | 0:00.00 | 3:17.50 | 0 | 14824
2 | 3:17.50 | 3:16.63 | 14825 | 29587
3 | 6:34.38 | 4:10.57 | 29588 | 48394
4 | 10:45.20 | 3:13.28 | 48395 | 62897
5 | 13:58.48 | 4:52.45 | 62898 | 84842
6 | 18:51.18 | 4:50.05 | 84843 | 106597
7 | 23:41.23 | 3:32.35 | 106598 | 122532
8 | 27:13.58 | 4:39.25 | 122533 | 143482
9 | 31:53.08 | 4:02.42 | 143483 | 161674
10 | 35:55.50 | 5:50.18 | 161675 | 187942
11 | 41:45.68 | 5:21.32 | 187943 | 212049


Характеристики диапазона извлечения и сообщения об ошибках

Выбранный диапазон

Имя файла F:\EAC\Keith Richards - Talk Is Cheap (MFSL)\Keith Richards - Talk Is Cheap (MFSL)\Keith Richards - Talk Is Cheap (MFSL).wav

Пиковый уровень 96.1 %
Скорость извлечения 3.1 X
Качество диапазона 99.9 %
CRC теста 7C692682
CRC копии 7C692682
Копирование… OK

Ошибок не произошло


AccurateRip: сводка

Трек 1 : извлечено точно (доверие 11) [B6411E5F] (AR v2)
Трек 2 : извлечено точно (доверие 11) [307E7198] (AR v2)
Трек 3 : извлечено точно (доверие 11) [62CCEB54] (AR v2)
Трек 4 : извлечено точно (доверие 11) [9A0417CB] (AR v2)
Трек 5 : извлечено точно (доверие 11) [C053DBB6] (AR v2)
Трек 6 : извлечено точно (доверие 11) [FBB6C249] (AR v2)
Трек 7 : извлечено точно (доверие 11) [18F7D400] (AR v2)
Трек 8 : извлечено точно (доверие 11) [9CE43961] (AR v2)
Трек 9 : извлечено точно (доверие 11) [010F2A8B] (AR v2)
Трек 10 : извлечено точно (доверие 11) [72C2D31B] (AR v2)
Трек 11 : извлечено точно (доверие 11) [C9029F0F] (AR v2)

Все треки извлечены точно

Конец отчёта

==== Контрольная сумма отчёта 5E0AEA641A27E5AC674FCDED7C7E07E560FBB2AFF2AC4EBDAA9604FF0856398C ====

foobar2000 1.2.9 / Dynamic Range Meter 1.1.1
log date: 2015-10-20 12:51:00

––––––––––––––––––––––––––––––––––––––––
Analyzed: Keith Richards / Talk Is Cheap (MFSL)
––––––––––––––––––––––––––––––––––––––––

DR Peak RMS Duration Track
––––––––––––––––––––––––––––––––––––––––
DR13 -1.31 dB -15.93 dB 3:18 01-Big Enough
DR11 -2.75 dB -15.68 dB 3:17 02-Take It So Hard
DR13 -1.66 dB -16.73 dB 4:11 03-Struggle
DR13 -0.34 dB -15.69 dB 3:13 04-I Could Have Stood You Up
DR13 -2.82 dB -19.09 dB 4:53 05-Make No Mistake
DR13 -1.90 dB -17.52 dB 4:50 06-You Don't Move Me
DR11 -1.78 dB -15.17 dB 3:32 07-How I Wish
DR13 -1.96 dB -16.91 dB 4:39 08-Rockawhile
DR13 -1.96 dB -17.51 dB 4:03 09-Whip It Up
DR13 -4.19 dB -18.86 dB 5:50 10-Locked Away
DR14 -2.25 dB -17.94 dB 5:21 11-It Means A Lot
––––––––––––––––––––––––––––––––––––––––

Number of tracks: 11
Official DR value: DR13

Samplerate: 44100 Hz
Channels: 2
Bits per sample: 16
Bitrate: 833 kbps
Codec: FLAC

[CUETools log; Date: 20.10.2015 12:50:43; Version: 2.1.4]
[CTDB TOCID: zlyJgVjDrga399wFdiURgJA7fYk-] found.
Track | CTDB Status
1 | (8/8) Accurately ripped
2 | (8/8) Accurately ripped
3 | (8/8) Accurately ripped
4 | (8/8) Accurately ripped
5 | (8/8) Accurately ripped
6 | (8/8) Accurately ripped
7 | (8/8) Accurately ripped
8 | (8/8) Accurately ripped
9 | (8/8) Accurately ripped
10 | (8/8) Accurately ripped
11 | (8/8) Accurately ripped
[AccurateRip ID: 0011ed2f-009e6aef-920b0b0b] found.
Track [ CRC | V2 ] Status
01 [8a895045|b6411e5f] (04+11/15) Accurately ripped
02 [423aa540|307e7198] (04+11/15) Accurately ripped
03 [44091b8b|62cceb54] (04+11/15) Accurately ripped
04 [258907d2|9a0417cb] (04+11/15) Accurately ripped
05 [598b3646|c053dbb6] (04+11/15) Accurately ripped
06 [918f6ec2|fbb6c249] (04+11/15) Accurately ripped
07 [949e272c|18f7d400] (04+11/15) Accurately ripped
08 [d4d61dde|9ce43961] (04+11/15) Accurately ripped
09 [939e68d4|010f2a8b] (04+11/15) Accurately ripped
10 [6d7a21c3|72c2d31b] (04+11/15) Accurately ripped
11 [335dbcf9|c9029f0f] (04+11/15) Accurately ripped

Track Peak [ CRC32 ] [W/O NULL] [ LOG ]
– 96,1 [7C692682] [2CA862C5] CRC32
01 85,9 [DFC7BE8F] [03029867]
02 72,8 [71F31F71] [8FCC5E03]
03 82,5 [52C189BC] [3681F6DF]
04 96,1 [B36F4128] [5951ECD4]
05 72,3 [5DBEE818] [8366E91B]
06 80,3 [DCA6D753] [D0CBF7E8]
07 81,4 [4B500F7E] [A8A36440]
08 79,8 [69ED895A] [9FD50FC2]
09 79,8 [60F7CEF7] [8AF97A72]
10 61,7 [916ADA99] [C0661FDF]
11 77,1 [760AF384] [F9A22EAE]

Keith Richards - Talk Is Cheap (1988) [MFSL UDCD 557]

All thanks go to jlhjlh

Keith Richards in my Blog

Download Keith Richards - Talk Is Cheap (1988):