Subcategories

Keith Jarrett - Arbour Zena (1976) {ECM 1070} [Repost]

Posted By: tiburon
Keith Jarrett - Arbour Zena (1976) {ECM 1070} [Repost]

Keith Jarrett - Arbour Zena (1976) {ECM 1070}
EAC 0.99pb4 | FLAC tracks level 8 | Cue+Log+M3U | Full Scans 300dpi | 273MB + 5% Recovery
Genre: Jazz
Keith Jarrett - Arbour Zena (1976) {ECM 1070} [Repost]

With saxophonist Jan Garbarek and bassist Charlie Haden along for the ride, Keith Jarrett indulges in three slow, rambling, meditative, vaguely neo-classical concertos for piano and string orchestra. While a few of Jarrett's and Garbarek's passages here and there have a syncopated jazz feeling, this is mostly contemporary classical music, perhaps even somewhat ahead of its time (it might fit in with the neo-Romantic and minimalist camps today). However, although this music can be attractive in small doses, the lack of tempo or texture contrasts over long stretches of time – particularly the nearly 28-minute "Mirrors" – can be annoying if you're not in the right blissful mood. Mladen Gutesha and the Stuttgart Radio Symphony Orchestra perform the string parts with what can only be described as commendable patience.
Track List
1. Runes 15:20
2. Solara March 9:40
3. Mirrors 27:47

musicians
Keith Jarrett - piano
Jan Garbarek - tenor and soprano saxes
Charlie Haden - bass

String Orchestra:
Members Of Radio Symphony Orchestra, Stuttgart
Mladen Gutesha - conductor

Produced by Manfred Eicher


Exact Audio Copy V0.99 prebeta 4 from 23. January 2008

EAC extraction logfile from 6. September 2008, 22:10

Keith Jarrett / Arbour Zena

Used drive : PLEXTOR CD-R PREMIUM2 Adapter: 1 ID: 1

Read mode : Secure
Utilize accurate stream : Yes
Defeat audio cache : Yes
Make use of C2 pointers : No

Read offset correction : 30
Overread into Lead-In and Lead-Out : No
Fill up missing offset samples with silence : Yes
Delete leading and trailing silent blocks : No
Null samples used in CRC calculations : Yes
Used interface : Installed external ASPI interface
Gap handling : Appended to previous track

Used output format : User Defined Encoder
Selected bitrate : 32 kBit/s
Quality : High
Add ID3 tag : No
Command line compressor : C:\Programmi\FLAC\flac.exe
Additional command line options : -8 -V -T "ARTIST=%a" -T "TITLE=%t" -T "ALBUM=%g" -T "DATE=%y" -T "TRACKNUMBER=%n" -T "GENRE=%m" -T "COMMENT=EAC FLAC -8" %s


TOC of the extracted CD

Track | Start | Length | Start sector | End sector
––––––––––––––––––––––––––––-
1 | 0:00.33 | 15:23.12 | 33 | 69269
2 | 15:23.45 | 9:48.65 | 69270 | 113434
3 | 25:12.35 | 27:47.28 | 113435 | 238487


Track 1

Filename C:\My Rip\01 - Runes.wav

Pre-gap length 0:00:02.44

Peak level 77.6 %
Track quality 100.0 %
Test CRC 4E73F153
Copy CRC 4E73F153
Accurately ripped (confidence 2) [7A9753B1]
Copy OK

Track 2

Filename C:\My Rip\02 - Solara March.wav

Pre-gap length 0:00:03.00

Peak level 75.8 %
Track quality 100.0 %
Test CRC FD4C851F
Copy CRC FD4C851F
Accurately ripped (confidence 2) [D3A16832]
Copy OK

Track 3

Filename C:\My Rip\03 - Mirrors.wav

Pre-gap length 0:00:08.00

Peak level 70.9 %
Track quality 100.0 %
Test CRC 10754BA0
Copy CRC 10754BA0
Accurately ripped (confidence 2) [F458675F]
Copy OK


All tracks accurately ripped

No errors occurred

End of status report


––––––––––––––––––––––––––––––––––––––––
Analyzed: Keith Jarrett / Arbour Zena
––––––––––––––––––––––––––––––––––––––––

DR Peak RMS Duration Track
––––––––––––––––––––––––––––––––––––––––
DR14 -2.20 dB -21.68 dB 15:23 01-Runes
DR12 -2.40 dB -18.92 dB 9:49 02-Solara March
DR13 -2.99 dB -20.63 dB 27:47 03-Mirrors
––––––––––––––––––––––––––––––––––––––––

Number of tracks: 3
Official DR value: DR13

Samplerate: 44100 Hz
Channels: 2
Bits per sample: 16
Bitrate: 751 kbps
Codec: FLAC
================================================================================

Keith Jarrett - Arbour Zena (1976) {ECM 1070} [Repost]
Keith Jarrett - Arbour Zena (1976) {ECM 1070} [Repost]
Keith Jarrett - Arbour Zena (1976) {ECM 1070} [Repost]


Rip by Sarchiapone