Tags
Language
Tags

Keith Jarrett / Gary Peacock / Jack DeJohnette - After The Fall (2018) {ECM 2590/91}

Posted By: tiburon
Keith Jarrett / Gary Peacock / Jack DeJohnette - After The Fall (2018) {ECM 2590/91}

Keith Jarrett / Gary Peacock / Jack DeJohnette - After The Fall (2018) {ECM 2590/91}
EAC 1.3 | FLAC tracks level 8 | Cue+Log+M3U | Full Scans 300dpi | 486MB + 5% Recovery
Genre: Jazz, Post-Bop

The group colloquially known as “the Standards trio” has made many outstanding recordings, and After The Fall must rank with the very best of them. “I was amazed to hear how well the music worked,” writes Keith Jarrett in his liner note. “For me, it’s not only a historical document, but a truly great concert.” This performance in Newark, New Jersey in November 1998 marked Jarrett’s return to the concert stage after a two year hiatus. Joined by improvising partners Gary Peacock and Jack DeJohnette, he glides and soars through classics of the Great American Songbook including “The Masquerade Is Over”, “Autumn Leaves”, “When I Fall In Love” and “I’ll See You Again”. There are also breath-taking accounts of hallowed bebop tunes including Charlie Parker’s “Scrapple From The Apple”, Bud Powell’s “Bouncin’ With Bud” and Sonny Rollins’s “Doxy”.
Track List

CD 1
01. The Masquerade Is Over
02. Scrapple From The Apple
03. Old Folks
04. Autumn Leaves

CD 2
01. Bouncin’ With Bud
02. Doxy
03. I’ll See You Again
04. Late Lament
05. One For Majid
06. Santa Claus Is Coming To Town
07. Moment's Notice
08. When I Fall In Love

Recorded live in concert November 14, 1998 at New Jersey Performing Arts Center (NJPAC), Newark, New Jersey

musicians
Keith Jarrett - piano
Gary Peacock - double bass
Jack DeJohnette - drums

Produced by Keith Jarrett


Exact Audio Copy V1.3 from 2. September 2016

EAC extraction logfile from 31. May 2018, 20:21

Keith Jarrett, Gary Peacock, Jack DeJohnette / After The Fall CD1

Used drive : HL-DT-STDVDRAM GH20NS10 Adapter: 1 ID: 0

Read mode : Secure
Utilize accurate stream : Yes
Defeat audio cache : Yes
Make use of C2 pointers : No

Read offset correction : 667
Overread into Lead-In and Lead-Out : No
Fill up missing offset samples with silence : Yes
Delete leading and trailing silent blocks : No
Null samples used in CRC calculations : Yes
Used interface : Native Win32 interface for Win NT & 2000
Gap handling : Appended to previous track

Used output format : User Defined Encoder
Selected bitrate : 1024 kBit/s
Quality : High
Add ID3 tag : No
Command line compressor : C:\Program Files\Exact Audio Copy\Flac\flac.exe
Additional command line options : -8 -V -T "ARTIST=%artist%" -T "TITLE=%title%" -T "ALBUM=%albumtitle%" -T "DATE=%year%" -T "TRACKNUMBER=%tracknr%" -T "TOTALTRACKS=%numtracks%" -T "GENRE=%genre%" -T "ALBUMARTIST=%albumartist%" -T "ALBUM ARTIST=%albumartist%" -T "COMMENT=EAC Secure Mode, Test & Copy, AccurateRip, FLAC -8" %source%


TOC of the extracted CD

Track | Start | Length | Start sector | End sector
––––––––––––––––––––––––––––-
1 | 0:00.00 | 15:49.46 | 0 | 71220
2 | 15:49.46 | 8:46.56 | 71221 | 110726
3 | 24:36.27 | 9:23.27 | 110727 | 152978
4 | 33:59.54 | 13:16.74 | 152979 | 212752


Track 1

Filename E:\Keith Jarrett, Gary Peacock, Jack DeJohnette - After The Fall (2018) [FLAC]\CD 1\01 - The Masquerade Is Over.wav

Pre-gap length 0:00:02.00

Peak level 97.7 %
Extraction speed 5.4 X
Track quality 100.0 %
Test CRC 8830191E
Copy CRC 8830191E
Track not present in AccurateRip database
Copy OK

Track 2

Filename E:\Keith Jarrett, Gary Peacock, Jack DeJohnette - After The Fall (2018) [FLAC]\CD 1\02 - Scrapple From The Apple.wav

Peak level 97.7 %
Extraction speed 6.4 X
Track quality 100.0 %
Test CRC 47EF0527
Copy CRC 47EF0527
Track not present in AccurateRip database
Copy OK

Track 3

Filename E:\Keith Jarrett, Gary Peacock, Jack DeJohnette - After The Fall (2018) [FLAC]\CD 1\03 - Old Folks.wav

Peak level 63.9 %
Extraction speed 6.7 X
Track quality 100.0 %
Test CRC 4A0DAE0C
Copy CRC 4A0DAE0C
Track not present in AccurateRip database
Copy OK

Track 4

Filename E:\Keith Jarrett, Gary Peacock, Jack DeJohnette - After The Fall (2018) [FLAC]\CD 1\04 - Autumn Leaves.wav

Peak level 97.7 %
Extraction speed 7.9 X
Track quality 100.0 %
Test CRC 6FB812A9
Copy CRC 6FB812A9
Track not present in AccurateRip database
Copy OK


None of the tracks are present in the AccurateRip database

No errors occurred

End of status report

–– CUETools DB Plugin V2.1.6

[CTDB TOCID: IGxTjoIIANfsRwjdNZmXzdEeyak-] disk not present in database
Submit result: IGxTjoIIANfsRwjdNZmXzdEeyak- has been uploaded


==== Log checksum 27BFC82733765B846C8F46190AF83AF89FBEDB6D1E7E17987079DFB7FFC4C881 ====
Exact Audio Copy V1.3 from 2. September 2016

EAC extraction logfile from 31. May 2018, 22:45

Keith Jarrett, Gary Peacock, Jack DeJohnette / After The Fall CD2

Used drive : HL-DT-STDVDRAM GH20NS10 Adapter: 1 ID: 0

Read mode : Secure
Utilize accurate stream : Yes
Defeat audio cache : Yes
Make use of C2 pointers : No

Read offset correction : 667
Overread into Lead-In and Lead-Out : No
Fill up missing offset samples with silence : Yes
Delete leading and trailing silent blocks : No
Null samples used in CRC calculations : Yes
Used interface : Native Win32 interface for Win NT & 2000
Gap handling : Appended to previous track

Used output format : User Defined Encoder
Selected bitrate : 1024 kBit/s
Quality : High
Add ID3 tag : No
Command line compressor : C:\Program Files\Exact Audio Copy\Flac\flac.exe
Additional command line options : -8 -V -T "ARTIST=%artist%" -T "TITLE=%title%" -T "ALBUM=%albumtitle%" -T "DATE=%year%" -T "TRACKNUMBER=%tracknr%" -T "TOTALTRACKS=%numtracks%" -T "GENRE=%genre%" -T "ALBUMARTIST=%albumartist%" -T "ALBUM ARTIST=%albumartist%" -T "COMMENT=EAC Secure Mode, Test & Copy, AccurateRip, FLAC -8" %source%


TOC of the extracted CD

Track | Start | Length | Start sector | End sector
––––––––––––––––––––––––––––-
1 | 0:00.00 | 10:01.49 | 0 | 45123
2 | 10:01.49 | 8:47.41 | 45124 | 84689
3 | 18:49.15 | 7:48.06 | 84690 | 119795
4 | 26:37.21 | 4:58.54 | 119796 | 142199
5 | 31:36.00 | 6:47.45 | 142200 | 172769
6 | 38:23.45 | 7:47.31 | 172770 | 207825
7 | 46:11.01 | 6:41.54 | 207826 | 237954
8 | 52:52.55 | 5:35.48 | 237955 | 263127


Track 1

Filename E:\Keith Jarrett, Gary Peacock, Jack DeJohnette - After The Fall (2018) [FLAC]\CD 2\01 - Bouncin’ With Bud.wav

Pre-gap length 0:00:02.00

Peak level 97.7 %
Extraction speed 5.0 X
Track quality 100.0 %
Test CRC A3E9A727
Copy CRC A3E9A727
Track not present in AccurateRip database
Copy OK

Track 2

Filename E:\Keith Jarrett, Gary Peacock, Jack DeJohnette - After The Fall (2018) [FLAC]\CD 2\02 - Doxy.wav

Peak level 97.7 %
Extraction speed 5.2 X
Track quality 99.9 %
Test CRC 84BF8BEE
Copy CRC 84BF8BEE
Track not present in AccurateRip database
Copy OK

Track 3

Filename E:\Keith Jarrett, Gary Peacock, Jack DeJohnette - After The Fall (2018) [FLAC]\CD 2\03 - I’ll See You Again.wav

Peak level 88.3 %
Extraction speed 5.6 X
Track quality 99.9 %
Test CRC 1819DDAA
Copy CRC 1819DDAA
Track not present in AccurateRip database
Copy OK

Track 4

Filename E:\Keith Jarrett, Gary Peacock, Jack DeJohnette - After The Fall (2018) [FLAC]\CD 2\04 - Late Lament.wav

Peak level 51.8 %
Extraction speed 5.7 X
Track quality 100.0 %
Test CRC AA4AAB18
Copy CRC AA4AAB18
Track not present in AccurateRip database
Copy OK

Track 5

Filename E:\Keith Jarrett, Gary Peacock, Jack DeJohnette - After The Fall (2018) [FLAC]\CD 2\05 - One For Majid.wav

Peak level 79.3 %
Extraction speed 6.7 X
Track quality 100.0 %
Test CRC 4578B60C
Copy CRC 4578B60C
Track not present in AccurateRip database
Copy OK

Track 6

Filename E:\Keith Jarrett, Gary Peacock, Jack DeJohnette - After The Fall (2018) [FLAC]\CD 2\06 - Santa Claus Is Coming To Town.wav

Peak level 97.7 %
Extraction speed 6.6 X
Track quality 99.9 %
Test CRC 9850AA61
Copy CRC 9850AA61
Track not present in AccurateRip database
Copy OK

Track 7

Filename E:\Keith Jarrett, Gary Peacock, Jack DeJohnette - After The Fall (2018) [FLAC]\CD 2\07 - Moment's Notice.wav

Peak level 97.7 %
Extraction speed 7.0 X
Track quality 99.9 %
Test CRC 61DA5A3A
Copy CRC 61DA5A3A
Track not present in AccurateRip database
Copy OK

Track 8

Filename E:\Keith Jarrett, Gary Peacock, Jack DeJohnette - After The Fall (2018) [FLAC]\CD 2\08 - When I Fall In Love.wav

Peak level 45.0 %
Extraction speed 7.1 X
Track quality 99.9 %
Test CRC 0A90AFAB
Copy CRC 0A90AFAB
Track not present in AccurateRip database
Copy OK


None of the tracks are present in the AccurateRip database

No errors occurred

End of status report

–– CUETools DB Plugin V2.1.6

[CTDB TOCID: 15nvdj0x9Sqkih33l1ku6jpaFho-] disk not present in database
Submit result: 15nvdj0x9Sqkih33l1ku6jpaFho- has been uploaded


==== Log checksum 6DE3020F712AE39C7819CCE8D81C22ACA457D7AE5416AF95C650552863282677 ====


foobar2000 1.3.13 / Dynamic Range Meter 1.1.1
log date: 2018-05-31 23:00:48

––––––––––––––––––––––––––––––––––––––––
Analyzed: Keith Jarrett, Gary Peacock, Jack DeJohnette / After The Fall CD1
––––––––––––––––––––––––––––––––––––––––

DR Peak RMS Duration Track
––––––––––––––––––––––––––––––––––––––––
DR17 -0.20 dB -20.98 dB 15:50 01-The Masquerade Is Over
DR16 -0.20 dB -19.52 dB 8:47 02-Scrapple From The Apple
DR14 -3.88 dB -22.95 dB 9:23 03-Old Folks
DR16 -0.20 dB -19.79 dB 13:17 04-Autumn Leaves
––––––––––––––––––––––––––––––––––––––––

Number of tracks: 4
Official DR value: DR16

Samplerate: 44100 Hz
Channels: 2
Bits per sample: 16
Bitrate: 687 kbps
Codec: FLAC
================================================================================
foobar2000 1.3.13 / Dynamic Range Meter 1.1.1
log date: 2018-05-31 23:02:09

––––––––––––––––––––––––––––––––––––––––
Analyzed: Keith Jarrett, Gary Peacock, Jack DeJohnette / After The Fall CD2
––––––––––––––––––––––––––––––––––––––––

DR Peak RMS Duration Track
––––––––––––––––––––––––––––––––––––––––
DR15 -0.20 dB -19.35 dB 10:02 01-Bouncin’ With Bud
DR16 -0.20 dB -20.44 dB 8:48 02-Doxy
DR15 -1.07 dB -21.39 dB 7:48 03-I’ll See You Again
DR13 -5.70 dB -23.35 dB 4:59 04-Late Lament
DR15 -2.00 dB -20.44 dB 6:48 05-One For Majid
DR16 -0.20 dB -18.55 dB 7:47 06-Santa Claus Is Coming To Town
DR15 -0.20 dB -17.73 dB 6:42 07-Moment's Notice
DR14 -6.93 dB -25.72 dB 5:36 08-When I Fall In Love
––––––––––––––––––––––––––––––––––––––––

Number of tracks: 8
Official DR value: DR15

Samplerate: 44100 Hz
Channels: 2
Bits per sample: 16
Bitrate: 500 kbps
Codec: FLAC
================================================================================

Keith Jarrett / Gary Peacock / Jack DeJohnette - After The Fall (2018) {ECM 2590/91}
Keith Jarrett / Gary Peacock / Jack DeJohnette - After The Fall (2018) {ECM 2590/91}
Keith Jarrett / Gary Peacock / Jack DeJohnette - After The Fall (2018) {ECM 2590/91}