Subcategories

Keith Jarrett - Hymns Spheres (1976) {ECM 1086/87} [Complete Recording 2CDs]

Posted By: tiburon
Keith Jarrett - Hymns Spheres (1976) {ECM 1086/87} [Complete Recording 2CDs]

Keith Jarrett - Hymns Spheres (1976) {ECM 1086/87} [Complete Recording 2CDs]
EAC 1.0b3 | FLAC tracks level 8 | Cue+Log+M3U | Full Scans 300dpi | 456MB + 5% Recovery
Genre: Classical, Baroque

The complete Hymns, Spheres, at last available on compact disc. Keith Jarrett’s first encounter with the Karl Joseph Riepp baroque organ of the Abbey of Ottobeuren – one of the great improvisers of the age communing with one of Europe’s most famous instruments – brought forth some truly unique music. The 1976 double LP release has long been a favourite amongst organ music aficionados as well as Jarrett’s loyal following, admired for Jarrett’s spontaneous improvisational resourcefulness, the variety of textures drawn from the instrument, and for the sheer physical power of the sound in the church, beautifully captured in the ECM recording.
Track List

CD 1
1. Hymn of Remembrance 4:10
2. Spheres (1st Movement) 7:42
3. Spheres (2nd Movement) 13:04
4. Spheres (3rd Movement) 10:15
5. Spheres (4th Movement) 12:25

CD 2
1. Spheres (5th Movement) 4:40
2. Spheres (6th Movement) 11:25
3. Spheres (7th Movement) 8:19
4. Spheres (8th Movement) 5:20
5. Spheres (9th Movement) 12:05
6. Hymn of Release 4:10

Music by Keith Jarrett

Keith Jarrett - organ

Produced by Manfred Eicher


Exact Audio Copy V1.0 beta 3 from 29. August 2011

EAC extraction logfile from 30. January 2013, 22:10

Keith Jarrett / Hymns Spheres CD1 [ECM 1086]

Used drive : PLEXTOR DVDR PX-L890SA Adapter: 2 ID: 1

Read mode : Secure
Utilize accurate stream : Yes
Defeat audio cache : Yes
Make use of C2 pointers : No

Read offset correction : 6
Overread into Lead-In and Lead-Out : No
Fill up missing offset samples with silence : Yes
Delete leading and trailing silent blocks : No
Null samples used in CRC calculations : Yes
Used interface : Native Win32 interface for Win NT & 2000
Gap handling : Appended to previous track

Used output format : User Defined Encoder
Selected bitrate : 256 kBit/s
Quality : High
Add ID3 tag : No
Command line compressor : C:\Program Files (x86)\Exact Audio Copy\FLAC\FLAC.EXE
Additional command line options : -8 -V -T "ARTIST=%artist%" -T "TITLE=%title%" -T "ALBUM=%albumtitle%" -T "DATE=%year%" -T "TRACKNUMBER=%tracknr%" -T "TOTALTRACKS=%numtracks%" -T "GENRE=%genre%" -T "ALBUMARTIST=%albumartist%" -T "ALBUM ARTIST=%albumartist%" -T "COMMENT=EAC Secure Mode, Test & Copy, AccurateRip, FLAC -8" %source%


TOC of the extracted CD

Track | Start | Length | Start sector | End sector
––––––––––––––––––––––––––––-
1 | 0:00.00 | 4:10.32 | 0 | 18781
2 | 4:10.32 | 7:42.08 | 18782 | 53439
3 | 11:52.40 | 13:04.63 | 53440 | 112302
4 | 24:57.28 | 10:15.71 | 112303 | 158498
5 | 35:13.24 | 12:24.58 | 158499 | 214356


Track 1

Filename F:\Flac Rips\01 - Hymn Of Remembrance.wav

Pre-gap length 0:00:02.00

Peak level 61.2 %
Extraction speed 3.5 X
Track quality 100.0 %
Test CRC F5706953
Copy CRC F5706953
Track not present in AccurateRip database
Copy OK

Track 2

Filename F:\Flac Rips\02 - Spheres (1st Movement).wav

Peak level 53.9 %
Extraction speed 3.8 X
Track quality 99.9 %
Test CRC E34F6B71
Copy CRC E34F6B71
Track not present in AccurateRip database
Copy OK

Track 3

Filename F:\Flac Rips\03 - Spheres (2nd Movement).wav

Peak level 61.8 %
Extraction speed 5.0 X
Track quality 99.9 %
Test CRC 649E772B
Copy CRC 649E772B
Track not present in AccurateRip database
Copy OK

Track 4

Filename F:\Flac Rips\04 - Spheres (3rd Movement).wav

Peak level 60.3 %
Extraction speed 6.1 X
Track quality 100.0 %
Test CRC 962A5983
Copy CRC 962A5983
Track not present in AccurateRip database
Copy OK

Track 5

Filename F:\Flac Rips\05 - Spheres (4th Movement).wav

Peak level 43.8 %
Extraction speed 6.8 X
Track quality 100.0 %
Test CRC E7387837
Copy CRC E7387837
Track not present in AccurateRip database
Copy OK


None of the tracks are present in the AccurateRip database

No errors occurred

End of status report

==== Log checksum B667A7BDA161FA415E30DE4F0D07EBF8124735B9165F9ED5FC81933B3C61AD5F ====
_______________________________________________________________________________________
Exact Audio Copy V1.0 beta 3 from 29. August 2011

EAC extraction logfile from 31. January 2013, 10:09

Keith Jarrett / Hymns Spheres CD2 [ECM 1087]

Used drive : PLEXTOR DVDR PX-L890SA Adapter: 2 ID: 1

Read mode : Secure
Utilize accurate stream : Yes
Defeat audio cache : Yes
Make use of C2 pointers : No

Read offset correction : 6
Overread into Lead-In and Lead-Out : No
Fill up missing offset samples with silence : Yes
Delete leading and trailing silent blocks : No
Null samples used in CRC calculations : Yes
Used interface : Native Win32 interface for Win NT & 2000
Gap handling : Appended to previous track

Used output format : User Defined Encoder
Selected bitrate : 256 kBit/s
Quality : High
Add ID3 tag : No
Command line compressor : C:\Program Files (x86)\Exact Audio Copy\FLAC\FLAC.EXE
Additional command line options : -8 -V -T "ARTIST=%artist%" -T "TITLE=%title%" -T "ALBUM=%albumtitle%" -T "DATE=%year%" -T "TRACKNUMBER=%tracknr%" -T "TOTALTRACKS=%numtracks%" -T "GENRE=%genre%" -T "ALBUMARTIST=%albumartist%" -T "ALBUM ARTIST=%albumartist%" -T "COMMENT=EAC Secure Mode, Test & Copy, AccurateRip, FLAC -8" %source%


TOC of the extracted CD

Track | Start | Length | Start sector | End sector
––––––––––––––––––––––––––––-
1 | 0:00.00 | 4:39.55 | 0 | 20979
2 | 4:39.55 | 11:25.43 | 20980 | 72397
3 | 16:05.23 | 8:19.70 | 72398 | 109892
4 | 24:25.18 | 5:20.28 | 109893 | 133920
5 | 29:45.46 | 12:05.18 | 133921 | 188313
6 | 41:50.64 | 4:10.35 | 188314 | 207098


Track 1

Filename F:\Flac Rips\01 - Spheres (5th Movement).wav

Pre-gap length 0:00:02.00

Peak level 55.4 %
Extraction speed 3.6 X
Track quality 100.0 %
Test CRC 068EB1A0
Copy CRC 068EB1A0
Track not present in AccurateRip database
Copy OK

Track 2

Filename F:\Flac Rips\02 - Spheres (6th Movement).wav

Peak level 52.7 %
Extraction speed 4.3 X
Track quality 99.9 %
Test CRC 5B261FE4
Copy CRC 5B261FE4
Track not present in AccurateRip database
Copy OK

Track 3

Filename F:\Flac Rips\03 - Spheres (7th Movement).wav

Peak level 52.7 %
Extraction speed 5.4 X
Track quality 100.0 %
Test CRC 2BBE0B44
Copy CRC 2BBE0B44
Track not present in AccurateRip database
Copy OK

Track 4

Filename F:\Flac Rips\04 - Spheres (8th Movement).wav

Peak level 39.0 %
Extraction speed 4.7 X
Track quality 99.9 %
Test CRC 282AF498
Copy CRC 282AF498
Track not present in AccurateRip database
Copy OK

Track 5

Filename F:\Flac Rips\05 - Spheres (9th Movement).wav

Peak level 60.5 %
Extraction speed 6.5 X
Track quality 100.0 %
Test CRC 532D7D35
Copy CRC 532D7D35
Track not present in AccurateRip database
Copy OK

Track 6

Filename F:\Flac Rips\06 - Hymn of Release.wav

Peak level 63.3 %
Extraction speed 6.4 X
Track quality 100.0 %
Test CRC 4DE58A48
Copy CRC 4DE58A48
Track not present in AccurateRip database
Copy OK


None of the tracks are present in the AccurateRip database

No errors occurred

End of status report

==== Log checksum 47FF9D9BAA0AC93A96C441D6183E860537BFA8321DAC230B4E3F10F9895589BB ====


––––––––––––––––––––––––––––––––––––––––
Analyzed: Keith Jarrett / Hymns Spheres CD1 [ECM 1086]
––––––––––––––––––––––––––––––––––––––––

DR Peak RMS Duration Track
––––––––––––––––––––––––––––––––––––––––
DR10 -4.25 dB -18.79 dB 4:10 01-Hymn Of Remembrance
DR10 -5.36 dB -19.53 dB 7:42 02-Spheres (1st Movement)
DR10 -4.18 dB -17.87 dB 13:05 03-Spheres (2nd Movement)
DR9 -4.38 dB -16.89 dB 10:16 04-Spheres (3rd Movement)
DR10 -7.17 dB -20.95 dB 12:25 05-Spheres (4th Movement)
––––––––––––––––––––––––––––––––––––––––

Number of tracks: 5
Official DR value: DR10

Samplerate: 44100 Hz
Channels: 2
Bits per sample: 16
Bitrate: 689 kbps
Codec: FLAC
================================================================================
––––––––––––––––––––––––––––––––––––––––
Analyzed: Keith Jarrett / Hymns Spheres CD2 [ECM 1087]
––––––––––––––––––––––––––––––––––––––––

DR Peak RMS Duration Track
––––––––––––––––––––––––––––––––––––––––
DR10 -5.12 dB -18.51 dB 4:40 01-Spheres (5th Movement)
DR11 -5.56 dB -21.24 dB 11:26 02-Spheres (6th Movement)
DR10 -5.55 dB -20.33 dB 8:20 03-Spheres (7th Movement)
DR11 -8.16 dB -22.24 dB 5:20 04-Spheres (8th Movement)
DR11 -4.36 dB -20.03 dB 12:05 05-Spheres (9th Movement)
DR10 -3.97 dB -18.41 dB 4:10 06-Hymn of Release
––––––––––––––––––––––––––––––––––––––––

Number of tracks: 6
Official DR value: DR10

Samplerate: 44100 Hz
Channels: 2
Bits per sample: 16
Bitrate: 678 kbps
Codec: FLAC
================================================================================

Keith Jarrett - Hymns Spheres (1976) {ECM 1086/87} [Complete Recording 2CDs]
Keith Jarrett - Hymns Spheres (1976) {ECM 1086/87} [Complete Recording 2CDs]
Keith Jarrett - Hymns Spheres (1976) {ECM 1086/87} [Complete Recording 2CDs]
Keith Jarrett - Hymns Spheres (1976) {ECM 1086/87} [Complete Recording 2CDs]


Rip by jlgt