Subcategories
Tags
Language
Tags

Keller & Schönwälder - Concerts (1998) [2CD Reissue 2006]

Posted By: gribovar
Keller & Schönwälder - Concerts (1998) [2CD Reissue 2006]

Keller & Schönwälder - Concerts (1998) [2CD Reissue 2006]
EAC Rip | FLAC (image+.cue+log) - 1,06 GB | MP3 CBR 320 kbps (LAME 3.93) - 367 MB | Covers - 33 MB
Genre: Electronic, Berlin School | RAR 3% Rec. | Label: SynGate Records (Syngate CD-R 2082)

Keller & Schönwälder is the fusion of melodious movements with hypnotic spirals. In solo, they are very good and together they are even better. Released in 1998, two after the debut of the duo, Concerts shows that the chemistry between the two friends was already at its peak. Originally released on Manikin Music, Concerts is reissued on SynGate Music. As a bonus, we are entitled to nearly 30 minutes of EM recorded in concert in 2006.
It is some big EM with long, sometimes a little too much, evolutionary courses where the art of improvised music and the mastery of instruments converge in very good musical moments. The duo has the art of assembling unpredictable musical structures, which mesmerize and captivate with a superb game of percussion and solos as heartbreaking as delirious. And if you are a 70's Klaus Schulze lover, Concerts, as well as the majority of Keller & Schönwälder's early works, become a must.
CD 1 Tracklist:
01. Knust Part Two
02. Knust Part Three
03. Satzvey Castle Part One

Total time: 01:16:10

CD 2 Tracklist:
01. Stammheim Part Two
02. Satzvey Castle Part Two

Total time: 01:19:49

Exact Audio Copy V0.99 prebeta 4 from 23. January 2008

EAC extraction logfile from 7. January 2009, 20:33

Keller & Schцnwдlder / Concerts CD1

Used drive : PIONEER DVD-RW DVR-109 Adapter: 0 ID: 0

Read mode : Secure
Utilize accurate stream : Yes
Defeat audio cache : Yes
Make use of C2 pointers : No

Read offset correction : 48
Overread into Lead-In and Lead-Out : No
Fill up missing offset samples with silence : Yes
Delete leading and trailing silent blocks : No
Null samples used in CRC calculations : Yes
Used interface : Installed external ASPI interface

Used output format : Internal WAV Routines
Sample format : 44.100 Hz; 16 Bit; Stereo


TOC of the extracted CD

Track | Start | Length | Start sector | End sector
––––––––––––––––––––––––––––-
1 | 0:00.00 | 28:57.71 | 0 | 130345
2 | 28:57.71 | 26:53.61 | 130346 | 251381
3 | 55:51.57 | 20:17.60 | 251382 | 342716


Range status and errors

Selected range

Filename K:\K\Keller & Schцnwдlder\Concerts\LossLess\Keller & Schцnwдlder - Concerts CD1.wav

Peak level 100.0 %
Range quality 100.0 %
Copy CRC 05BE97A4
Copy OK

No errors occurred


AccurateRip summary

Track 1 not present in database
Track 2 not present in database
Track 3 not present in database

None of the tracks are present in the AccurateRip database

End of status report

[CUETools log; Date: 10.06.2021 22:32:12; Version: 2.1.4]
[CTDB TOCID: IrVxoQxLTBsoCWRkUx329F_LlEU-] found.
Track | CTDB Status
1 | (5/6) Accurately ripped
2 | (6/6) Accurately ripped
3 | (6/6) Accurately ripped
[AccurateRip ID: 000b0ddd-0024672b-2411d903] found.
Track [ CRC | V2 ] Status
01 [9f02f791|e464b2f6] (0+2/2) Accurately ripped
02 [7202d8f4|a7f44c6e] (0+2/2) Accurately ripped
03 [d0f2e32f|97086826] (0+2/2) Accurately ripped

Track Peak [ CRC32 ] [W/O NULL] [ LOG ]
– 100,0 [05BE97A4] [CC26810E] CRC32
01 100,0 [2F76CF20] [575C3690]
02 96,6 [E0015FC5] [EA78322C]
03 96,6 [DA10E617] [40DEC6B3]

Exact Audio Copy V0.99 prebeta 4 from 23. January 2008

EAC extraction logfile from 7. January 2009, 21:21

Keller & Schцnwдlder / Concerts CD2

Used drive : PIONEER DVD-RW DVR-109 Adapter: 0 ID: 0

Read mode : Secure
Utilize accurate stream : Yes
Defeat audio cache : Yes
Make use of C2 pointers : No

Read offset correction : 48
Overread into Lead-In and Lead-Out : No
Fill up missing offset samples with silence : Yes
Delete leading and trailing silent blocks : No
Null samples used in CRC calculations : Yes
Used interface : Installed external ASPI interface

Used output format : Internal WAV Routines
Sample format : 44.100 Hz; 16 Bit; Stereo


TOC of the extracted CD

Track | Start | Length | Start sector | End sector
––––––––––––––––––––––––––––-
1 | 0:00.00 | 73:11.14 | 0 | 329338
2 | 73:11.14 | 6:38.22 | 329339 | 359210


Range status and errors

Selected range

Filename K:\K\Keller & Schцnwдlder\Concerts\LossLess\Keller & Schцnwдlder - Concerts CD2.wav

Peak level 97.1 %
Range quality 100.0 %
Copy CRC EDFA437C
Copy OK

No errors occurred


AccurateRip summary

Track 1 not present in database
Track 2 not present in database

None of the tracks are present in the AccurateRip database

End of status report

[CUETools log; Date: 10.06.2021 22:32:45; Version: 2.1.4]
[CTDB TOCID: e6MxF2s2Tpz5iuRu3CHiFsky4AI-] found.
Track | CTDB Status
1 | (5/6) Accurately ripped
2 | (6/6) Accurately ripped
[AccurateRip ID: 000a81a6-001a7e78-1512b502] found.
Track [ CRC | V2 ] Status
01 [44299a2a|e159b9a0] (0+2/2) Accurately ripped
02 [6f2bc985|57e08f17] (0+2/2) Accurately ripped

Track Peak [ CRC32 ] [W/O NULL] [ LOG ]
– 97,0 [EDFA437C] [C463EEFB] CRC32
01 97,0 [ABAC9C0F] [8BA665AF]
02 96,6 [00122C96] [4EEAC35D]

Thanks to rodster 10

See also:
Broekhuis, Keller & Schönw... Cowboys @ Jelenia Góra (2007)
Rainbow Serpent / Fanger & Schönwälder - Elektrik Cowboys (2009)
Fanger & Schönwälder feat. Cosmic Hoffmann - Earshot (2013)
Broekhuis, Keller & Schönwälder - Direction Green (2014)
Broekhuis, Keller & Schönwälder - Purple (2019)