Subcategories

Kenny Burrell - God Bless The Child (1971) {1987, Reissue, Remastered}

Posted By: popsakov
Kenny Burrell - God Bless The Child (1971) {1987, Reissue, Remastered}

Kenny Burrell - God Bless The Child (1971) {1987, Reissue, Remastered}
EAC Rip | WV (Img) + Cue + Log ~ 199 Mb | MP3 CBR320 ~ 103 Mb
Scans (PNG, 300 dpi) ~ 65 Mb | RAR 5% Recovery
Jazz, Hard Bop, Fusion | Epic #EPC 450893 2

Kenny Burrell's guitaristry is well-documented in his years with Oscar Peterson and on his first dates as a leader on the Blue Note label, but God Bless the Child, his only date for CTI in 1971, is an under-heard masterpiece in his catalog. Burrell's band for the set includes bassist Ron Carter, percussionist Ray Barretto, Richard Wyands on piano, flutist Hubert Laws, trumpeter Freddie Hubbard, and drummer Billy Cobham. CTI's house arranger, Don Sebesky, assembled and conducted the strings in a manner that stands strangely and beautifully apart from his other work on the label. Sebesky understood Burrell's understated approach to playing guitar. Burrell didn't belong with the fusioneers, but he could groove better than any of them. Sebesky built a moody, atmospheric soundscape behind him, one that was as impressionistic as it was illuminating of a player who could dig in and chop it up – as he does on his own composition "Love Is the Answer" and "Do What You Gotta Do" – and stroke it smooth and mellow as on the title track, the truly sublime "Be Yourself," and Thad Jones' "A Child Is Born." This is Burrell at his level best as a player to be sure, but also as a composer and as a bandleader. Magnificent.
~ Thom Jurek, All Music
Kenny Burrell - God Bless The Child (1971) {1987, Reissue, Remastered}


***************

Kenny Burrell - God Bless The Child (1971) {1987, Reissue, Remastered}

Kenny Burrell - God Bless The Child (1971) {1987, Reissue, Remastered}

Track List:

01. Be Yourself [5:56]
02. Love Is The Answer [5:00]
03. Do What You Gotta Do [9:30]
04. Ballad Of The Sad Young Men [2:17]
05. A Child Is Born [9:23]
06. God Bless The Child [8:03]
07. Lost In The Stars [2:27]

Personnel:
Kenny Burrell - electric guitar
Freddie Hubbard - trumpet
Hubert Laws - flute
Richard Wyands - piano, electric piano
Hugh Lawson - electric piano
Ron Carter - bass
Billy Cobham - drums
Ray Barretto, Airto Moreira - percussion
Seymour Barab, Charles McCracken, George Ricci, Lucien Schmit, Alan Shulman - cello
Don Sebesky - arranger, conductor

Exact Audio Copy V1.0 beta 3 from 29. August 2011

EAC extraction logfile from 8. January 2013, 9:24

Kenny Burrell / God Bless the Child

Used drive : HL-DT-STBDDVDRW GBC-H20N Adapter: 1 ID: 0

Read mode : Secure
Utilize accurate stream : Yes
Defeat audio cache : Yes
Make use of C2 pointers : No

Read offset correction : 667
Overread into Lead-In and Lead-Out : No
Fill up missing offset samples with silence : Yes
Delete leading and trailing silent blocks : No
Null samples used in CRC calculations : Yes
Used interface : Native Win32 interface for Win NT & 2000

Used output format : User Defined Encoder
Selected bitrate : 1024 kBit/s
Quality : High
Add ID3 tag : No
Command line compressor : C:\Program Files\Exact Audio Copy\wavpack.exe
Additional command line options : -hm %source% %dest%


TOC of the extracted CD

Track | Start | Length | Start sector | End sector
––––––––––––––––––––––––––––-
1 | 0:00.00 | 5:56.37 | 0 | 26736
2 | 5:56.37 | 5:00.00 | 26737 | 49236
3 | 10:56.37 | 9:30.00 | 49237 | 91986
4 | 20:26.37 | 2:17.28 | 91987 | 102289
5 | 22:43.65 | 9:23.22 | 102290 | 144536
6 | 32:07.12 | 8:03.13 | 144537 | 180774
7 | 40:10.25 | 2:27.12 | 180775 | 191811


Range status and errors

Selected range

Filename C:\Users\ProgDog\Music\ZALIVKI\Kenny Burrell\God Bless The Child\Kenny Burrell - God Bless the Child.wav

Peak level 97.7 %
Extraction speed 5.7 X
Range quality 100.0 %
Test CRC 7F36C922
Copy CRC 7F36C922
Copy OK

No errors occurred


AccurateRip summary

Track 1 accurately ripped (confidence 2) [FE5BFDA9] (AR v1)
Track 2 accurately ripped (confidence 2) [BEF1C9AB] (AR v1)
Track 3 accurately ripped (confidence 2) [D360F6F1] (AR v1)
Track 4 accurately ripped (confidence 2) [78BF996F] (AR v1)
Track 5 accurately ripped (confidence 2) [96C947EC] (AR v1)
Track 6 accurately ripped (confidence 2) [56302472] (AR v1)
Track 7 accurately ripped (confidence 2) [B5A2FF75] (AR v1)

All tracks accurately ripped

End of status report

–– CUETools DB Plugin V2.1.3

[CTDB TOCID: 0Ig2WjnGXJqJJO3PSba.VQDYKAU-] disk not present in database, Submit result: 0Ig2WjnGXJqJJO3PSba.VQDYKAU- has been uploaded


==== Log checksum A6A60740D73AF6960EA27AD7CA4F17FB7896AB086240A05FB9057C69F9102464 ====

foobar2000 1.2.6 / Dynamic Range Meter 1.1.1
log date: 2017-04-30 00:45:35

––––––––––––––––––––––––––––––––––––––––
Analyzed: Kenny Burrell / God Bless the Child
––––––––––––––––––––––––––––––––––––––––

DR Peak RMS Duration Track
––––––––––––––––––––––––––––––––––––––––
DR13 -0.20 dB -17.53 dB 5:56 01-Be Yourself
DR12 -2.51 dB -17.80 dB 5:00 02-Love Is The Answer
DR13 -0.40 dB -17.09 dB 9:30 03-Do What You Gotta Do
DR12 -8.39 dB -25.18 dB 2:17 04-Ballad Of The Sad Young Men
DR12 -1.27 dB -20.43 dB 9:23 05-A Child Is Born
DR13 -3.33 dB -20.33 dB 8:03 06-God Bless The Child
DR12 -6.03 dB -23.70 dB 2:27 07-Lost In The Stars
––––––––––––––––––––––––––––––––––––––––

Number of tracks: 7
Official DR value: DR12

Samplerate: 44100 Hz
Channels: 2
Bits per sample: 16
Bitrate: 621 kbps
Codec: WavPack
================================================================================

[CUETools log; Date: 30.04.2017 0:45:35; Version: 2.1.5]
[CTDB TOCID: 0Ig2WjnGXJqJJO3PSba.VQDYKAU-] found.
Track | CTDB Status
1 | (5/5) Accurately ripped
2 | (5/5) Accurately ripped
3 | (5/5) Accurately ripped
4 | (5/5) Accurately ripped
5 | (5/5) Accurately ripped
6 | (5/5) Accurately ripped
7 | (5/5) Accurately ripped
[AccurateRip ID: 000c03af-004871cf-5f09fd07] found.
Track [ CRC | V2 ] Status
01 [fe5bfda9|70543e61] (2+0/2) Accurately ripped
02 [bef1c9ab|42feff0d] (2+0/2) Accurately ripped
03 [d360f6f1|d005da66] (2+0/2) Accurately ripped
04 [78bf996f|b7ff0bb3] (2+0/2) Accurately ripped
05 [96c947ec|335cb640] (2+0/2) Accurately ripped
06 [56302472|04f55276] (2+0/2) Accurately ripped
07 [b5a2ff75|1689061b] (2+0/2) Accurately ripped

Track Peak [ CRC32 ] [W/O NULL] [ LOG ]
– 97,7 [7F36C922] [D063B220] CRC32
01 97,7 [7146B422] [9E5A18E6]
02 74,9 [7F423F2F] [D47FC491]
03 95,4 [649A145F] [FF651457]
04 38,0 [B2D5D7EF] [4F3B8A5D]
05 86,4 [8942C1C3] [4A10E70F]
06 68,1 [DE46AECC] [EFEF18CD]
07 49,9 [224726D7] [8557FA8A]

Kenny Burrell - God Bless The Child (1971) {1987, Reissue, Remastered}

See also:
Kenny Burrell - Introducing Kenny Burrell: The First Blue Note Sessions (1956) {2000, Blue Note}

All thanks go to arizonadream

>>> My Blog <<<