Subcategories

Kenny Burrell - Introducing Kenny Burrell: The First Blue Note Sessions (1956) {2000, Blue Note}

Posted By: popsakov
Kenny Burrell - Introducing Kenny Burrell: The First Blue Note Sessions (1956) {2000, Blue Note}

Kenny Burrell - Introducing Kenny Burrell: The First Blue Note Sessions (1956) {2000, Blue Note}
2CD | EAC Rip | WV (Img) + Cue + Log ~ 605 Mb | MP3 CBR320 ~ 287 Mb
Scans (JPG/PNG, 300 dpi) ~ 53 Mb | RAR 5% Recovery
Jazz, Hard Bop | Blue Note Records #7243 5 24561 2

Introducing Kenny Burrell is the debut album by American jazz guitarist Kenny Burrell, recorded in 1956 and released on the Blue Note label. In 2000, it was released on the 2 CD-set Introducing Kenny Burrell: The First Blue Note Sessions along with Kenny Burrell Volume 2, plus bonus tracks.
~ Wiki

Despite its title, this LP was actually guitarist Kenny Burrell's second Blue Note album, although the first to be released. Teamed with pianist Tommy Flanagan, bassist Paul Chambers, drummer Kenny Clarke and the conga of Candido, Burrell displays what was already an immediately recognizable tone. At 24, Burrell had quickly emerged to become one of the top bop guitarists of the era, and he is in particularly excellent form on "This Time the Dreams on Me," "Weaver of Dreams" and "Delilah." A bonus of this set is a percussion duo by Clarke and Candido on "Rhythmorama." Enjoyable music.
~ Scott Yanow, All Music
Kenny Burrell - Introducing Kenny Burrell: The First Blue Note Sessions (1956) {2000, Blue Note}


***************

Kenny Burrell - Introducing Kenny Burrell: The First Blue Note Sessions (1956) {2000, Blue Note}

Kenny Burrell - Introducing Kenny Burrell: The First Blue Note Sessions (1956) {2000, Blue Note}

Track List CD1:

01. This Time The Dream's On Me [5:00]
02. Fugue 'N Blues [6:49]
03. Takeela [4:20]
04. Weaver Of Dreams [4:43]
05. Delilah [6:05]
06. Rhythmorama [6:29]
07. Blues For Skeeter [8:08]
08. Get Happy [4:03]
09. But Not For Me [3:47]

Exact Audio Copy V1.0 beta 3 from 29. August 2011

EAC extraction logfile from 8. January 2013, 10:16

Kenny Burrell / Introducing Kenny Burrell

Used drive : HL-DT-STBDDVDRW GBC-H20N Adapter: 1 ID: 0

Read mode : Secure
Utilize accurate stream : Yes
Defeat audio cache : Yes
Make use of C2 pointers : No

Read offset correction : 667
Overread into Lead-In and Lead-Out : No
Fill up missing offset samples with silence : Yes
Delete leading and trailing silent blocks : No
Null samples used in CRC calculations : Yes
Used interface : Native Win32 interface for Win NT & 2000

Used output format : User Defined Encoder
Selected bitrate : 1024 kBit/s
Quality : High
Add ID3 tag : No
Command line compressor : C:\Program Files\Exact Audio Copy\wavpack.exe
Additional command line options : -hm %source% %dest%


TOC of the extracted CD

Track | Start | Length | Start sector | End sector
––––––––––––––––––––––––––––-
1 | 0:00.00 | 4:59.47 | 0 | 22471
2 | 4:59.47 | 6:48.48 | 22472 | 53119
3 | 11:48.20 | 4:19.50 | 53120 | 72594
4 | 16:07.70 | 4:43.22 | 72595 | 93841
5 | 20:51.17 | 6:04.70 | 93842 | 121211
6 | 26:56.12 | 6:29.00 | 121212 | 150386
7 | 33:25.12 | 8:08.00 | 150387 | 186986
8 | 41:33.12 | 4:02.63 | 186987 | 205199
9 | 45:36.00 | 3:47.10 | 205200 | 222234


Range status and errors

Selected range

Filename C:\Users\ProgDog\Music\ZALIVKI\Kenny Burrell\Introducing Kenny Burrell\Disc One\Kenny Burrell - Introducing Kenny Burrell.wav

Peak level 98.8 %
Extraction speed 5.8 X
Range quality 99.9 %
Test CRC D6A51CC2
Copy CRC D6A51CC2
Copy OK

No errors occurred


AccurateRip summary

Track 1 accurately ripped (confidence 2) [DF9E014B] (AR v2)
Track 2 accurately ripped (confidence 2) [3565F0A2] (AR v2)
Track 3 accurately ripped (confidence 2) [0F4ED17B] (AR v2)
Track 4 accurately ripped (confidence 2) [A1FB4896] (AR v2)
Track 5 accurately ripped (confidence 2) [018F554A] (AR v2)
Track 6 accurately ripped (confidence 2) [BA896976] (AR v2)
Track 7 accurately ripped (confidence 2) [14818013] (AR v2)
Track 8 accurately ripped (confidence 2) [6EEDEA81] (AR v2)
Track 9 accurately ripped (confidence 2) [1B895924] (AR v2)

All tracks accurately ripped

End of status report

–– CUETools DB Plugin V2.1.3

[CTDB TOCID: xit6fbV5jnb8uZ5ipbF3b6XGmKM-] found, Submit result: xit6fbV5jnb8uZ5ipbF3b6XGmKM- has been confirmed
[22d72d6e] (3/3) Accurately ripped


==== Log checksum F36FE17F6A39E34D02D846B530B7142DA9B40788295AA954332B6C5ACEFC1EA4 ====

foobar2000 1.2.6 / Dynamic Range Meter 1.1.1
log date: 2017-04-28 21:38:17

––––––––––––––––––––––––––––––––––––––––
Analyzed: Kenny Burrell / Introducing Kenny Burrell CD1
––––––––––––––––––––––––––––––––––––––––

DR Peak RMS Duration Track
––––––––––––––––––––––––––––––––––––––––
DR9 -3.22 dB -14.91 dB 5:00 01-This Time The Dream's On Me
DR13 -3.22 dB -18.71 dB 6:49 02-Fugue 'N Blues
DR10 -2.17 dB -14.81 dB 4:20 03-Takeela
DR13 -3.60 dB -20.12 dB 4:43 04-Weaver Of Dreams
DR10 -2.25 dB -14.57 dB 6:05 05-Delilah
DR12 -0.70 dB -15.37 dB 6:29 06-Rhythmorama
DR11 -1.00 dB -14.73 dB 8:08 07-Blues For Skeeter
DR12 -0.10 dB -13.77 dB 4:03 08-Get Happy
DR10 -2.79 dB -15.45 dB 3:47 09-But Not For Me
––––––––––––––––––––––––––––––––––––––––

Number of tracks: 9
Official DR value: DR11

Samplerate: 44100 Hz
Channels: 2
Bits per sample: 16
Bitrate: 569 kbps
Codec: WavPack
================================================================================

[CUETools log; Date: 28.04.2017 21:38:23; Version: 2.1.5]
[CTDB TOCID: xit6fbV5jnb8uZ5ipbF3b6XGmKM-] found.
Track | CTDB Status
1 | (18/18) Accurately ripped
2 | (18/18) Accurately ripped
3 | (18/18) Accurately ripped
4 | (18/18) Accurately ripped
5 | (18/18) Accurately ripped
6 | (18/18) Accurately ripped
7 | (18/18) Accurately ripped
8 | (18/18) Accurately ripped
9 | (18/18) Accurately ripped
[AccurateRip ID: 00113672-007ec8ba-720b9309] found.
Track [ CRC | V2 ] Status
01 [2de7ced7|df9e014b] (10+12/22) Accurately ripped
02 [beef69d1|3565f0a2] (10+12/22) Accurately ripped
03 [772dd80f|0f4ed17b] (10+12/22) Accurately ripped
04 [f88578dd|a1fb4896] (10+12/22) Accurately ripped
05 [3a92db0a|018f554a] (10+12/22) Accurately ripped
06 [9af09946|ba896976] (10+12/22) Accurately ripped
07 [ece1b40a|14818013] (10+12/22) Accurately ripped
08 [fe4a882f|6eedea81] (10+12/22) Accurately ripped
09 [fbe4c68d|1b895924] (10+12/22) Accurately ripped

Track Peak [ CRC32 ] [W/O NULL] [ LOG ]
– 98,8 [D6A51CC2] [38DB3D42] CRC32
01 69,0 [83C3C33F] [763FB1C7]
02 69,0 [0F16A4D4] [5795A781]
03 77,8 [C74D2C81] [B40698C6]
04 66,0 [945472AC] [144E950C]
05 77,1 [80146415] [249D1921]
06 92,2 [500CB8D5] [96E46859]
07 89,0 [E6FBD3C3] [05A637CC]
08 98,8 [C35BD989] [9A10F3E3]
09 72,5 [2F36A43D] [48DBDAE0]

Kenny Burrell - Introducing Kenny Burrell: The First Blue Note Sessions (1956) {2000, Blue Note}

Kenny Burrell - Introducing Kenny Burrell: The First Blue Note Sessions (1956) {2000, Blue Note}

Track List CD2:

01. Moten Swing [6:08]
02. Cheeta [4:43]
03. Now See How You Are [5:54]
04. Phinupi [4:43]
05. My Heart Stood Still [5:14]
06. How About You [5:14]
07. K.B. Blues [6:24]
08. D.B. Blues [5:50]
09. Nica's Dream [9:37]
10. Out For Blood [9:06]
11. K.B. Blues (Alternate Take) [6:14]

Exact Audio Copy V1.0 beta 3 from 29. August 2011

EAC extraction logfile from 8. January 2013, 10:47

Kenny Burrell / Introducing Kenny Burrell

Used drive : HL-DT-STBDDVDRW GBC-H20N Adapter: 1 ID: 0

Read mode : Secure
Utilize accurate stream : Yes
Defeat audio cache : Yes
Make use of C2 pointers : No

Read offset correction : 667
Overread into Lead-In and Lead-Out : No
Fill up missing offset samples with silence : Yes
Delete leading and trailing silent blocks : No
Null samples used in CRC calculations : Yes
Used interface : Native Win32 interface for Win NT & 2000

Used output format : User Defined Encoder
Selected bitrate : 1024 kBit/s
Quality : High
Add ID3 tag : No
Command line compressor : C:\Program Files\Exact Audio Copy\wavpack.exe
Additional command line options : -hm %source% %dest%


TOC of the extracted CD

Track | Start | Length | Start sector | End sector
––––––––––––––––––––––––––––-
1 | 0:00.00 | 6:08.17 | 0 | 27616
2 | 6:08.17 | 4:43.03 | 27617 | 48844
3 | 10:51.20 | 5:54.07 | 48845 | 75401
4 | 16:45.27 | 4:42.53 | 75402 | 96604
5 | 21:28.05 | 5:13.60 | 96605 | 120139
6 | 26:41.65 | 5:14.12 | 120140 | 143701
7 | 31:56.02 | 6:24.10 | 143702 | 172511
8 | 38:20.12 | 5:50.13 | 172512 | 198774
9 | 44:10.25 | 9:37.37 | 198775 | 242086
10 | 53:47.62 | 9:06.33 | 242087 | 283069
11 | 62:54.20 | 6:14.20 | 283070 | 311139


Range status and errors

Selected range

Filename C:\Users\ProgDog\Music\ZALIVKI\Kenny Burrell\Introducing Kenny Burrell\Disc Two\Kenny Burrell - Introducing Kenny Burrell.wav

Peak level 98.8 %
Extraction speed 6.4 X
Range quality 100.0 %
Test CRC E22C0221
Copy CRC E22C0221
Copy OK

No errors occurred


AccurateRip summary

Track 1 accurately ripped (confidence 2) [FC230BC4] (AR v2)
Track 2 accurately ripped (confidence 2) [678FA868] (AR v2)
Track 3 accurately ripped (confidence 2) [D4555BC7] (AR v2)
Track 4 accurately ripped (confidence 2) [85CF11C2] (AR v2)
Track 5 accurately ripped (confidence 2) [C8F8688E] (AR v2)
Track 6 accurately ripped (confidence 2) [A00DFE99] (AR v2)
Track 7 accurately ripped (confidence 2) [7CA5A56B] (AR v2)
Track 8 accurately ripped (confidence 2) [AE06E200] (AR v2)
Track 9 accurately ripped (confidence 2) [5E3E74D9] (AR v2)
Track 10 accurately ripped (confidence 2) [9E440696] (AR v2)
Track 11 accurately ripped (confidence 2) [5BC0AC3B] (AR v2)

All tracks accurately ripped

End of status report

–– CUETools DB Plugin V2.1.3

[CTDB TOCID: gRTux4wLyVPKv0o4LLKjdj56wRU-] found, Submit result: gRTux4wLyVPKv0o4LLKjdj56wRU- has been confirmed
[bd04bc21] (3/3) Accurately ripped


==== Log checksum D8B6097D396B51472FB394843EED90133561FF412EB44B41D7EE9664224D7205 ====

foobar2000 1.2.6 / Dynamic Range Meter 1.1.1
log date: 2017-04-28 21:40:30

––––––––––––––––––––––––––––––––––––––––
Analyzed: Kenny Burrell / Introducing Kenny Burrell CD2
––––––––––––––––––––––––––––––––––––––––

DR Peak RMS Duration Track
––––––––––––––––––––––––––––––––––––––––
DR12 -0.58 dB -16.49 dB 6:08 01-Moten Swing
DR13 -0.50 dB -15.85 dB 4:43 02-Cheeta
DR14 -0.10 dB -17.32 dB 5:54 03-Now See How You Are
DR13 -0.10 dB -14.80 dB 4:43 04-Phinupi
DR14 -0.10 dB -17.36 dB 5:14 05-My Heart Stood Still
DR15 -0.10 dB -16.29 dB 5:14 06-How About You
DR12 -0.10 dB -14.43 dB 6:24 07-K.B. Blues
DR11 -0.23 dB -14.65 dB 5:50 08-D.B. Blues
DR12 -0.23 dB -14.65 dB 9:37 09-Nica's Dream
DR12 -0.10 dB -13.73 dB 9:06 10-Out For Blood
DR12 -0.99 dB -15.60 dB 6:14 11-K.B. Blues (Alternate Take)
––––––––––––––––––––––––––––––––––––––––

Number of tracks: 11
Official DR value: DR13

Samplerate: 44100 Hz
Channels: 2
Bits per sample: 16
Bitrate: 755 kbps
Codec: WavPack
================================================================================

[CUETools log; Date: 28.04.2017 21:40:32; Version: 2.1.5]
[CTDB TOCID: gRTux4wLyVPKv0o4LLKjdj56wRU-] found.
Track | CTDB Status
1 | (18/18) Accurately ripped
2 | (18/18) Accurately ripped
3 | (18/18) Accurately ripped
4 | (18/18) Accurately ripped
5 | (18/18) Accurately ripped
6 | (17/18) Accurately ripped
7 | (18/18) Accurately ripped
8 | (18/18) Accurately ripped
9 | (18/18) Accurately ripped
10 | (18/18) Accurately ripped
11 | (18/18) Accurately ripped
[AccurateRip ID: 001a3e57-00e72dd4-8810340b] found.
Track [ CRC | V2 ] Status
01 [99cbb2c2|fc230bc4] (09+12/21) Accurately ripped
02 [e93301df|678fa868] (09+12/21) Accurately ripped
03 [4c61c964|d4555bc7] (09+12/21) Accurately ripped
04 [dd9870ea|85cf11c2] (09+12/21) Accurately ripped
05 [c4a09575|c8f8688e] (09+11/20) Accurately ripped
06 [5c894fd9|a00dfe99] (09+12/21) Accurately ripped
07 [b471d8cc|7ca5a56b] (09+11/20) Accurately ripped
08 [3e5399e7|ae06e200] (09+12/21) Accurately ripped
09 [60814956|5e3e74d9] (09+11/20) Accurately ripped
10 [573bbdfa|9e440696] (08+12/20) Accurately ripped
11 [9eb11b96|5bc0ac3b] (07+12/19) Accurately ripped

Track Peak [ CRC32 ] [W/O NULL] [ LOG ]
– 98,8 [E22C0221] [7227B466] CRC32
01 93,4 [2E4F4C1C] [82350FC0]
02 94,3 [1397C4E9] [D8EB050C]
03 98,8 [61E3D9E4] [64DA31FF]
04 98,8 [48996B09] [9D2D0F4B]
05 98,8 [86AE7C82] [D7D2A0B2]
06 98,8 [4D51E979] [60A84B3B]
07 98,8 [B1A126A7] [977910B7]
08 97,4 [99B21145] [2B5E562C]
09 97,3 [7069B121] [F4B51948]
10 98,8 [443CC2E8] [09FB51B4]
11 89,2 [0C386695] [62FBB3AA]

Personnel:
Bass – Paul Chambers
Congas [Conga Drum] – Candido Camero
Drums – Kenny Clarke
Guitar – Kenny Burrell
Piano – Tommy Flanagan

Recorded on May 29 & 30, 1956 (Disc 1), March 12, 1956 (Disc 2, #1-6), and February 10, 1956 (Disc 2, #7-11)

Kenny Burrell - Introducing Kenny Burrell: The First Blue Note Sessions (1956) {2000, Blue Note}

All thanks go to arizonadream

>>> My Blog <<<