Kenny Burrell - Soul Call (1964) {2001, JVC XRCD2 20bit/ K2 Super Coding}

Posted By: popsakov
Kenny Burrell - Soul Call (1964) {2001, JVC XRCD2 20bit/ K2 Super Coding}

Kenny Burrell - Soul Call (1964) {2001, JVC XRCD2 20bit/ K2 Super Coding}
EAC Rip | WV (Img) + Cue + Log ~ 183 Mb | MP3 CBR320 ~ 89 Mb
Scans (PNG, 300 dpi) ~ 107 Mb | RAR 5% Recovery
Jazz, Hard Bop, Guitar Jazz | Prestige / JVC #JVCXR-0210-2

By 1964, when Soul Call was recorded, Kenny Burrell had established himself as one of the most admired guitarists in jazz. A guitarist of rare taste and musicality, Burrell shines in this small group with rhythm and blues leanings.
***************
Coaxing a great tone from an electric guitar is harder than it looks, and Kenny Burrell consistently plays with both warmth and bite. His combination of deep blues sensibilities and thorough finesse, tempered with a considerable taste for understatement, earned the guitarist a well-deserved reputation for delivering the goods in the late '50s and early '60s.

Soul Call is yet another great Burrell record. On "Here's That Rainy Day," he epitomizes all that is cool in jazz guitar, framing his lush chord-melody statement using a minimum of voicings, and burning up the changes without ever overplaying, sacrificing clarity, or compromising his tone, all while infusing an achingly beautiful standard with a graceful blues tinge. He then repeats this achievement in a harder-swinging vein on "Lucky So and So" and on the ballad "A Sleepin' Bee. "Mark One" is an uptempo cooker by pianist Will Davis; Burrell himself contributes two blues, the late-night, conga-fueled slink of the title cut and the relentlessly jumping "Kenny's Theme."
~ All Music

***************

Kenny Burrell - Soul Call (1964) {2001, JVC XRCD2 20bit/ K2 Super Coding}

Kenny Burrell - Soul Call (1964) {2001, JVC XRCD2 20bit/ K2 Super Coding}

Track List:

01. I'm Just a Lucky So and So [5:16]
02. Mark One [7:12]
03. A Sleepin' Bee [4:26]
04. Soul Call [7:23]
05. Kenny's Theme [5:01]
06. Here's That Rainy Day [4:16]
07. Oh Henry [3:04]

Personnel:
Kenny Burrell - guitar
Bill English - drums
Will Davis - piano
Martin Rivera - bass
Ray Barretto - conga

Exact Audio Copy V0.99 prebeta 4 from 23. January 2008

EAC extraction logfile from 3. October 2010, 16:07

Kenny Burrell / Soul Call

Used drive : PLEXTOR DVDR PX-755A Adapter: 1 ID: 1

Read mode : Secure
Utilize accurate stream : Yes
Defeat audio cache : Yes
Make use of C2 pointers : No

Read offset correction : 30
Overread into Lead-In and Lead-Out : No
Fill up missing offset samples with silence : Yes
Delete leading and trailing silent blocks : No
Null samples used in CRC calculations : Yes
Used interface : Installed external ASPI interface

Used output format : Internal WAV Routines
Sample format : 44.100 Hz; 16 Bit; Stereo


TOC of the extracted CD

Track | Start | Length | Start sector | End sector
––––––––––––––––––––––––––––-
1 | 0:00.00 | 5:15.52 | 0 | 23676
2 | 5:15.52 | 7:11.55 | 23677 | 56056
3 | 12:27.32 | 4:26.15 | 56057 | 76021
4 | 16:53.47 | 7:22.65 | 76022 | 109236
5 | 24:16.37 | 5:00.70 | 109237 | 131806
6 | 29:17.32 | 4:16.10 | 131807 | 151016
7 | 33:33.42 | 3:03.43 | 151017 | 164784


Range status and errors

Selected range

Filename Z:\Kenny Burrell - Soul Call (1964) {XRCD2 JVCXR-0210-2}\Kenny Burrell - Soul Call.wav

Peak level 100.0 %
Range quality 100.0 %
Test CRC BF818F13
Copy CRC BF818F13
Copy OK

No errors occurred


AccurateRip summary

Track 1 accurately ripped (confidence 9) [67D54DC0]
Track 2 accurately ripped (confidence 9) [F1C63745]
Track 3 accurately ripped (confidence 9) [78A60330]
Track 4 accurately ripped (confidence 9) [C5853B3C]
Track 5 accurately ripped (confidence 9) [836EDC2D]
Track 6 accurately ripped (confidence 9) [AE5B0356]
Track 7 accurately ripped (confidence 9) [2E42434D]

All tracks accurately ripped

End of status report

foobar2000 1.2.6 / Dynamic Range Meter 1.1.1
log date: 2017-06-19 18:42:40

––––––––––––––––––––––––––––––––––––––––
Analyzed: Kenny Burrell / Soul Call
––––––––––––––––––––––––––––––––––––––––

DR Peak RMS Duration Track
––––––––––––––––––––––––––––––––––––––––
DR13 -3.97 dB -21.21 dB 5:16 01-I'm Just a Lucky So and So
DR12 0.00 dB -17.37 dB 7:12 02-Mark One
DR13 -6.68 dB -25.28 dB 4:26 03-A Sleepin' Bee
DR13 -1.98 dB -21.87 dB 7:23 04-Soul Call
DR13 -0.95 dB -20.58 dB 5:01 05-Kenny's Theme
DR11 -7.35 dB -23.69 dB 4:16 06-Here's That Rainy Day
DR12 -1.96 dB -19.61 dB 3:04 07-Oh Henry
––––––––––––––––––––––––––––––––––––––––

Number of tracks: 7
Official DR value: DR12

Samplerate: 44100 Hz
Channels: 2
Bits per sample: 16
Bitrate: 663 kbps
Codec: WavPack
================================================================================

[CUETools log; Date: 19.06.2017 18:42:45; Version: 2.1.5]
[CTDB TOCID: ZZWF61nW6AV1aGuqm6Oy3d.PuL0-] found.
Track | CTDB Status
1 | (9/9) Accurately ripped
2 | (9/9) Accurately ripped
3 | (9/9) Accurately ripped
4 | (9/9) Accurately ripped
5 | (9/9) Accurately ripped
6 | (9/9) Accurately ripped
7 | (9/9) Accurately ripped
[AccurateRip ID: 000adf9a-00409368-58089507] found.
Track [ CRC | V2 ] Status
01 [67d54dc0|8e524674] (13+09/22) Accurately ripped
02 [f1c63745|85006c3c] (13+09/22) Accurately ripped
03 [78a60330|2643fe9c] (13+09/22) Accurately ripped
04 [c5853b3c|b4378377] (13+09/22) Accurately ripped
05 [836edc2d|188e1925] (13+09/22) Accurately ripped
06 [ae5b0356|0b5807d4] (13+09/22) Accurately ripped
07 [2e42434d|cb36cad6] (13+09/22) Accurately ripped

Track Peak [ CRC32 ] [W/O NULL] [ LOG ]
– 100,0 [BF818F13] [CA6F7A72] CRC32
01 63,3 [558E5D01] [1441DB20]
02 100,0 [08A3D885] [C7E9D4E3]
03 46,3 [6235B6FC] [5CECDB25]
04 79,5 [744E2571] [4919C6F2]
05 89,6 [62E9CF72] [A8CBD18F]
06 42,8 [51B1C71A] [DD05EC41]
07 79,7 [C6FC400C] [22EAA845]

Kenny Burrell - Soul Call (1964) {2001, JVC XRCD2 20bit/ K2 Super Coding}

See also:
Kenny Burrell - Introducing Kenny Burrell: The First Blue Note Sessions (1956) {2000, Blue Note}
Kenny Burrell - God Bless The Child (1971) {1987, Reissue, Remastered}

All thanks go to the original ripper(s) …

>>> My Blog <<<

Download from icerbox.com: