Kenny Barron & Regina Carter - Freefall (2001) {Verve}

Posted By: tiburon
Kenny Barron & Regina Carter - Freefall (2001) {Verve}

Kenny Barron & Regina Carter - Freefall (2001) {Verve}
EAC 1.0b2 | FLAC tracks level 8 | Cue+Log+M3U | Full Scans 600dpi | 349MB + 5% Recovery
Genre: Jazz, Post-Bop
Kenny Barron & Regina Carter - Freefall (2001) {Verve}

Violin/piano duet sessions are routine in the classical music world – after all, Beethoven wrote ten sonatas for this combination – but you rarely encounter them in jazz, due in great part to the shortage of jazz violinists. The Kenny Barron/Regina Carter sessions came about sometime after a gig at Sweet Basil's in New York – and since the two happen to record for the same label, one imagines the only obstacle was the commercial potential of this teaming. But not to worry, for this session has plenty of life and wit; indeed, the sounds of the violin and piano go together as naturally in jazz as in the classical field (must be the resonating strings and wood factors that these instruments share).
Track List
01. Softly As In A Morning Sunrise 6:51
02. Fragile 7:42
03. Misterioso 5:58
04. Phantoms 11:16
05. What If 5:25
06. Squatty Roo 4:14
07. Freefall 8:23
08. Shades Of Gray 4:56
09. Footprints 9:39
10. A Flower 4:49

musicians
Kenny Barron - piano
Regina Carter - violin

Produced by Karen Kennedy and Michelle Taylor


Exact Audio Copy V1.0 beta 2 from 29. April 2011

EAC extraction logfile from 17. August 2011, 18:40

Kenny Barron & Regina Carter / Freefall

Used drive : HL-DT-STDVD-RAM GSA-H55N Adapter: 0 ID: 2

Read mode : Secure
Utilize accurate stream : Yes
Defeat audio cache : Yes
Make use of C2 pointers : No

Read offset correction : 102
Overread into Lead-In and Lead-Out : Yes
Fill up missing offset samples with silence : Yes
Delete leading and trailing silent blocks : No
Null samples used in CRC calculations : Yes
Used interface : Installed external ASPI interface
Gap handling : Appended to previous track

Used output format : User Defined Encoder
Selected bitrate : 128 kBit/s
Quality : High
Add ID3 tag : No
Command line compressor : G:\Program Files\Exact Audio Copy\Encoder\flac.exe
Additional command line options : -V -8 -T "Genre=%genre%" -T "Artist=%artist%" -T "Title=%title%" -T "Album=%albumtitle%" -T "Date=%year%" -T "Tracknumber=%tracknr%" -T "Comment=%comment%" %source%


TOC of the extracted CD

Track | Start | Length | Start sector | End sector
––––––––––––––––––––––––––––-
1 | 0:00.00 | 6:55.22 | 0 | 31146
2 | 6:55.22 | 7:44.55 | 31147 | 66001
3 | 14:40.02 | 6:01.15 | 66002 | 93091
4 | 20:41.17 | 11:17.08 | 93092 | 143874
5 | 31:58.25 | 5:29.00 | 143875 | 168549
6 | 37:27.25 | 4:14.10 | 168550 | 187609
7 | 41:41.35 | 8:22.50 | 187610 | 225309
8 | 50:04.10 | 4:55.52 | 225310 | 247486
9 | 54:59.62 | 9:39.00 | 247487 | 290911
10 | 64:38.62 | 4:49.53 | 290912 | 312639


Track 1

Filename F:\WAV\01 - Softly as in a Morning Sunrise.wav

Pre-gap length 0:00:02.00

Peak level 100.0 %
Extraction speed 4.8 X
Track quality 99.9 %
Test CRC E0619011
Copy CRC E0619011
Accurately ripped (confidence 2) [7918A1BC] (AR v2)
Copy OK

Track 2

Filename F:\WAV\02 - Fragile.wav

Pre-gap length 0:00:03.37

Peak level 100.0 %
Extraction speed 6.1 X
Track quality 100.0 %
Test CRC A42B753F
Copy CRC A42B753F
Accurately ripped (confidence 2) [B3A92486] (AR v2)
Copy OK

Track 3

Filename F:\WAV\03 - Misterioso.wav

Pre-gap length 0:00:02.42

Peak level 99.8 %
Extraction speed 6.0 X
Track quality 99.9 %
Test CRC 1EC9A0E0
Copy CRC 1EC9A0E0
Accurately ripped (confidence 2) [D9B68F9D] (AR v2)
Copy OK

Track 4

Filename F:\WAV\04 - Phantoms.wav

Pre-gap length 0:00:03.07

Peak level 99.3 %
Extraction speed 7.5 X
Track quality 100.0 %
Test CRC EA11B463
Copy CRC EA11B463
Accurately ripped (confidence 2) [A0E52729] (AR v2)
Copy OK

Track 5

Filename F:\WAV\05 - What If.wav

Pre-gap length 0:00:01.08

Peak level 98.8 %
Extraction speed 6.9 X
Track quality 99.9 %
Test CRC 05B54E9A
Copy CRC 05B54E9A
Accurately ripped (confidence 2) [164810DB] (AR v2)
Copy OK

Track 6

Filename F:\WAV\06 - Squatty Roo.wav

Pre-gap length 0:00:03.20

Peak level 99.8 %
Extraction speed 7.5 X
Track quality 100.0 %
Test CRC 37519DD1
Copy CRC 37519DD1
Accurately ripped (confidence 2) [E441286D] (AR v2)
Copy OK

Track 7

Filename F:\WAV\07 - Freefall.wav

Pre-gap length 0:00:02.70

Peak level 99.7 %
Extraction speed 7.8 X
Track quality 99.9 %
Test CRC 6B30FB9E
Copy CRC 6B30FB9E
Accurately ripped (confidence 2) [B992A204] (AR v2)
Copy OK

Track 8

Filename F:\WAV\08 - Shades of Gray.wav

Pre-gap length 0:00:01.15

Peak level 96.2 %
Extraction speed 8.3 X
Track quality 100.0 %
Test CRC 0E8145C4
Copy CRC 0E8145C4
Accurately ripped (confidence 2) [BFC2B16D] (AR v2)
Copy OK

Track 9

Filename F:\WAV\09 - Footprints.wav

Peak level 100.0 %
Extraction speed 8.5 X
Track quality 99.9 %
Test CRC 7FD31FC7
Copy CRC 7FD31FC7
Accurately ripped (confidence 2) [5C3FC158] (AR v2)
Copy OK

Track 10

Filename F:\WAV\10 - A Flower.wav

Pre-gap length 0:00:02.22

Peak level 100.0 %
Extraction speed 4.0 X
Track quality 100.0 %
Test CRC 05805EAE
Copy CRC 05805EAE
Accurately ripped (confidence 2) [2E906906] (AR v2)
Copy OK


All tracks accurately ripped

No errors occurred

End of status report

==== Log checksum AAC64F847356C9A7F9AAEFA7048DF51C378EF5F17AF2A8C32497606DCDEBC938 ====


––––––––––––––––––––––––––––––––––––––––
Analyzed: Kenny Barron & Regina Carter / Freefall
––––––––––––––––––––––––––––––––––––––––

DR Peak RMS Duration Track
––––––––––––––––––––––––––––––––––––––––
DR10 0.00 dB -11.89 dB 6:55 01-Softly as in a Morning Sunrise
DR10 0.00 dB -13.81 dB 7:45 02-Fragile
DR11 -0.01 dB -14.50 dB 6:01 03-Misterioso
DR11 -0.05 dB -14.69 dB 11:17 04-Phantoms
DR10 -0.10 dB -12.43 dB 5:29 05-What If
DR10 -0.01 dB -11.10 dB 4:14 06-Squatty Roo
DR11 -0.02 dB -15.42 dB 8:23 07-Freefall
DR11 -0.33 dB -15.56 dB 4:56 08-Shades of Gray
DR11 0.00 dB -13.92 dB 9:39 09-Footprints
DR10 0.00 dB -14.44 dB 4:50 10-A Flower
––––––––––––––––––––––––––––––––––––––––

Number of tracks: 10
Official DR value: DR11

Samplerate: 44100 Hz
Channels: 2
Bits per sample: 16
Bitrate: 633 kbps
Codec: FLAC
================================================================================

Kenny Barron & Regina Carter - Freefall (2001) {Verve}
Kenny Barron & Regina Carter - Freefall (2001) {Verve}
Kenny Barron & Regina Carter - Freefall (2001) {Verve}


Rip by simple.i