Subcategories

Kenny Drew Trio - Kenny's Music Still Live On [Recorded 1978-1992] [7 Albums] (2013)

Posted By: gribovar
Kenny Drew Trio - Kenny's Music Still Live On [Recorded 1978-1992] [7 Albums] (2013)

Kenny Drew Trio - Kenny's Music Still Live On [Recorded 1978-1992] [7 Albums] (2013)
EAC Rip | FLAC (image+.cue+log) - 1,9 GB | MP3 CBR 320 kbps (LAME 3.93) - 837 MB | Covers - 169 MB
Genre: Jazz | RAR 3% Rec. | Label: Pony Canyon

A collection of previously unreleased materials by the Kenny Drew Trio, originally recorded for Japanese labels Baystate and Alpha beween 1978 and 1992, now released to commemmorate the 20th anniversary of his passing. A rich trove of superb piano trio performances!
American pianist Kenny Drew (1928-1993) moved to Copenhagen, Denmark, in 1964. Although he may have somewhat faded from the radar of American jazz fans, he had a fantastic career in Denmark and was beloved by European and Japanese jazz fans. In the late 1970s and 1980s, Drew's popularity in Japan grew to incredible heights when he began recording for Japanese labels such as Baystate and Alpha under a partnership with Japanese producer Makoto Kimata.
To commemmorate the 20th anniversary of Drew's passing, a very special series was launched in Japan in 2013, with a release of previously unpublished materials recorded for the two labels between 1978 and 1992. They are alternate takes and takes that did not make onto the original albums released in this period. Danish super-bassist Niels-Henning Orsted Pedersen held the bass chair throughout, and the drummer is either Ed Thigpen, a fellow American expat who had settled in Copenhagen, or Alvin Queen.
It is quite amazing to hear the consistently high quality of these "outtakes" and to realize that there is enough material to fill CDs in this series. Actually, many these "outtakes" tend to be more exciting than those takes that made the original albums. They may have been "cut" because they were slightly rough around the edges, but perhaps they were played with more freedom, abandon, and adventurous spirit.

Kenny Drew Trio - Kenny's Music Still Live On [Recorded 1978-1992] [7 Albums] (2013)

Kenny Drew Trio - Kenny's Music Still Live On: The Days of Wine and Roses [Recorded 1978-1992] (2013)
EAC Rip | FLAC (image+.cue+log) - 262 MB | MP3 CBR 320 kbps (LAME 3.93) - 119 MB | Covers - 24 MB
Genre: Jazz | RAR 3% Rec. | Label: Pony Canyon (PCCY-30204)

Tracklist:
01. The Day of Wine and Roses
02. It Could Happen to You
03. Someday My Prince Will Come
04. Nature Boy
05. It Might as Well Be Spring
06. Sometimes I Feel Like Motherless Child
07. Fly Me to the Moon
08. Easy Living
09. I Don't Know What Time It Was
10. There Is No Greater Love

Total time: 50:40

Exact Audio Copy V1.1 from 23. June 2015

EAC extraction logfile from 16. July 2015, 22:00

Kenny Drew Trio / The Days of Wine and Roses

Used drive : ASUS DRW-24B1LT Adapter: 1 ID: 1

Read mode : Secure
Utilize accurate stream : Yes
Defeat audio cache : Yes
Make use of C2 pointers : No

Read offset correction : 6
Overread into Lead-In and Lead-Out : No
Fill up missing offset samples with silence : Yes
Delete leading and trailing silent blocks : No
Null samples used in CRC calculations : Yes
Used interface : Native Win32 interface for Win NT & 2000

Used output format : User Defined Encoder
Selected bitrate : 768 kBit/s
Quality : High
Add ID3 tag : No
Command line compressor : C:\Program Files\Exact Audio Copy\Flac\flac.exe
Additional command line options : -8 -V -T "ARTIST=%artist%" -T "TITLE=%title%" -T "ALBUM=%albumtitle%" -T "DATE=%year%" -T "TRACKNUMBER=%tracknr%" -T "TOTALTRACKS=%numtracks%" -T "GENRE=%genre%" -T "ALBUMARTIST=%albumartist%" -T "ALBUM ARTIST=%albumartist%" -T "COMMENT=EAC Secure Mode, Test & Copy, AccurateRip, FLAC -8" %source%


TOC of the extracted CD

Track | Start | Length | Start sector | End sector
––––––––––––––––––––––––––––-
1 | 0:00.00 | 6:16.05 | 0 | 28204
2 | 6:16.05 | 7:44.68 | 28205 | 63072
3 | 14:00.73 | 4:39.41 | 63073 | 84038
4 | 18:40.39 | 4:16.22 | 84039 | 103260
5 | 22:56.61 | 5:54.72 | 103261 | 129882
6 | 28:51.58 | 3:57.37 | 129883 | 147694
7 | 32:49.20 | 3:57.59 | 147695 | 165528
8 | 36:47.04 | 4:45.72 | 165529 | 186975
9 | 41:33.01 | 5:04.42 | 186976 | 209817
10 | 46:37.43 | 4:02.02 | 209818 | 227969


Range status and errors

Selected range

Filename F:\audio\Kenny Drew Trio - The Days of Wine and Roses.wav

Peak level 100.0 %
Extraction speed 3.0 X
Range quality 100.0 %
Test CRC 5F28597D
Copy CRC 5F28597D
Copy OK

No errors occurred


AccurateRip summary

Track 1 accurately ripped (confidence 4) [0D984781] (AR v2)
Track 2 accurately ripped (confidence 4) [E38858AD] (AR v2)
Track 3 accurately ripped (confidence 4) [09E20C04] (AR v2)
Track 4 accurately ripped (confidence 4) [9082B0D3] (AR v2)
Track 5 accurately ripped (confidence 4) [18227BEE] (AR v2)
Track 6 accurately ripped (confidence 4) [2CBD49CC] (AR v2)
Track 7 accurately ripped (confidence 4) [30F4A858] (AR v2)
Track 8 accurately ripped (confidence 4) [1BE443BB] (AR v2)
Track 9 accurately ripped (confidence 4) [82CFF8EC] (AR v2)
Track 10 accurately ripped (confidence 4) [5A2763B3] (AR v2)

All tracks accurately ripped

End of status report

–– CUETools DB Plugin V2.1.6

[CTDB TOCID: 1Ywk4wWCO3owjtoioRL3VPMZiWw-] found
Submit result: 1Ywk4wWCO3owjtoioRL3VPMZiWw- has been confirmed
Track | CTDB Status
1 | (1/1) Accurately ripped
2 | (1/1) Accurately ripped
3 | (1/1) Accurately ripped
4 | (1/1) Accurately ripped
5 | (1/1) Accurately ripped
6 | (1/1) Accurately ripped
7 | (1/1) Accurately ripped
8 | (1/1) Accurately ripped
9 | (1/1) Accurately ripped
10 | (1/1) Accurately ripped


==== Log checksum 5A41FFE5AE9EF2ADE31385EEEC6E7080AA328378759EA0DFB716A6642E78423C ====

[CUETools log; Date: 24.02.2018 20:21:09; Version: 2.1.4]
[CTDB TOCID: 1Ywk4wWCO3owjtoioRL3VPMZiWw-] found.
Track | CTDB Status
1 | (12/12) Accurately ripped
2 | (12/12) Accurately ripped
3 | (12/12) Accurately ripped
4 | (12/12) Accurately ripped
5 | (12/12) Accurately ripped
6 | (12/12) Accurately ripped
7 | (12/12) Accurately ripped
8 | (12/12) Accurately ripped
9 | (12/12) Accurately ripped
10 | (10/12) Accurately ripped
[AccurateRip ID: 00148b91-00a095d8-970bdf0a] found.
Track [ CRC | V2 ] Status
01 [7248f906|0d984781] (2+7/9) Accurately ripped
02 [1e82c82d|e38858ad] (2+7/9) Accurately ripped
03 [59dcda4e|09e20c04] (2+7/9) Accurately ripped
04 [cb66f784|9082b0d3] (2+7/9) Accurately ripped
05 [510aa028|18227bee] (2+7/9) Accurately ripped
06 [2015bf1a|2cbd49cc] (2+7/9) Accurately ripped
07 [d8e7a7d3|30f4a858] (2+7/9) Accurately ripped
08 [9b564b94|1be443bb] (2+7/9) Accurately ripped
09 [b5a03725|82cff8ec] (2+7/9) Accurately ripped
10 [c2871359|5a2763b3] (0+7/7) Accurately ripped

Track Peak [ CRC32 ] [W/O NULL] [ LOG ]
– 100,0 [5F28597D] [AE007A92] CRC32
01 100,0 [739E2F16] [1F4BBE30]
02 87,2 [597FB3EC] [FB00E5FD]
03 100,0 [AD3B17C1] [0B1B1184]
04 95,5 [F54FC508] [1D93E3AB]
05 86,2 [D1661913] [10A88CF7]
06 65,3 [F14B4202] [256D6BF6]
07 96,7 [CB53A89A] [A146875E]
08 95,1 [FD5DA384] [F5CCB3B5]
09 92,5 [73406C6E] [08E5900D]
10 98,5 [ACC91728] [61B15992]

Kenny Drew Trio - Kenny's Music Still Live On [Recorded 1978-1992] [7 Albums] (2013)

Kenny Drew Trio - Kenny's Music Still Live On: Les Parapluies de Cherbourg [Recorded 1978-1992] (2013)
EAC Rip | FLAC (image+.cue+log) - 240 MB | MP3 CBR 320 kbps (LAME 3.93) - 115 MB | Covers - 25 MB
Genre: Jazz | RAR 3% Rec. | Label: Pony Canyon (PCCY-30205)

Tracklist:
01. Softly as in a Morning Sunrise
02. Les Parapluies de Cherbourg
03. Lullaby of the Leaves
04. Round Midnight
05. Corcovado
06. Once Upon a Summertime
07. Dreamin'
08. You Don't Know What Love Is
09. Here's That Rainy Day
10. Images

Total time: 49:06

Exact Audio Copy V1.1 from 23. June 2015

EAC extraction logfile from 16. July 2015, 21:31

Kenny Drew Trio / Les Parapluies de Cherbourg

Used drive : ASUS DRW-24B1LT Adapter: 1 ID: 1

Read mode : Secure
Utilize accurate stream : Yes
Defeat audio cache : Yes
Make use of C2 pointers : No

Read offset correction : 6
Overread into Lead-In and Lead-Out : No
Fill up missing offset samples with silence : Yes
Delete leading and trailing silent blocks : No
Null samples used in CRC calculations : Yes
Used interface : Native Win32 interface for Win NT & 2000

Used output format : User Defined Encoder
Selected bitrate : 768 kBit/s
Quality : High
Add ID3 tag : No
Command line compressor : C:\Program Files\Exact Audio Copy\Flac\flac.exe
Additional command line options : -8 -V -T "ARTIST=%artist%" -T "TITLE=%title%" -T "ALBUM=%albumtitle%" -T "DATE=%year%" -T "TRACKNUMBER=%tracknr%" -T "TOTALTRACKS=%numtracks%" -T "GENRE=%genre%" -T "ALBUMARTIST=%albumartist%" -T "ALBUM ARTIST=%albumartist%" -T "COMMENT=EAC Secure Mode, Test & Copy, AccurateRip, FLAC -8" %source%


TOC of the extracted CD

Track | Start | Length | Start sector | End sector
––––––––––––––––––––––––––––-
1 | 0:00.00 | 5:43.53 | 0 | 25777
2 | 5:43.53 | 6:10.56 | 25778 | 53583
3 | 11:54.34 | 5:11.51 | 53584 | 76959
4 | 17:06.10 | 3:43.59 | 76960 | 93743
5 | 20:49.69 | 4:59.56 | 93744 | 116224
6 | 25:49.50 | 4:15.32 | 116225 | 135381
7 | 30:05.07 | 3:52.26 | 135382 | 152807
8 | 33:57.33 | 4:51.44 | 152808 | 174676
9 | 38:49.02 | 3:19.00 | 174677 | 189601
10 | 42:08.02 | 6:58.31 | 189602 | 220982


Range status and errors

Selected range

Filename F:\audio\Kenny Drew Trio - Les Parapluies de Cherbourg.wav

Peak level 99.3 %
Extraction speed 3.0 X
Range quality 100.0 %
Test CRC DDEC3A7C
Copy CRC DDEC3A7C
Copy OK

No errors occurred


AccurateRip summary

Track 1 accurately ripped (confidence 4) [CB6BD726] (AR v2)
Track 2 accurately ripped (confidence 4) [52F6D3A8] (AR v2)
Track 3 accurately ripped (confidence 4) [A3B5588B] (AR v2)
Track 4 accurately ripped (confidence 4) [779773BB] (AR v2)
Track 5 accurately ripped (confidence 4) [1C84E117] (AR v2)
Track 6 accurately ripped (confidence 4) [3700CD30] (AR v2)
Track 7 accurately ripped (confidence 4) [B039E1E0] (AR v2)
Track 8 accurately ripped (confidence 4) [1EB2C2D3] (AR v2)
Track 9 accurately ripped (confidence 4) [32D17BAD] (AR v2)
Track 10 accurately ripped (confidence 4) [240970AC] (AR v2)

All tracks accurately ripped

End of status report

–– CUETools DB Plugin V2.1.6

[CTDB TOCID: d_eSHcn5b3JF8e_yJMWBs7diJsY-] found
Submit result: d_eSHcn5b3JF8e_yJMWBs7diJsY- has been confirmed
Track | CTDB Status
1 | (1/1) Accurately ripped
2 | (1/1) Accurately ripped
3 | (1/1) Accurately ripped
4 | (1/1) Accurately ripped
5 | (1/1) Accurately ripped
6 | (1/1) Accurately ripped
7 | (1/1) Accurately ripped
8 | (1/1) Accurately ripped
9 | (1/1) Accurately ripped
10 | (1/1) Accurately ripped


==== Log checksum 344501645FF027B47CA272BD0057288D1B01B355A2A26F0B3C16595132D42DF9 ====

[CUETools log; Date: 24.02.2018 20:21:51; Version: 2.1.4]
[CTDB TOCID: d_eSHcn5b3JF8e_yJMWBs7diJsY-] found.
Track | CTDB Status
1 | (9/9) Accurately ripped
2 | (9/9) Accurately ripped
3 | (9/9) Accurately ripped
4 | (9/9) Accurately ripped
5 | (9/9) Accurately ripped
6 | (9/9) Accurately ripped
7 | (9/9) Accurately ripped
8 | (9/9) Accurately ripped
9 | (9/9) Accurately ripped
10 | (9/9) Accurately ripped
[AccurateRip ID: 0012eabf-0094da93-6d0b820a] found.
Track [ CRC | V2 ] Status
01 [8754b5f9|cb6bd726] (02+08/10) Accurately ripped
02 [10434bcc|52f6d3a8] (02+08/10) Accurately ripped
03 [97278bbf|a3b5588b] (02+08/10) Accurately ripped
04 [28ba516c|779773bb] (02+08/10) Accurately ripped
05 [de5cdd17|1c84e117] (02+08/10) Accurately ripped
06 [585a47b1|3700cd30] (02+08/10) Accurately ripped
07 [f457d334|b039e1e0] (02+08/10) Accurately ripped
08 [ac153d62|1eb2c2d3] (02+08/10) Accurately ripped
09 [df5e7d0f|32d17bad] (02+08/10) Accurately ripped
10 [7e9f1f08|240970ac] (02+08/10) Accurately ripped

Track Peak [ CRC32 ] [W/O NULL] [ LOG ]
– 99,3 [DDEC3A7C] [08C71CDE] CRC32
01 99,0 [99641DB8] [9B156349]
02 84,6 [294C4B61] [88068A33]
03 99,2 [4B2AD7B0] [1822DE0C]
04 96,1 [6A3532BB] [40BAC0BE]
05 99,2 [8E8BD502] [9DFEB6F8]
06 95,2 [712A7D66] [E79F2E2A]
07 99,3 [352FC0E9] [6FCC25E2]
08 90,9 [CFC57235] [E4C0574A]
09 61,1 [576E7877] [839350C3]
10 78,0 [99C4A19D] [D4EF4C77]

Kenny Drew Trio - Kenny's Music Still Live On [Recorded 1978-1992] [7 Albums] (2013)

Kenny Drew Trio - Kenny's Music Still Live On: Misty [Recorded 1978-1992] (2013)
EAC Rip | FLAC (image+.cue+log) - 268 MB | MP3 CBR 320 kbps (LAME 3.93) - 118 MB | Covers - 24 MB
Genre: Jazz | RAR 3% Rec. | Label: Pony Canyon (PCCY-30206)

Tracklist:
01. Stella by Starlight
02. Misty
03. Autumn in Rome
04. But Not for Me
05. As Time Goes By
06. Last Tango in Paris
07. Sunset
08. Blues in Green
09. The Way We Were
10. I'm Old Fashioned

Total time: 50:02

Exact Audio Copy V1.1 from 23. June 2015

EAC extraction logfile from 16. July 2015, 21:05

Kenny Drew Trio / Misty

Used drive : ASUS DRW-24B1LT Adapter: 1 ID: 1

Read mode : Secure
Utilize accurate stream : Yes
Defeat audio cache : Yes
Make use of C2 pointers : No

Read offset correction : 6
Overread into Lead-In and Lead-Out : No
Fill up missing offset samples with silence : Yes
Delete leading and trailing silent blocks : No
Null samples used in CRC calculations : Yes
Used interface : Native Win32 interface for Win NT & 2000

Used output format : User Defined Encoder
Selected bitrate : 768 kBit/s
Quality : High
Add ID3 tag : No
Command line compressor : C:\Program Files\Exact Audio Copy\Flac\flac.exe
Additional command line options : -8 -V -T "ARTIST=%artist%" -T "TITLE=%title%" -T "ALBUM=%albumtitle%" -T "DATE=%year%" -T "TRACKNUMBER=%tracknr%" -T "TOTALTRACKS=%numtracks%" -T "GENRE=%genre%" -T "ALBUMARTIST=%albumartist%" -T "ALBUM ARTIST=%albumartist%" -T "COMMENT=EAC Secure Mode, Test & Copy, AccurateRip, FLAC -8" %source%


TOC of the extracted CD

Track | Start | Length | Start sector | End sector
––––––––––––––––––––––––––––-
1 | 0:00.00 | 7:14.06 | 0 | 32555
2 | 7:14.06 | 4:39.10 | 32556 | 53490
3 | 11:53.16 | 4:22.04 | 53491 | 73144
4 | 16:15.20 | 4:36.69 | 73145 | 93913
5 | 20:52.14 | 3:41.56 | 93914 | 110544
6 | 24:33.70 | 7:05.14 | 110545 | 142433
7 | 31:39.09 | 4:55.56 | 142434 | 164614
8 | 36:34.65 | 3:16.41 | 164615 | 179355
9 | 39:51.31 | 5:39.34 | 179356 | 204814
10 | 45:30.65 | 4:31.21 | 204815 | 225160


Range status and errors

Selected range

Filename F:\audio\Kenny Drew Trio - Misty.wav

Peak level 99.4 %
Extraction speed 3.0 X
Range quality 100.0 %
Test CRC 94009628
Copy CRC 94009628
Copy OK

No errors occurred


AccurateRip summary

Track 1 accurately ripped (confidence 5) [ADB6BBE2] (AR v2)
Track 2 accurately ripped (confidence 5) [4AF643EA] (AR v2)
Track 3 accurately ripped (confidence 5) [B03C485C] (AR v2)
Track 4 accurately ripped (confidence 5) [AAA5E26B] (AR v2)
Track 5 accurately ripped (confidence 5) [90DA4E02] (AR v2)
Track 6 accurately ripped (confidence 5) [FF8E2EAC] (AR v2)
Track 7 accurately ripped (confidence 5) [C69E8AAC] (AR v2)
Track 8 accurately ripped (confidence 5) [50DF60B2] (AR v2)
Track 9 accurately ripped (confidence 5) [A2E0C870] (AR v2)
Track 10 accurately ripped (confidence 5) [F57B6CBE] (AR v2)

All tracks accurately ripped

End of status report

–– CUETools DB Plugin V2.1.6

[CTDB TOCID: zo1..HE80KiJjgsMa1xihx7J5tI-] found
Submit result: zo1..HE80KiJjgsMa1xihx7J5tI- has been confirmed
Track | CTDB Status
1 | (3/3) Accurately ripped
2 | (3/3) Accurately ripped
3 | (3/3) Accurately ripped
4 | (3/3) Accurately ripped
5 | (3/3) Accurately ripped
6 | (3/3) Accurately ripped
7 | (3/3) Accurately ripped
8 | (3/3) Accurately ripped
9 | (3/3) Accurately ripped
10 | (3/3) Accurately ripped


==== Log checksum 3C1E26458B951C959F6D4EE9A86765DF87EBBFA1D2842FC447DD5A529E34B0E7 ====

[CUETools log; Date: 24.02.2018 20:22:34; Version: 2.1.4]
[CTDB TOCID: zo1..HE80KiJjgsMa1xihx7J5tI-] found.
Track | CTDB Status
1 | (20/20) Accurately ripped
2 | (20/20) Accurately ripped
3 | (20/20) Accurately ripped
4 | (20/20) Accurately ripped
5 | (20/20) Accurately ripped
6 | (20/20) Accurately ripped
7 | (20/20) Accurately ripped
8 | (20/20) Accurately ripped
9 | (20/20) Accurately ripped
10 | (20/20) Accurately ripped
[AccurateRip ID: 00138820-009a2d19-8c0bba0a] found.
Track [ CRC | V2 ] Status
01 [77ac45ba|adb6bbe2] (0+9/9) Accurately ripped
02 [da649540|4af643ea] (0+9/9) Accurately ripped
03 [ebb10043|b03c485c] (0+9/9) Accurately ripped
04 [0f879f50|aaa5e26b] (0+9/9) Accurately ripped
05 [f78bc53d|90da4e02] (0+9/9) Accurately ripped
06 [2e811c77|ff8e2eac] (0+9/9) Accurately ripped
07 [ca782bed|c69e8aac] (0+9/9) Accurately ripped
08 [8aac16d9|50df60b2] (0+9/9) Accurately ripped
09 [5e5e3950|a2e0c870] (0+9/9) Accurately ripped
10 [80f951de|f57b6cbe] (0+9/9) Accurately ripped

Track Peak [ CRC32 ] [W/O NULL] [ LOG ]
– 99,4 [94009628] [B84F1D7F] CRC32
01 99,3 [6E7F9588] [C6B380AA]
02 95,4 [42B6B2B1] [70174C27]
03 48,5 [817505B8] [A01288F9]
04 99,4 [48F7DE22] [B94DE085]
05 85,1 [38DCC842] [25F58C49]
06 70,3 [1F6621AD] [E6D6E66D]
07 78,9 [8213BAD2] [4253AA99]
08 96,5 [AD53FE2C] [0BDF4AA8]
09 96,1 [44BED406] [3E619583]
10 99,2 [397CCD71] [D65DEB5C]

Kenny Drew Trio - Kenny's Music Still Live On [Recorded 1978-1992] [7 Albums] (2013)

Kenny Drew Trio - Kenny's Music Still Live On: Take the 'A' Train [Recorded 1978-1992] (2013)
EAC Rip | FLAC (image+.cue+log) - 240 MB | MP3 CBR 320 kbps (LAME 3.93) - 109 MB | Covers - 24 MB
Genre: Jazz | RAR 3% Rec. | Label: Pony Canyon (PCCY-30207)

Tracklist:
01. Take the "A" Train
02. What Are You Doing the Rest of Your Life
03. Golden Earrings
04. Cleopatra's Dream
05. Summertime
06. Smiling for You
07. You'd Be So Nice to Come Home To
08. Tenderly
09. Eco Trip

Total time: 46:20

Exact Audio Copy V1.1 from 23. June 2015

EAC extraction logfile from 16. July 2015, 20:28

Kenny Drew Trio / Take the 'A' Train

Used drive : ASUS DRW-24B1LT Adapter: 1 ID: 1

Read mode : Secure
Utilize accurate stream : Yes
Defeat audio cache : Yes
Make use of C2 pointers : No

Read offset correction : 6
Overread into Lead-In and Lead-Out : No
Fill up missing offset samples with silence : Yes
Delete leading and trailing silent blocks : No
Null samples used in CRC calculations : Yes
Used interface : Native Win32 interface for Win NT & 2000

Used output format : User Defined Encoder
Selected bitrate : 768 kBit/s
Quality : High
Add ID3 tag : No
Command line compressor : C:\Program Files\Exact Audio Copy\Flac\flac.exe
Additional command line options : -8 -V -T "ARTIST=%artist%" -T "TITLE=%title%" -T "ALBUM=%albumtitle%" -T "DATE=%year%" -T "TRACKNUMBER=%tracknr%" -T "TOTALTRACKS=%numtracks%" -T "GENRE=%genre%" -T "ALBUMARTIST=%albumartist%" -T "ALBUM ARTIST=%albumartist%" -T "COMMENT=EAC Secure Mode, Test & Copy, AccurateRip, FLAC -8" %source%


TOC of the extracted CD

Track | Start | Length | Start sector | End sector
––––––––––––––––––––––––––––-
1 | 0:00.00 | 4:06.07 | 0 | 18456
2 | 4:06.07 | 6:32.21 | 18457 | 47877
3 | 10:38.28 | 6:36.71 | 47878 | 77648
4 | 17:15.24 | 5:51.30 | 77649 | 104003
5 | 23:06.54 | 5:08.37 | 104004 | 127140
6 | 28:15.16 | 5:35.03 | 127141 | 152268
7 | 33:50.19 | 3:35.25 | 152269 | 168418
8 | 37:25.44 | 6:02.18 | 168419 | 195586
9 | 43:27.62 | 2:51.72 | 195587 | 208483


Range status and errors

Selected range

Filename F:\audio\Kenny Drew Trio - Take the 'A' Train.wav

Peak level 100.0 %
Extraction speed 2.9 X
Range quality 100.0 %
Test CRC B24AB955
Copy CRC B24AB955
Copy OK

No errors occurred


AccurateRip summary

Track 1 accurately ripped (confidence 6) [C1C52CE1] (AR v2)
Track 2 accurately ripped (confidence 6) [3AC30B0B] (AR v2)
Track 3 accurately ripped (confidence 6) [7B3F6414] (AR v2)
Track 4 accurately ripped (confidence 6) [AAFBD1ED] (AR v2)
Track 5 accurately ripped (confidence 6) [B5B03DD9] (AR v2)
Track 6 accurately ripped (confidence 6) [F441AAC6] (AR v2)
Track 7 accurately ripped (confidence 6) [123BF5EA] (AR v2)
Track 8 accurately ripped (confidence 6) [6D04A6D6] (AR v2)
Track 9 accurately ripped (confidence 6) [21239E49] (AR v2)

All tracks accurately ripped

End of status report

–– CUETools DB Plugin V2.1.6

[CTDB TOCID: OuC8q.vmzsrd4X9Mot2axYikDhg-] disk not present in database
Submit result: OuC8q.vmzsrd4X9Mot2axYikDhg- has been uploaded


==== Log checksum A9BA3EC67EE4CD88F84BE75559DBDDF20BEAA53F9DE347476DCE3CCD51AC4888 ====

[CUETools log; Date: 24.02.2018 20:23:12; Version: 2.1.4]
[CTDB TOCID: OuC8q.vmzsrd4X9Mot2axYikDhg-] found.
Track | CTDB Status
1 | (10/10) Accurately ripped
2 | (10/10) Accurately ripped
3 | (10/10) Accurately ripped
4 | (10/10) Accurately ripped
5 | (10/10) Accurately ripped
6 | (10/10) Accurately ripped
7 | (10/10) Accurately ripped
8 | (10/10) Accurately ripped
9 | ( 9/10) Accurately ripped, or (1/10) differs in 1334 samples @02:51:56-02:51:57
[AccurateRip ID: 0010c870-007a9071-770adb09] found.
Track [ CRC | V2 ] Status
01 [1be16640|c1c52ce1] (0+9/9) Accurately ripped
02 [b3c7a2fa|3ac30b0b] (0+9/9) Accurately ripped
03 [5f8e7c4c|7b3f6414] (0+9/9) Accurately ripped
04 [d0f6bd50|aafbd1ed] (0+9/9) Accurately ripped
05 [cd6a9b3d|b5b03dd9] (0+9/9) Accurately ripped
06 [d130ceda|f441aac6] (0+9/9) Accurately ripped
07 [942ce15f|123bf5ea] (0+9/9) Accurately ripped
08 [cca1f547|6d04a6d6] (0+9/9) Accurately ripped
09 [41edf6e3|21239e49] (0+9/9) Accurately ripped

Track Peak [ CRC32 ] [W/O NULL] [ LOG ]
– 100,0 [B24AB955] [9756D8DD] CRC32
01 100,0 [12105A10] [378EF3AA]
02 96,3 [05B29B0C] [E1D5D97D]
03 90,9 [5B38C20C] [CC4F6769]
04 94,8 [1F9298C4] [7468335A]
05 100,0 [37E205E7] [802D37BF]
06 75,4 [F988F93F] [D9450A16]
07 95,4 [CD04824D] [0AB2775E]
08 96,7 [E76A69FF] [A77C56FA]
09 95,8 [CE0E3589] [E597FBD1]

Kenny Drew Trio - Kenny's Music Still Live On [Recorded 1978-1992] [7 Albums] (2013)

Kenny Drew Trio - Kenny's Music Still Live On: Lullaby of Birdland [Recorded 1978-1992] (2013)
EAC Rip | FLAC (image+.cue+log) - 248 MB | MP3 CBR 320 kbps (LAME 3.93) - 116 MB | Covers - 24 MB
Genre: Jazz | RAR 3% Rec. | Label: Pony Canyon (PCCY-30208)

Tracklist:
01. Lullaby of Birdland
02. It Might as Well Be Spring
03. The Summer Knows
04. Django
05. The Gentle Rain
06. My Ship
07. On Green Dolphin Street
08. God Bless the Child
09. On a Slow Boat to

Total time: 49:21

Exact Audio Copy V1.1 from 23. June 2015

EAC extraction logfile from 16. July 2015, 19:43

Kenny Drew Trio / Lullaby of Birdland

Used drive : ASUS DRW-24B1LT Adapter: 1 ID: 1

Read mode : Secure
Utilize accurate stream : Yes
Defeat audio cache : Yes
Make use of C2 pointers : No

Read offset correction : 6
Overread into Lead-In and Lead-Out : No
Fill up missing offset samples with silence : Yes
Delete leading and trailing silent blocks : No
Null samples used in CRC calculations : Yes
Used interface : Native Win32 interface for Win NT & 2000

Used output format : User Defined Encoder
Selected bitrate : 768 kBit/s
Quality : High
Add ID3 tag : No
Command line compressor : C:\Program Files\Exact Audio Copy\Flac\flac.exe
Additional command line options : -8 -V -T "ARTIST=%artist%" -T "TITLE=%title%" -T "ALBUM=%albumtitle%" -T "DATE=%year%" -T "TRACKNUMBER=%tracknr%" -T "TOTALTRACKS=%numtracks%" -T "GENRE=%genre%" -T "ALBUMARTIST=%albumartist%" -T "ALBUM ARTIST=%albumartist%" -T "COMMENT=EAC Secure Mode, Test & Copy, AccurateRip, FLAC -8" %source%


TOC of the extracted CD

Track | Start | Length | Start sector | End sector
––––––––––––––––––––––––––––-
1 | 0:00.00 | 6:21.25 | 0 | 28599
2 | 6:21.25 | 10:04.45 | 28600 | 73944
3 | 16:25.70 | 3:38.28 | 73945 | 90322
4 | 20:04.23 | 5:50.22 | 90323 | 116594
5 | 25:54.45 | 4:32.64 | 116595 | 137058
6 | 30:27.34 | 3:28.18 | 137059 | 152676
7 | 33:55.52 | 3:19.63 | 152677 | 167664
8 | 37:15.40 | 7:31.47 | 167665 | 201536
9 | 44:47.12 | 4:33.52 | 201537 | 222063


Range status and errors

Selected range

Filename F:\audio\Kenny Drew Trio - Lullaby of Birdland.wav

Peak level 99.3 %
Extraction speed 3.0 X
Range quality 100.0 %
Test CRC 5693C819
Copy CRC 5693C819
Copy OK

No errors occurred


AccurateRip summary

Track 1 accurately ripped (confidence 4) [34E10770] (AR v2)
Track 2 accurately ripped (confidence 4) [B819B54C] (AR v2)
Track 3 accurately ripped (confidence 4) [819AD135] (AR v2)
Track 4 accurately ripped (confidence 4) [60E19DD8] (AR v2)
Track 5 accurately ripped (confidence 4) [171E9369] (AR v2)
Track 6 accurately ripped (confidence 4) [7CDBFF78] (AR v2)
Track 7 accurately ripped (confidence 4) [1A3FA06B] (AR v2)
Track 8 accurately ripped (confidence 4) [9550456A] (AR v2)
Track 9 accurately ripped (confidence 4) [8A6E5749] (AR v2)

All tracks accurately ripped

End of status report

–– CUETools DB Plugin V2.1.6

[CTDB TOCID: xMA8QO3k2M_1zUE1rCEAIa6iIeM-] found
Submit result: xMA8QO3k2M_1zUE1rCEAIa6iIeM- has been confirmed
Track | CTDB Status
1 | (2/2) Accurately ripped
2 | (2/2) Accurately ripped
3 | (2/2) Accurately ripped
4 | (2/2) Accurately ripped
5 | (2/2) Accurately ripped
6 | (2/2) Accurately ripped
7 | (2/2) Accurately ripped
8 | (2/2) Accurately ripped
9 | (2/2) Accurately ripped


==== Log checksum 85C8C4B446175F59525716FD0B8ECC244A8B4FE8005F0CE1987F9CB5E13AF4DA ====

[CUETools log; Date: 24.02.2018 20:23:58; Version: 2.1.4]
[CTDB TOCID: xMA8QO3k2M_1zUE1rCEAIa6iIeM-] found.
Track | CTDB Status
1 | (15/15) Accurately ripped
2 | (15/15) Accurately ripped
3 | (15/15) Accurately ripped
4 | (15/15) Accurately ripped
5 | (15/15) Accurately ripped
6 | (15/15) Accurately ripped
7 | (15/15) Accurately ripped
8 | (15/15) Accurately ripped
9 | (15/15) Accurately ripped
[AccurateRip ID: 00122a41-00818ccd-890b9009] found.
Track [ CRC | V2 ] Status
01 [a00839c3|34e10770] (0+6/6) Accurately ripped
02 [1a3af5d2|b819b54c] (0+6/6) Accurately ripped
03 [008b866d|819ad135] (0+6/6) Accurately ripped
04 [82f01eec|60e19dd8] (0+6/6) Accurately ripped
05 [ae59eb02|171e9369] (0+6/6) Accurately ripped
06 [5dcc3141|7cdbff78] (0+6/6) Accurately ripped
07 [98e41034|1a3fa06b] (0+6/6) Accurately ripped
08 [3acde763|9550456a] (0+6/6) Accurately ripped
09 [ab927b54|8a6e5749] (0+6/6) Accurately ripped

Track Peak [ CRC32 ] [W/O NULL] [ LOG ]
– 99,3 [5693C819] [C60A1512] CRC32
01 99,3 [FD1CA331] [3D21C84D]
02 99,2 [5463CDBA] [5C24FE55]
03 71,3 [9A3ABB8B] [CEC6AE39]
04 99,3 [3C372801] [4BC21E31]
05 94,2 [EF474811] [1E2D8B44]
06 99,2 [4D158806] [E6A95261]
07 99,2 [AC0DC4A5] [8D73CE34]
08 70,4 [AF74414A] [8FA4B5C6]
09 99,3 [C00AF2D0] [CDF2AE01]

Kenny Drew Trio - Kenny's Music Still Live On [Recorded 1978-1992] [7 Albums] (2013)

Kenny Drew Trio - Kenny's Music Still Live On: Smoke Gets in Your Eyes [Recorded 1978-1992] (2013)
EAC Rip | FLAC (image+.cue+log) - 266 MB | MP3 CBR 320 kbps (LAME 3.93) - 120 MB | Covers - 24 MB
Genre: Jazz | RAR 3% Rec. | Label: Pony Canyon (PCCY-30209)

Tracklist:
01. Evening in the Park
02. Anastasia
03. Polka Dots and Moonbeams
04. Isn't It Romantic
05. Smoke Gets in Your
06. My Romance
07. Yesterdays
08. Chateau en Suede
09. It Never Entered My Mind

Total time: 50:54

Exact Audio Copy V1.1 from 23. June 2015

EAC extraction logfile from 16. July 2015, 19:12

Kenny Drew Trio / Smoke Gets in Your Eyes

Used drive : ASUS DRW-24B1LT Adapter: 1 ID: 1

Read mode : Secure
Utilize accurate stream : Yes
Defeat audio cache : Yes
Make use of C2 pointers : No

Read offset correction : 6
Overread into Lead-In and Lead-Out : No
Fill up missing offset samples with silence : Yes
Delete leading and trailing silent blocks : No
Null samples used in CRC calculations : Yes
Used interface : Native Win32 interface for Win NT & 2000

Used output format : User Defined Encoder
Selected bitrate : 768 kBit/s
Quality : High
Add ID3 tag : No
Command line compressor : C:\Program Files\Exact Audio Copy\Flac\flac.exe
Additional command line options : -8 -V -T "ARTIST=%artist%" -T "TITLE=%title%" -T "ALBUM=%albumtitle%" -T "DATE=%year%" -T "TRACKNUMBER=%tracknr%" -T "TOTALTRACKS=%numtracks%" -T "GENRE=%genre%" -T "ALBUMARTIST=%albumartist%" -T "ALBUM ARTIST=%albumartist%" -T "COMMENT=EAC Secure Mode, Test & Copy, AccurateRip, FLAC -8" %source%


TOC of the extracted CD

Track | Start | Length | Start sector | End sector
––––––––––––––––––––––––––––-
1 | 0:00.00 | 6:38.41 | 0 | 29890
2 | 6:38.41 | 6:33.33 | 29891 | 59398
3 | 13:11.74 | 6:28.31 | 59399 | 88529
4 | 19:40.30 | 4:16.62 | 88530 | 107791
5 | 23:57.17 | 4:34.27 | 107792 | 128368
6 | 28:31.44 | 5:06.42 | 128369 | 151360
7 | 33:38.11 | 6:36.64 | 151361 | 181124
8 | 40:15.00 | 4:20.24 | 181125 | 200648
9 | 44:35.24 | 6:19.12 | 200649 | 229085


Range status and errors

Selected range

Filename F:\audio\Kenny Drew Trio - Smoke Gets in Your Eyes.wav

Peak level 99.5 %
Extraction speed 3.0 X
Range quality 100.0 %
Test CRC 7A6AD98A
Copy CRC 7A6AD98A
Copy OK

No errors occurred


AccurateRip summary

Track 1 accurately ripped (confidence 6) [A831B2C4] (AR v2)
Track 2 accurately ripped (confidence 6) [E3989E64] (AR v2)
Track 3 accurately ripped (confidence 5) [82F4FBEF] (AR v2)
Track 4 accurately ripped (confidence 6) [C9F98634] (AR v2)
Track 5 accurately ripped (confidence 6) [E78696F9] (AR v2)
Track 6 accurately ripped (confidence 6) [9B890108] (AR v2)
Track 7 accurately ripped (confidence 6) [E9617F4D] (AR v2)
Track 8 accurately ripped (confidence 6) [D0E70173] (AR v2)
Track 9 accurately ripped (confidence 6) [96000D6C] (AR v2)

All tracks accurately ripped

End of status report

–– CUETools DB Plugin V2.1.6

[CTDB TOCID: vvnhZSoW5jEnb5w82jPDNVAgvTE-] disk not present in database
Submit result: vvnhZSoW5jEnb5w82jPDNVAgvTE- has been uploaded


==== Log checksum B36F1F8DF33AE03D530D0CD9C860368B948401501845E95BC03278A15D4C3484 ====

[CUETools log; Date: 24.02.2018 20:24:34; Version: 2.1.4]
[CTDB TOCID: vvnhZSoW5jEnb5w82jPDNVAgvTE-] found.
Track | CTDB Status
1 | (12/12) Accurately ripped
2 | (12/12) Accurately ripped
3 | (12/12) Accurately ripped
4 | (12/12) Accurately ripped
5 | (12/12) Accurately ripped
6 | (12/12) Accurately ripped
7 | (12/12) Accurately ripped
8 | (12/12) Accurately ripped
9 | (12/12) Accurately ripped
[AccurateRip ID: 0011f28a-0081cc86-6a0bee09] found.
Track [ CRC | V2 ] Status
01 [620c0cc1|a831b2c4] (0+8/8) Accurately ripped
02 [b9d1863b|e3989e64] (0+8/8) Accurately ripped
03 [8c3bff95|82f4fbef] (0+7/7) Accurately ripped
04 [bb9a7f26|c9f98634] (0+8/8) Accurately ripped
05 [9d9a2813|e78696f9] (0+8/8) Accurately ripped
06 [4de83ced|9b890108] (0+8/8) Accurately ripped
07 [2130f9c7|e9617f4d] (0+8/8) Accurately ripped
08 [31311d1c|d0e70173] (0+8/8) Accurately ripped
09 [06aeb4c2|96000d6c] (0+8/8) Accurately ripped

Track Peak [ CRC32 ] [W/O NULL] [ LOG ]
– 99,5 [7A6AD98A] [CAFA132F] CRC32
01 99,3 [1AD64D97] [06B08BAF]
02 65,0 [BBE7AEB7] [E63A99DB]
03 93,8 [D69B9D4C] [897E7814]
04 62,3 [8F16C13E] [E7B2CF96]
05 83,4 [FF3F295F] [B66D5CF1]
06 99,5 [D7E65021] [1398CD5B]
07 99,2 [D9969851] [05A8B060]
08 98,8 [B311509D] [2722CBC3]
09 61,5 [119C7A38] [47B23CFC]

Kenny Drew Trio - Kenny's Music Still Live On [Recorded 1978-1992] [7 Albums] (2013)

Kenny Drew Trio - Kenny's Music Still Live On: Live in Tokyo [Recorded 1991] (2013)
EAC Rip | FLAC (image+.cue+log) - 382 MB | MP3 CBR 320 kbps (LAME 3.93) - 140 MB | Covers - 24 MB
Genre: Jazz | RAR 3% Rec. | Label: Pony Canyon (PCCY-30210)

Tracklist:
01. There Is No Greater Love
02. All Blues
03. Don't Explain
04. Caravan
05. You Don't Know What Love Is
06. St. Thomas
07. Yesterdays
08. Bluesology

Total time: 59:34

Exact Audio Copy V1.1 from 23. June 2015

EAC extraction logfile from 16. July 2015, 18:32

Kenny Drew Trio / Live in Tokyo

Used drive : ASUS DRW-24B1LT Adapter: 1 ID: 1

Read mode : Secure
Utilize accurate stream : Yes
Defeat audio cache : Yes
Make use of C2 pointers : No

Read offset correction : 6
Overread into Lead-In and Lead-Out : No
Fill up missing offset samples with silence : Yes
Delete leading and trailing silent blocks : No
Null samples used in CRC calculations : Yes
Used interface : Native Win32 interface for Win NT & 2000

Used output format : User Defined Encoder
Selected bitrate : 768 kBit/s
Quality : High
Add ID3 tag : No
Command line compressor : C:\Program Files\Exact Audio Copy\Flac\flac.exe
Additional command line options : -8 -V -T "ARTIST=%artist%" -T "TITLE=%title%" -T "ALBUM=%albumtitle%" -T "DATE=%year%" -T "TRACKNUMBER=%tracknr%" -T "TOTALTRACKS=%numtracks%" -T "GENRE=%genre%" -T "ALBUMARTIST=%albumartist%" -T "ALBUM ARTIST=%albumartist%" -T "COMMENT=EAC Secure Mode, Test & Copy, AccurateRip, FLAC -8" %source%


TOC of the extracted CD

Track | Start | Length | Start sector | End sector
––––––––––––––––––––––––––––-
1 | 0:00.00 | 8:02.24 | 0 | 36173
2 | 8:02.24 | 12:25.66 | 36174 | 92114
3 | 20:28.15 | 7:01.66 | 92115 | 123755
4 | 27:30.06 | 5:45.42 | 123756 | 149672
5 | 33:15.48 | 6:54.71 | 149673 | 180793
6 | 40:10.44 | 4:53.65 | 180794 | 202833
7 | 45:04.34 | 6:47.07 | 202834 | 233365
8 | 51:51.41 | 7:42.19 | 233366 | 268034


Range status and errors

Selected range

Filename F:\audio\Kenny Drew Trio - Live in Tokyo.wav

Peak level 99.2 %
Extraction speed 5.8 X
Range quality 100.0 %
Test CRC BE62E7CD
Copy CRC BE62E7CD
Copy OK

No errors occurred


AccurateRip summary

Track 1 accurately ripped (confidence 3) [4251258F] (AR v2)
Track 2 accurately ripped (confidence 3) [1657D538] (AR v2)
Track 3 accurately ripped (confidence 3) [2130A999] (AR v2)
Track 4 accurately ripped (confidence 3) [FB17C05C] (AR v2)
Track 5 accurately ripped (confidence 3) [833C0773] (AR v2)
Track 6 accurately ripped (confidence 3) [F2DA51F8] (AR v2)
Track 7 accurately ripped (confidence 3) [262F4463] (AR v2)
Track 8 accurately ripped (confidence 3) [31F3BFDD] (AR v2)

All tracks accurately ripped

End of status report

–– CUETools DB Plugin V2.1.6

[CTDB TOCID: re_dbFK1v_bEAabvum.C02kRtog-] found
Submit result: re_dbFK1v_bEAabvum.C02kRtog- has been confirmed
Track | CTDB Status
1 | (3/3) Accurately ripped
2 | (3/3) Accurately ripped
3 | (3/3) Accurately ripped
4 | (3/3) Accurately ripped
5 | (3/3) Accurately ripped
6 | (3/3) Accurately ripped
7 | (3/3) Accurately ripped
8 | (3/3) Accurately ripped


==== Log checksum 8FBE13C5D7EBB45146380A720864157AB955CD5AA4A2E17A290F19BC286148C2 ====

[CUETools log; Date: 24.02.2018 20:24:58; Version: 2.1.4]
[CTDB TOCID: re_dbFK1v_bEAabvum.C02kRtog-] found.
Track | CTDB Status
1 | (15/15) Accurately ripped
2 | (15/15) Accurately ripped
3 | (15/15) Accurately ripped
4 | (15/15) Accurately ripped
5 | (15/15) Accurately ripped
6 | (15/15) Accurately ripped
7 | (15/15) Accurately ripped
8 | (15/15) Accurately ripped
[AccurateRip ID: 0013a25b-007fce78-600df508] found.
Track [ CRC | V2 ] Status
01 [4fe722fb|4251258f] (0+6/6) Accurately ripped
02 [13146683|1657d538] (0+6/6) Accurately ripped
03 [56c83a7a|2130a999] (0+6/6) Accurately ripped
04 [797b6f00|fb17c05c] (0+6/6) Accurately ripped
05 [7f9629c9|833c0773] (0+6/6) Accurately ripped
06 [a8527a73|f2da51f8] (0+6/6) Accurately ripped
07 [e9c40e3c|262f4463] (0+6/6) Accurately ripped
08 [a772b4ac|31f3bfdd] (0+6/6) Accurately ripped

Track Peak [ CRC32 ] [W/O NULL] [ LOG ]
– 99,1 [BE62E7CD] [A69662B1] CRC32
01 99,1 [48EC7703] [11EF6D45]
02 99,1 [2F2A5782] [891A0AF7]
03 99,1 [72554B39] [7B4C1667]
04 99,1 [CAC097E2] [FCB5DC0C]
05 99,1 [D78BC9B1] [984F296A]
06 99,1 [3D7A309E] [EA68ABF2]
07 99,1 [C073DBBE] [37C246DA]
08 99,1 [6D4286A0] [DEBA3D95]

Thanks to fiks22