Subcategories

Kerrs Pink - A Journey on the Inside (1993) [Reissue 2009]

Posted By: gribovar
Kerrs Pink - A Journey on the Inside (1993) [Reissue 2009]

Kerrs Pink - A Journey on the Inside (1993) [Reissue 2009]
EAC Rip | FLAC (image+.cue+log) - 453 MB | MP3 CBR 320 kbps (LAME 3.93) - 184 MB | Covers included
Genre: Progressive Folk Rock | RAR 3% Rec. | Label: Musea/MALS (MALS 297)

Kerrs Pink is one of the few Norwegian bands that chose to play Progressive rock music. Since the second part of the Seventies and its first eponymous album (1980), the group led by Harald Lytomt and Jostein Hansen mixes Scandinavian folklore and refined English art-rock music in the manner of Camel ("Mirage" era). The following year, "Mellom Oss" pursued and bettered this subtle blend, with even more symphonism. Reformed in 1989, Kerrs Pink worked on "A Journey On The Inside" (1993), a concept-album full of the strength and experience. "Art Of Complex Simplicity" (1997) offers themes stamped by great melodic and instrumental beauty, with superb guitar and keyboards parts. "Tidings" (2002) is its fifth album, with a new lead singer, and a second keyboardist. The band’s music has always been a clever and subtle mix of Scandinavian folk music and Progressive rock music. Here is one of the musicians’ best work, sophisticated and dynamic. Their music has lost nothing of its freshness and sincerity, but also now reveals a very professional talent for arrangements and playing. Beautiful melodies, nice guitar soli, ambitious musical structures: mixing influences like Camel or Pink Floyd amongst others, Kerrs Pink offers us an exceptional album, with a beautiful booklet and an excellent production.
Tracklist:
01. Prologue
02. Kingdom of Nothing
03. Mutual Attraction
04. Magic Mary
05. Journey
06. Act of Appearing
07. The Village
08. The Voice Inside Your Heart
09. The Initiator
10. Downtown Happy-Go-Lucky Bunch
11. The Sorcerer
12. Time for Thought
13. Showdown
14. The Merger
15. The Prisoner
16. Rubicon
17. Delirious
18. Epilogue

Total time: 01:12:44

Exact Audio Copy V1.0 beta 3 from 29. August 2011

Отчёт EAC об извлечении, выполненном 8. апреля 2012, 14:28

Kerrs Pink / A Journey on the Inside

Дисковод: Optiarc DVD RW AD-7560A Adapter: 0 ID: 0

Режим чтения : Достоверность
Использование точного потока : Да
Отключение кэша аудио : Да
Использование указателей C2 : Нет

Коррекция смещения при чтении : 6
Способность читать области Lead-in и Lead-out : Нет
Заполнение пропущенных сэмплов тишиной : Да
Удаление блоков с тишиной в начале и конце : Нет
При вычислениях CRC использовались нулевые сэмплы : Да
Интерфейс : Встроенный Win32-интерфейс для Win NT/2000

Выходной формат : Пользовательский кодировщик
Выбранный битрейт : 1024 kBit/s
Качество : Высокий
Добавление ID3-тега : Нет
Утилита сжатия : C:\Program Files\Exact Audio Copy\Flac\flac.exe
Дополнительные параметры : -V -8 -T "Genre=%genre%" -T "Artist=%artist%" -T "Title=%title%" -T "Album=%albumtitle%" -T "Date=%year%" -T "Tracknumber=%tracknr%" -T "Comment=%comment%" %source%


TOC извлечённого CD

Трек | Старт | Длительность | Начальный сектор | Конечный сектор
––––––––––––––––––––––––––––––––––-
1 | 0:00.32 | 0:20.13 | 32 | 1544
2 | 0:20.45 | 5:57.55 | 1545 | 28374
3 | 6:18.25 | 3:27.42 | 28375 | 43941
4 | 9:45.67 | 5:05.03 | 43942 | 66819
5 | 14:50.70 | 3:07.10 | 66820 | 80854
6 | 17:58.05 | 5:25.42 | 80855 | 105271
7 | 23:23.47 | 1:49.43 | 105272 | 113489
8 | 25:13.15 | 2:11.45 | 113490 | 123359
9 | 27:24.60 | 4:09.65 | 123360 | 142099
10 | 31:34.50 | 3:28.05 | 142100 | 157704
11 | 35:02.55 | 6:00.37 | 157705 | 184741
12 | 41:03.17 | 1:27.23 | 184742 | 191289
13 | 42:30.40 | 5:33.47 | 191290 | 216311
14 | 48:04.12 | 1:13.00 | 216312 | 221786
15 | 49:17.12 | 3:55.68 | 221787 | 239479
16 | 53:13.05 | 10:58.57 | 239480 | 288886
17 | 64:11.62 | 5:21.28 | 288887 | 312989
18 | 69:33.15 | 3:10.60 | 312990 | 327299


Характеристики диапазона извлечения и сообщения об ошибках

Выбранный диапазон

Имя файла D:\Veushka\Kerrs Pink - A Journey on the Inside.wav

Пиковый уровень 100.0 %
Скорость извлечения 3.3 X
Качество диапазона 99.9 %
CRC теста AE4A4649
CRC копии AE4A4649
Копирование… OK

Ошибок не произошло


AccurateRip: сводка

Трек 1 точность не определена (достоверность 2) [00578DD7], AccurateRip вернул [49B01257] (AR v2)
Трек 2 точность не определена (достоверность 2) [79ABE521], AccurateRip вернул [A95572C8] (AR v2)
Трек 3 отсутствует в базе данных
Трек 4 отсутствует в базе данных
Трек 5 отсутствует в базе данных
Трек 6 отсутствует в базе данных
Трек 7 отсутствует в базе данных
Трек 8 отсутствует в базе данных
Трек 9 отсутствует в базе данных
Трек 10 отсутствует в базе данных
Трек 11 отсутствует в базе данных
Трек 12 точность не определена (достоверность 2) [AE808E40], AccurateRip вернул [20D3465C] (AR v2)
Трек 13 точность не определена (достоверность 2) [E8BD09C8], AccurateRip вернул [D8D70C5C] (AR v2)
Трек 14 точность не определена (достоверность 2) [B3602824], AccurateRip вернул [C82E32D2] (AR v2)
Трек 15 точность не определена (достоверность 2) [71C21FDC], AccurateRip вернул [4640E2DB] (AR v2)
Трек 16 точность не определена (достоверность 2) [23D56409], AccurateRip вернул [5B036F5C] (AR v2)
Трек 17 точность не определена (достоверность 2) [FC2578EF], AccurateRip вернул [A3D4A421] (AR v2)
Трек 18 точность не определена (достоверность 2) [543A2E59], AccurateRip вернул [596A65E8] (AR v2)

9 трек(и) не удалось проверить на точность
9 трек(и) не содержатся в базе AccurateRip

Ни один трек не прошёл проверки на точность
В вашей базе может быть иной вариант штамповки диска

Конец отчёта

==== Контрольная сумма отчёта 43EA92C565C93AB0B8D60F52B3F6DDF1879AAAB59FFED7BA5C156E3D9A50C222 ====

[CUETools log; Date: 25.02.2013 10:34:46; Version: 2.0.9]
Pregap length 00:00:32.
[AccurateRip ID: 002b6e4c-024db97e-0e110c12] found.
Track [ CRC ] Status
01 [2a52e6b1] (0/2) No match
02 [330516e1] (0/2) No match
03 [0ae9b5df] (0/0) No match
04 [a810e89a] (0/0) No match
05 [669f4c45] (0/0) No match
06 [f92f7384] (0/0) No match
07 [3089e7d0] (0/0) No match
08 [64044259] (0/0) No match
09 [fcd3623b] (0/0) No match
10 [456a7cb8] (0/0) No match
11 [57a94d05] (0/0) No match
12 [2684607c] (0/2) No match
13 [5e7bc1c3] (0/2) No match
14 [0dc1123b] (0/2) No match
15 [c8d31063] (0/2) No match
16 [1c91f31c] (0/2) No match
17 [3db77871] (0/2) No match
18 [fb60ee3d] (0/2) No match
Offsetted by 664:
01 [49b01257] (2/2) Accurately ripped
02 [a95572c8] (2/2) Accurately ripped
03 [dab67636] (0/0) No match
04 [a6bb519a] (0/0) No match
05 [f8886c2d] (0/0) No match
06 [22c5b14c] (0/0) No match
07 [9a758f10] (0/0) No match
08 [bebb5659] (0/0) No match
09 [af25bdc3] (0/0) No match
10 [1fd4cec0] (0/0) No match
11 [73580b35] (0/0) No match
12 [20d3465c] (2/2) Accurately ripped
13 [d8d70c5c] (2/2) Accurately ripped
14 [c82e32d2] (2/2) Accurately ripped
15 [4640e2db] (2/2) Accurately ripped
16 [5b036f5c] (2/2) Accurately ripped
17 [a3d4a421] (2/2) Accurately ripped
18 [596a65e8] (2/2) Accurately ripped

Track Peak [ CRC32 ] [W/O NULL] [ LOG ]
– 100,0 [AE4A4649] [F0D7CB65] CRC32
01 28,2 [316478FF] [88BE136D]
02 98,9 [5CB7FC71] [1FE19849]
03 48,5 [3C38C97D] [CC1AC9BD]
04 100,0 [19C0AC48] [224E5777]
05 96,4 [DACA7BD0] [B5B7DB2F]
06 96,5 [CC52C255] [10A54CEA]
07 43,5 [41EE85C7] [B8557156]
08 72,3 [1065BEBE] [161105F1]
09 90,2 [AEB6AD6D] [4DD3C1BE]
10 96,9 [82BF8CF9] [449ADA55]
11 100,0 [A928EF88] [37D50F27]
12 88,2 [5835C17D] [70929EAC]
13 96,8 [750D9B43] [AC789D18]
14 77,0 [24ED512B] [CD8C0896]
15 97,2 [39FA2736] [1CD99CE1]
16 95,6 [F38FC62C] [9B01B156]
17 95,7 [B094035D] [106A9C2C]
18 91,0 [ED6907ED] [D4A942BE]

Thanks to veushka
LOSSLESS:

Filepost.com
________________

MP3 320 kbps:

Filepost.com