Subcategories

Kerrs Pink - Kerrs Pink (1980) [Reissue 2009]

Posted By: gribovar
Kerrs Pink - Kerrs Pink (1980) [Reissue 2009]

Kerrs Pink - Kerrs Pink (1980) [Reissue 2009]
EAC Rip | FLAC (image+.cue+log) - 504 MB | MP3 CBR 320 kbps (LAME 3.93) - 285 MB | Covers included
Genre: Progressive Rock | RAR 3% Rec. | Label: MALS (MALS 301)

A legend of the Norwegian prog scene, Kerrs Pink started under the name ''Cash Pink'' and we have to go back in May 1972 in the small town of Trømborg to find their early beginnings with bassist Jostein Hansen forming the band. Guitarist Harald Lymtot joined soon after, while several members came and go in a 5 year period. 1977, after the band was renamed to Kerrs Pink, keyboardist Halvar Haugerud joins them and he has been a consistent member since then. After playing a great number of lives, the first album was released as self-titled on Pottittskiver in 1980. This is quite relaxed progressive rock in general with lots of psychedelic elements, light Folk influences and a heavy amount of melodic guitars. Lymtot is in the center of the arrangements, delivering very melodic work in the vein of Andy Latimer with nice solos here and there, but the Norwegian vocals add the appropriate Scandinavian flavor. The calmer parts have an intense Blues/Psychedelic feeling, while Haugerud seems to be playing a b-role, despite using a variety of keys. Keyboards are very distinctive and soft, the same thing with a couple of flute parts. So, melodic guitar-driven prog is the stuff here.
Tracklist:
01. Velkomst / Welcome
02. Sett Dem Bare Ned / Please be Seated
03. Barkbillens Flukt / The Flight of the Bark Beetle
04. Sang Fra Skogen / Song from the Wilderness
05. Pimpernelle / Pimpernelle
06. Parringsstevet / Copulation Theme
07. Bamse Brakar / Brer Bear
08. Sirrus / Sirrus
09. Hvis Jeg Er Der Neste Aar / If I`m Still Here Next Year
10. Avskjed / Departure
11. Kong Edvardt / King Edvardt (Bonus track)
12. Feberlaaten / The Fever Theme (Bonus track)

Total time: 57:14

Exact Audio Copy V0.99 prebeta 5 from 4. May 2009

Отчёт EAC об извлечении, выполненном 12. октября 2010, 3:19

Kerrs Pink / Kerrs Pink

Дисковод: PIONEER DVD-RW DVR-115D Adapter: 1 ID: 0

Режим чтения : Достоверность
Использование точного потока : Да
Отключение кэша аудио : Да
Использование указателей C2 : Нет

Коррекция смещения при чтении : 48
Способность читать области Lead-in и Lead-out : Нет
Заполнение пропущенных сэмплов тишиной : Да
Удаление блоков с тишиной в начале и конце : Нет
При вычислениях CRC использовались нулевые сэмплы : Да
Интерфейс : Установленный внешний ASPI-интерфейс

Выходной формат : Внутренние WAV-операции
Формат сэмплов : 44.100 Гц; 16 бит; стерео


TOC извлечённого CD

Трек | Старт | Длительность | Начальный сектор | Конечный сектор
––––––––––––––––––––––––––––––––––-
1 | 0:00.33 | 2:45.02 | 33 | 12409
2 | 2:45.35 | 6:47.28 | 12410 | 42962
3 | 9:32.63 | 3:52.35 | 42963 | 60397
4 | 13:25.23 | 4:37.07 | 60398 | 81179
5 | 18:02.30 | 5:32.38 | 81180 | 106117
6 | 23:34.68 | 3:56.02 | 106118 | 123819
7 | 27:30.70 | 3:23.05 | 123820 | 139049
8 | 30:54.00 | 4:26.45 | 139050 | 159044
9 | 35:20.45 | 6:34.23 | 159045 | 188617
10 | 41:54.68 | 6:36.40 | 188618 | 218357
11 | 48:31.33 | 4:41.55 | 218358 | 239487
12 | 53:13.13 | 4:00.50 | 239488 | 257537


Характеристики диапазона извлечения и сообщения об ошибках

Выбранный диапазон

Имя файла E:\AUDIO\Kerrs Pink\Kerrs Pink - Kerrs Pink - 1980\Kerrs Pink - Kerrs Pink.wav

Пиковый уровень 92.3 %
Качество диапазона 100.0 %
CRC копии 9C5F3CB0
Копирование… OK

Ошибок не произошло

Конец отчёта
_________________________

Checking AccurateRip database (22.01.2013)

Track Ripping Status [Disc ID: 0018db5b-a00d690c]

1 Accurately Ripped (confidence 2) [53f31883]
2 Accurately Ripped (confidence 2) [8fbf07f7]
3 Accurately Ripped (confidence 2) [a84afa27]
4 Accurately Ripped (confidence 2) [a057cc3d]
5 Accurately Ripped (confidence 2) [6b09abd3]
6 Accurately Ripped (confidence 2) [01a4cfa4]
7 Accurately Ripped (confidence 2) [e9aacf01]
8 Accurately Ripped (confidence 2) [1cff514b]
9 Accurately Ripped (confidence 2) [6500f8db]
10 Accurately Ripped (confidence 2) [91c07ff2]
11 Accurately Ripped (confidence 2) [8b0dbfaf]
12 Accurately Ripped (confidence 2) [13d92345]

_______________________

All Tracks Accurately Ripped.

Thanks to Swamp Fox
LOSSLESS:

Filepost.com
________________

MP3 320 kbps:

Filepost.com