Subcategories

Kerrs Pink - Tidings (2002)

Posted By: gribovar
Kerrs Pink - Tidings (2002)

Kerrs Pink - Tidings (2002)
EAC Rip | FLAC (image+.cue+log) - 386 MB | MP3 CBR 320 kbps (LAME 3.93) - 147 MB | Covers included
Genre: Progressive Rock | RAR 3% Rec. | Label: Musea/MALS (MALS 091)

Five years after Art of Complex Simplicity, Kerrs Pink came back with a revamped lineup and a very strong album, the kind that borders on masterpiece status. Longtime members Jostein Hansen (bass) and Harald Lytomt (guitars) are joined by keyboardist Freddy Ruud (who had stepped in just in time for the previous record), keyboardist Lasse Johansen, drummer Knut R. Lie, and lead singer Lasse Tanderø. The latter shares vocal duties with two female singers, Tracee Meyn and Lillian Høidal. Three of the seven pieces have been penned by Ruud. They take liberties with prog rock rules, introducing variety - like a blues-rock episode in "Moments in Life" - and more accessible melodies. Three are the work of Lytomt and Hansen. They draw on Scandinavian folk and symphonic progressive rock to build up superb momentum and exquisite beauty. The reason why Tidings works so well resides in the balance struck between the two teams of songwriters. Solid execution, excellent production, and special care in the arrangements wrap up the gift with all the extras. These songs sound like they have been carefully polished without taking off their vitality. "Tidings From Some Distant Shore" and "Yumi Yeda" hit artistic peaks, but each track has its lovable features. Fans of Peter Gabriel-era Genesis and Flower Kings should definitely check out this album, one of the best "classic" prog rock opuses released in 2002.

Tracklist:
01. Hour Glass
02. Tidings From Distant Shore
03. Shooting Star
04. Yumi Yeda
05. Moments In Life
06. Mystic Dream
07. Le Sable S'est Ecoulé

Total time: 58:01

Exact Audio Copy V0.99 prebeta 4 from 23. January 2008

Отчёт EAC об извлечении, выполненном 18. августа 2008, 20:00

Kerrs Pink / Tidings

Дисковод: Optiarc DVD RW AD-7200S Adapter: 4 ID: 0

Режим чтения : Достоверность
Использование точного потока : Да
Отключение кэша аудио : Да
Использование указателей C2 : Нет

Комбинированное смещение чтения/записи : 48
Способность читать области Lead-in и Lead-out : Нет
Заполнение пропущенных сэмплов тишиной : Да
Удаление блоков с тишиной в начале и конце : Нет
При вычислениях CRC использовались нулевые сэмплы : Да
Интерфейс : Установленный внешний ASPI-интерфейс

Выходной формат : Пользовательский кодировщик
Выбранный битрейт : 768 kBit/s
Качество : Высокий
Добавление ID3-тэга : Нет
Утилита сжатия : C:\Program Files\Exact Audio Copy\FLAC\FLAC.EXE
Дополнительные параметры : -6 -V -T "ARTIST=%a" -T "TITLE=%t" -T "ALBUM=%g" -T "DATE=%y" -T "TRACKNUMBER=%n" -T "GENRE=%m" -T "COMMENT=%e" %s -o %d


TOC извлечённого CD

Трек | Старт | Длительность | Начальный сектор | Конечный сектор
––––––––––––––––––––––––––––––––––-
1 | 0:00.00 | 5:33.28 | 0 | 25002
2 | 5:33.28 | 8:31.34 | 25003 | 63361
3 | 14:04.62 | 9:40.60 | 63362 | 106921
4 | 23:45.47 | 10:18.41 | 106922 | 153312
5 | 34:04.13 | 8:36.35 | 153313 | 192047
6 | 42:40.48 | 9:48.25 | 192048 | 236172
7 | 52:28.73 | 5:31.63 | 236173 | 261060


Характеристики диапазона извлечения и сообщения об ошибках

Выбранный диапазон

Имя файла E:\avm\Upload\Kerrs Pink-Tidings\Unknown Artist - Tidings.wav

Пиковый уровень 96.6 %
Качество диапазона 100.0 %
CRC копии 2018A38B
Копирование… OK

Ошибок не произошло

Конец отчёта

[CUETools log; Date: 23.02.2013 10:41:11; Version: 2.0.9]
[AccurateRip ID: 000fd63a-0060900d-510d9807] found.
Track [ CRC ] Status
01 [e9aa6a6a] (0/3) No match
02 [051e1b7d] (0/3) No match
03 [ae9389c4] (0/3) No match
04 [5905a1d0] (0/2) No match
05 [b3cfe5d8] (0/2) No match
06 [b857e360] (0/3) No match
07 [90230f44] (0/3) No match
Offsetted by 664:
01 [390ac953] (3/3) Accurately ripped
02 [2fddb98d] (3/3) Accurately ripped
03 [ca16fab4] (3/3) Accurately ripped
04 [b512af88] (2/2) Accurately ripped
05 [b51779b0] (2/2) Accurately ripped
06 [d8c46470] (3/3) Accurately ripped
07 [2df08bbe] (3/3) Accurately ripped

Track Peak [ CRC32 ] [W/O NULL] [ LOG ]
– 96,6 [2018A38B] [7113B7FA] CRC32
01 96,6 [5D4F2F6C] [931E146E]
02 96,6 [7E0D85FC] [AE326AD0]
03 96,6 [EFD52F04] [BC28CC05]
04 96,6 [3BBC65D7] [0031E41A]
05 96,6 [8867DB42] [724BA278]
06 96,6 [5A5658EB] [44FCE94D]
07 96,6 [6FE82CFE] [BC9622A5]

Thanks to jingara
LOSSLESS:

Filepost.com
________________

MP3 320 kbps:

Filepost.com