Tags
Language
Tags

Killers - Menace To Society (1994) {Japan 1st Press}

Posted By: popsakov
Killers - Menace To Society (1994) {Japan 1st Press}

Killers - Menace To Society (1994) {Japan 1st Press}
EAC Rip | WavPack (Img) + Cue + Log ~ 448 Mb | MP3 CBR320 ~ 147 Mb
Covers Included | 00:58:46 | RAR 5% Recovery
Music For Nations / Bleeding Hearts Records / Pony Canyon Inc. #PCCY-00689
Heavy Metal

The second studio album by the heavy metal band Killers, led by Iron Maiden's ex-vocalist - Paul Di'Anno. Coming together in 1991, Killers was one of the first metal super groups to exist. Featuring members from bands including Iron Maiden, Tank, Raven and Battlezone, they were hailed by the press as the 'Natural successor to Judas Priest'. With their album ""Menace to Society"" awarded Metal Hammer's best new album of 1994 and a world tour which included headlining the famous Wacken Festival in Germany, Killers represent all that is British Metal at it's very best. After the great response from the 'Murder One' album and constant touring, the band returned to the UK to start work on the follow up studio album. Unfortunately Di'Anno had decided to stay in Los Angeles for a while for a short break. While there he managed to get himself arrested for drugs and firearms offense's and was sentenced to 3 months in Los Angeles county jail. Not to be deterred by this the band continued to write new material and sent cassette tapes to Paul in jail so he could work on lyrics. When released he was deported back to the UK and the band entered the studio to record the ""Menace To Society"" album. The songs were much more aggressive than before and were clearly influenced by his time behind bars. The album was awarded 'Best New Album' in German Metal Hammer magazine.

***************

Killers - Menace To Society (1994) {Japan 1st Press}

Killers - Menace To Society (1994) {Japan 1st Press}

Track List:

01. Advance And Be Recognised [0:01:05.55]
02. Die By The Gun [0:04:01.00]
03. Menace To Society [0:02:50.67]
04. ? [0:05:04.13]
05. Think Brutal [0:04:02.67]
06. Past Due [0:04:51.70]
07. Faith Healer [0:06:14.15]
08. Chemical Imbalance [0:04:38.45]
09. A Song For You [0:04:22.65]
10. Three Words [0:05:46.53]
11. Conscience [0:05:38.22]
12. City Of Fools [0:03:09.05]
13. Wrathchild (LIVE) [0:03:07.33]
14. Sanctuary (LIVE) [0:03:51.57]

Personnel:
Bass, Backing Vocals - Gavin Cooper
Drums, Percussion, Backing Vocals - Steve Hopgood
Guitar - Cliff Evans
Vocals - Paul Di’anno

Exact Audio Copy V1.2 from 12. August 2016

EAC extraction logfile from 21. April 2018, 14:54

Killers / Menace To Society [PCCY-00689]

Used drive : HL-DT-STBD-RE BH10LS38 Adapter: 1 ID: 1

Read mode : Secure
Utilize accurate stream : Yes
Defeat audio cache : Yes
Make use of C2 pointers : No

Read offset correction : 667
Overread into Lead-In and Lead-Out : No
Fill up missing offset samples with silence : Yes
Delete leading and trailing silent blocks : No
Null samples used in CRC calculations : Yes
Used interface : Installed external ASPI interface

Used output format : User Defined Encoder
Selected bitrate : 128 kBit/s
Quality : High
Add ID3 tag : No
Command line compressor : C:\Program Files (x86)\Exact Audio Copy\wavpack-4.60.1\wavpack.exe
Additional command line options : -hm -w "Year=%year%" -w "Genre=%genre%" %source% %dest%


TOC of the extracted CD

Track | Start | Length | Start sector | End sector
––––––––––––––––––––––––––––-
1 | 0:00.00 | 1:05.55 | 0 | 4929
2 | 1:05.55 | 4:01.00 | 4930 | 23004
3 | 5:06.55 | 2:50.67 | 23005 | 35821
4 | 7:57.47 | 5:04.13 | 35822 | 58634
5 | 13:01.60 | 4:02.67 | 58635 | 76851
6 | 17:04.52 | 4:51.70 | 76852 | 98746
7 | 21:56.47 | 6:14.15 | 98747 | 126811
8 | 28:10.62 | 4:38.45 | 126812 | 147706
9 | 32:49.32 | 4:22.65 | 147707 | 167421
10 | 37:12.22 | 5:46.53 | 167422 | 193424
11 | 42:59.00 | 5:38.22 | 193425 | 218796
12 | 48:37.22 | 3:09.05 | 218797 | 232976
13 | 51:46.27 | 3:07.33 | 232977 | 247034
14 | 54:53.60 | 3:51.57 | 247035 | 264416


Range status and errors

Selected range

Filename G:\Rips by Alder\Killers - Menace To Society [PCCY-00689].wav

Peak level 100.0 %
Extraction speed 7.6 X
Range quality 99.9 %
Test CRC 0F6A4444
Copy CRC 0F6A4444
Copy OK

No errors occurred


AccurateRip summary

Track 1 cannot be verified as accurate (confidence 2) [01794C8C], AccurateRip returned [871C5259] (AR v2)
Track 2 cannot be verified as accurate (confidence 2) [2833D933], AccurateRip returned [C029C44B] (AR v2)
Track 3 cannot be verified as accurate (confidence 2) [3E32BCE4], AccurateRip returned [BEF6AC2B] (AR v2)
Track 4 cannot be verified as accurate (confidence 2) [AD505BB1], AccurateRip returned [B3A01DF0] (AR v2)
Track 5 cannot be verified as accurate (confidence 2) [8D4E89F6], AccurateRip returned [97D08B24] (AR v2)
Track 6 cannot be verified as accurate (confidence 2) [3C8A0557], AccurateRip returned [21D525D2] (AR v2)
Track 7 cannot be verified as accurate (confidence 2) [305B6121], AccurateRip returned [EAD6A686] (AR v2)
Track 8 cannot be verified as accurate (confidence 2) [BEBC8205], AccurateRip returned [380CFF1A] (AR v2)
Track 9 cannot be verified as accurate (confidence 2) [365527AE], AccurateRip returned [79710D83] (AR v2)
Track 10 cannot be verified as accurate (confidence 2) [19975FD8], AccurateRip returned [507220B6] (AR v2)
Track 11 cannot be verified as accurate (confidence 2) [263DC99D], AccurateRip returned [F362E3CB] (AR v2)
Track 12 cannot be verified as accurate (confidence 2) [B6F50107], AccurateRip returned [F8A091E2] (AR v2)
Track 13 cannot be verified as accurate (confidence 2) [59CB78D3], AccurateRip returned [16D59965] (AR v2)
Track 14 cannot be verified as accurate (confidence 2) [893A9AC8], AccurateRip returned [63A1FF3C] (AR v2)

No tracks could be verified as accurate
You may have a different pressing from the one(s) in the database

End of status report

–– CUETools DB Plugin V2.1.6

[CTDB TOCID: rPmRTI4wUd8NyRmAiS81BATH32U-] found
Submit result: rPmRTI4wUd8NyRmAiS81BATH32U- has been confirmed
Track | CTDB Status
1 | (4/4) Accurately ripped
2 | (4/4) Accurately ripped
3 | (4/4) Accurately ripped
4 | (4/4) Accurately ripped
5 | (4/4) Accurately ripped
6 | (4/4) Accurately ripped
7 | (4/4) Accurately ripped
8 | (4/4) Accurately ripped
9 | (4/4) Accurately ripped
10 | (4/4) Accurately ripped
11 | (4/4) Accurately ripped
12 | (4/4) Accurately ripped
13 | (4/4) Accurately ripped
14 | (4/4) Accurately ripped


==== Log checksum 62CC9F08F2F06589F16661BE9EF0EDAFFC59775CE93FE2D88C6FE55ED0DA0006 ====

foobar2000 1.3.16 / Dynamic Range Meter 1.1.1
log date: 2018-04-22 13:30:16

––––––––––––––––––––––––––––––––––––––––
Analyzed: Killers / Menace To Society [PCCY-00689]
––––––––––––––––––––––––––––––––––––––––

DR Peak RMS Duration Track
––––––––––––––––––––––––––––––––––––––––
DR9 -0.14 dB -10.10 dB 1:06 01-Advance And Be Recognised
DR8 -0.14 dB -9.87 dB 4:01 02-Die By The Gun
DR11 0.00 dB -12.28 dB 2:51 03-Menace To Society
DR11 -0.14 dB -12.35 dB 5:04 04-?
DR10 -0.14 dB -10.93 dB 4:03 05-Think Brutal
DR11 0.00 dB -14.17 dB 4:52 06-Past Due
DR10 0.00 dB -11.79 dB 6:14 07-Faith Healer
DR9 0.00 dB -10.11 dB 4:39 08-Chemical Imbalance
DR10 -0.14 dB -11.98 dB 4:23 09-A Song For You
DR11 -0.14 dB -13.58 dB 5:47 10-Three Words
DR11 -0.14 dB -13.03 dB 5:38 11-Conscience
DR11 -0.14 dB -12.33 dB 3:09 12-City Of Fools
DR9 0.00 dB -10.88 dB 3:07 13-Wrathchild (LIVE)
DR9 0.00 dB -11.56 dB 3:52 14-Sanctuary (LIVE)
––––––––––––––––––––––––––––––––––––––––

Number of tracks: 14
Official DR value: DR10

Samplerate: 44100 Hz
Channels: 2
Bits per sample: 16
Bitrate: 1002 kbps
Codec: WavPack
================================================================================

[CUETools log; Date: 22.04.2018 13:30:32; Version: 2.1.6]
[CTDB TOCID: rPmRTI4wUd8NyRmAiS81BATH32U-] found.
Track | CTDB Status
1 | (5/5) Accurately ripped
2 | (5/5) Accurately ripped
3 | (5/5) Accurately ripped
4 | (5/5) Accurately ripped
5 | (5/5) Accurately ripped
6 | (5/5) Accurately ripped
7 | (5/5) Accurately ripped
8 | (5/5) Accurately ripped
9 | (5/5) Accurately ripped
10 | (5/5) Accurately ripped
11 | (5/5) Accurately ripped
12 | (5/5) Accurately ripped
13 | (5/5) Accurately ripped
14 | (5/5) Accurately ripped
[AccurateRip ID: 001cf087-013ecb1c-c90dc50e] found.
Track [ CRC | V2 ] Status
01 [78d403ae|01794c8c] (0+0/2) No match
02 [ee48b15e|2833d933] (0+0/2) No match
03 [49fe5f4f|3e32bce4] (0+0/2) No match
04 [d4546074|ad505bb1] (0+0/2) No match
05 [661f1a24|8d4e89f6] (0+0/2) No match
06 [308cdfc2|3c8a0557] (0+0/2) No match
07 [9ba93816|305b6121] (0+0/2) No match
08 [89f06022|bebc8205] (0+0/2) No match
09 [8d162ca3|365527ae] (0+0/2) No match
10 [4364ecb9|19975fd8] (0+0/2) No match
11 [7c149564|263dc99d] (0+0/2) No match
12 [c84f359a|b6f50107] (0+0/2) No match
13 [e52c99b5|59cb78d3] (0+0/2) No match
14 [0029857e|893a9ac8] (0+0/2) No match
Offsetted by -664:
01 [871c5259] (2/2) Accurately ripped
02 [c029c44b] (2/2) Accurately ripped
03 [bef6ac2b] (2/2) Accurately ripped
04 [b3a01df0] (2/2) Accurately ripped
05 [97d08b24] (2/2) Accurately ripped
06 [21d525d2] (2/2) Accurately ripped
07 [ead6a686] (2/2) Accurately ripped
08 [380cff1a] (2/2) Accurately ripped
09 [79710d83] (2/2) Accurately ripped
10 [507220b6] (2/2) Accurately ripped
11 [f362e3cb] (2/2) Accurately ripped
12 [f8a091e2] (2/2) Accurately ripped
13 [16d59965] (2/2) Accurately ripped
14 [63a1ff3c] (2/2) Accurately ripped

Track Peak [ CRC32 ] [W/O NULL] [ LOG ]
– 100,0 [0F6A4444] [0E83F751] CRC32
01 98,3 [EE1B5561] [E8EA0D94]
02 98,3 [715D0301] [61A7597F]
03 100,0 [C8F015BD] [10BE569D]
04 98,4 [CF84088B] [8A0E7924]
05 98,4 [0B834386] [21EC80F0]
06 100,0 [FB95D5A7] [914BA0DA]
07 100,0 [AB45CC94] [69E336C3]
08 100,0 [3F0E146C] [A7CF405C]
09 98,4 [7309B558] [EFDCBEE4]
10 98,4 [FB7D1E49] [AC4D7015]
11 98,4 [B756F8D4] [FB4EF2C1]
12 98,4 [88A74EC4] [D8C3F4ED]
13 100,0 [CDC89677] [9311DA37]
14 100,0 [04C9B179] [BCA844AC]

Killers - Menace To Society (1994) {Japan 1st Press}


All thanks go to Alder

>>> My Blog <<<

DOWNLOAD: