Subcategories
Tags
Language
Tags

Kim Wilde - Premium Gold Collection (1996)

Posted By: popsakov
Kim Wilde - Premium Gold Collection (1996)

Kim Wilde - Premium Gold Collection (1996)
EAC Rip | FLAC (Img) + Cue + Log ~ 510 Mb | MP3 CBR320 ~ 194 Mb
Full Scans | 01:13:17 | RAR 5% Recovery
Synth-Pop, New Wave, Dance-Pop | EMI Electrola #7243 8 37792 2 2

Kim Wilde is an English pop singer, DJ and television presenter. She first saw success in 1981 with her debut single "Kids in America", which reached number two in the UK. In 1983, she received the Brit Award for Best British Female solo artist. In 1986, she had a UK number two hit with a reworked version of the Supremes' song "You Keep Me Hangin' On", which also topped the US Billboard Hot 100 in 1987. Between 1981 and 1996, she had 25 singles reach the Top 50 of the UK singles chart. Her other hits include "Chequered Love" (1981), "You Came" (1988) and "Never Trust a Stranger" (1988). In 2003, she collaborated with Nena on the song "Anyplace, Anywhere, Anytime", which topped the Dutch charts. Worldwide, Wilde has sold over 10 million albums and 20 million singles. She holds the record for being the most-charted British female solo act of the 1980s, with seventeen UK Top 40 hit singles.

***************

Track List:

01. Kids In America [3:25]
02. Chequered Love [3:22]
03. 2-6-5-8-0 [3:12]
04. You'll Never Be So Wrong [4:12]
05. Water On Glass [3:36]
06. Our Town [3:51]
07. Everything We Know [3:43]
08. Boys [3:15]
09. Watching For Shapes [3:42]
10. Action City [3:25]
11. View From A Bridge [3:31]
12. Take Me Tonight [3:54]
13. Cambodia [3:57]
14. Child Come Away [4:06]
15. House Of Salome [3:35]
16. Stay Awhile [3:40]
17. Love Blonde [3:32]
18. Dancing In The Dark [3:43]
19. Sparks [4:09]
20. Sing It Out For Love [3:35]

Exact Audio Copy V1.5 from 20. February 2020

EAC extraction logfile from 17. April 2021, 14:55

Kim Wilde / Premium Gold Collection

Used drive : HL-DT-STBD-RE BH16NS40 Adapter: 1 ID: 0

Read mode : Secure
Utilize accurate stream : Yes
Defeat audio cache : Yes
Make use of C2 pointers : No

Read offset correction : 6
Overread into Lead-In and Lead-Out : No
Fill up missing offset samples with silence : Yes
Delete leading and trailing silent blocks : No
Null samples used in CRC calculations : Yes
Used interface : Native Win32 interface for Win NT & 2000

Used output format : User Defined Encoder
Selected bitrate : 128 kBit/s
Quality : High
Add ID3 tag : No
Command line compressor : C:\Program Files (x86)\Exact Audio Copy\FLAC\FLAC.EXE
Additional command line options : -V -8 -T "Date=%year%" -T "Genre=%genre%" %source%


TOC of the extracted CD

Track | Start | Length | Start sector | End sector
––––––––––––––––––––––––––––-
1 | 0:00.00 | 3:24.72 | 0 | 15371
2 | 3:24.72 | 3:21.20 | 15372 | 30466
3 | 6:46.17 | 3:11.25 | 30467 | 44816
4 | 9:57.42 | 4:11.28 | 44817 | 63669
5 | 14:08.70 | 3:35.60 | 63670 | 79854
6 | 17:44.55 | 3:50.37 | 79855 | 97141
7 | 21:35.17 | 3:42.65 | 97142 | 113856
8 | 25:18.07 | 3:14.10 | 113857 | 128416
9 | 28:32.17 | 3:42.00 | 128417 | 145066
10 | 32:14.17 | 3:24.30 | 145067 | 160396
11 | 35:38.47 | 3:31.00 | 160397 | 176221
12 | 39:09.47 | 3:53.10 | 176222 | 193706
13 | 43:02.57 | 3:56.68 | 193707 | 211474
14 | 46:59.50 | 4:05.22 | 211475 | 229871
15 | 51:04.72 | 3:34.55 | 229872 | 245976
16 | 54:39.52 | 3:39.30 | 245977 | 262431
17 | 58:19.07 | 3:31.68 | 262432 | 278324
18 | 61:51.00 | 3:42.40 | 278325 | 295014
19 | 65:33.40 | 4:08.67 | 295015 | 313681
20 | 69:42.32 | 3:34.43 | 313682 | 329774


Range status and errors

Selected range

Filename F:\ЕАС\rwa12\Kim Wilde - Premium Gold Collection.wav

Peak level 98.8 %
Extraction speed 8.3 X
Range quality 99.9 %
Test CRC 6498AA8B
Copy CRC 6498AA8B
Copy OK

No errors occurred


AccurateRip summary

Track 1 accurately ripped (confidence 20) [6596B04C] (AR v2)
Track 2 accurately ripped (confidence 20) [EAA90225] (AR v2)
Track 3 accurately ripped (confidence 20) [ADB7F2C6] (AR v2)
Track 4 accurately ripped (confidence 20) [24E9602D] (AR v2)
Track 5 accurately ripped (confidence 20) [4B8421F7] (AR v2)
Track 6 accurately ripped (confidence 21) [98B0DCF2] (AR v2)
Track 7 accurately ripped (confidence 21) [8DD716A5] (AR v2)
Track 8 accurately ripped (confidence 21) [4B69751D] (AR v2)
Track 9 accurately ripped (confidence 21) [0D5A62F2] (AR v2)
Track 10 accurately ripped (confidence 21) [3C0BE7E6] (AR v2)
Track 11 accurately ripped (confidence 21) [C3A01B1E] (AR v2)
Track 12 accurately ripped (confidence 21) [25DFBF80] (AR v2)
Track 13 accurately ripped (confidence 21) [14E365AF] (AR v2)
Track 14 accurately ripped (confidence 21) [90CEB55E] (AR v2)
Track 15 accurately ripped (confidence 21) [67CBDF7C] (AR v2)
Track 16 accurately ripped (confidence 21) [16FAD764] (AR v2)
Track 17 accurately ripped (confidence 21) [4F29741C] (AR v2)
Track 18 accurately ripped (confidence 21) [8EF9C11F] (AR v2)
Track 19 accurately ripped (confidence 21) [B194995D] (AR v2)
Track 20 accurately ripped (confidence 21) [B40133BF] (AR v2)

All tracks accurately ripped

End of status report

–– CUETools DB Plugin V2.1.6

[CTDB TOCID: 3JvZsFMws.xBck3ODw_N19Wrfwg-] found
Submit result: 3JvZsFMws.xBck3ODw_N19Wrfwg- has been confirmed
Track | CTDB Status
1 | (57/58) Accurately ripped
2 | (57/58) Accurately ripped
3 | (57/58) Accurately ripped
4 | (57/58) Accurately ripped
5 | (57/58) Accurately ripped
6 | (57/58) Accurately ripped
7 | (57/58) Accurately ripped
8 | (57/58) Accurately ripped
9 | (57/58) Accurately ripped
10 | (57/58) Accurately ripped
11 | (57/58) Accurately ripped
12 | (56/58) Accurately ripped
13 | (56/58) Accurately ripped
14 | (56/58) Accurately ripped
15 | (57/58) Accurately ripped
16 | (56/58) Accurately ripped
17 | (56/58) Accurately ripped
18 | (56/58) Accurately ripped
19 | (56/58) Accurately ripped
20 | (56/58) Accurately ripped


==== Log checksum 21196556F41B77068D194DA369F71A52FF443F2DCE7DC0AD26440FB65D6E30AA ====

[CUETools log; Date: 27.04.2021 15:18:54; Version: 2.1.6]
[CTDB TOCID: 3JvZsFMws.xBck3ODw_N19Wrfwg-] found.
Track | CTDB Status
1 | (58/59) Accurately ripped
2 | (58/59) Accurately ripped
3 | (58/59) Accurately ripped
4 | (58/59) Accurately ripped
5 | (58/59) Accurately ripped
6 | (58/59) Accurately ripped
7 | (58/59) Accurately ripped
8 | (58/59) Accurately ripped
9 | (58/59) Accurately ripped
10 | (58/59) Accurately ripped
11 | (58/59) Accurately ripped
12 | (57/59) Accurately ripped
13 | (57/59) Accurately ripped
14 | (57/59) Accurately ripped
15 | (58/59) Accurately ripped
16 | (57/59) Accurately ripped
17 | (57/59) Accurately ripped
18 | (57/59) Accurately ripped
19 | (57/59) Accurately ripped
20 | (57/59) Accurately ripped
[AccurateRip ID: 00341df7-02ffb7b9-0e112d14] found.
Track [ CRC | V2 ] Status
01 [aaa0343e|6596b04c] (11+20/31) Accurately ripped
02 [91c8e9e3|eaa90225] (11+20/31) Accurately ripped
03 [177cc033|adb7f2c6] (11+20/31) Accurately ripped
04 [211ba65d|24e9602d] (11+20/31) Accurately ripped
05 [5d6a847d|4b8421f7] (11+20/31) Accurately ripped
06 [65156a43|98b0dcf2] (11+21/32) Accurately ripped
07 [c35dc8fa|8dd716a5] (11+21/32) Accurately ripped
08 [c8520fc8|4b69751d] (11+21/32) Accurately ripped
09 [abae0353|0d5a62f2] (11+21/32) Accurately ripped
10 [b985c8e6|3c0be7e6] (11+21/32) Accurately ripped
11 [794f87b6|c3a01b1e] (11+21/32) Accurately ripped
12 [45c0bbd6|25dfbf80] (11+21/32) Accurately ripped
13 [0747b32e|14e365af] (11+21/32) Accurately ripped
14 [277b9e71|90ceb55e] (11+21/32) Accurately ripped
15 [92298f15|67cbdf7c] (11+21/32) Accurately ripped
16 [a80c2d32|16fad764] (11+21/32) Accurately ripped
17 [7f84fefb|4f29741c] (11+21/32) Accurately ripped
18 [7f8f5b6a|8ef9c11f] (11+21/32) Accurately ripped
19 [d2409ae2|b194995d] (11+21/32) Accurately ripped
20 [7d5ec9e6|b40133bf] (11+21/32) Accurately ripped

Track Peak [ CRC32 ] [W/O NULL] [ LOG ]
– 98,8 [6498AA8B] [B2D2E3F5] CRC32
01 96,7 [A526DAB9] [8D5A4143]
02 93,1 [80269A25] [3B67571F]
03 98,8 [ECF2B9D0] [779B20DC]
04 98,8 [53D6E934] [46D1227C]
05 96,3 [8AEE6F06] [16241718]
06 98,8 [F8F13953] [C8B0CD1E]
07 96,9 [77BB157E] [55592A76]
08 97,2 [1E3DA4F5] [B36DACC9]
09 98,8 [914F8850] [57427644]
10 91,9 [B1E37CE6] [3656ADDD]
11 92,3 [2134AC77] [9FB3D4A2]
12 96,1 [FE492648] [125824C2]
13 96,7 [AC7246CA] [9A857019]
14 98,8 [0EED2820] [046C9D5B]
15 94,1 [B3AA9549] [90FD213A]
16 90,7 [A866B912] [18C5E53E]
17 93,1 [D108F72E] [297A3329]
18 93,1 [8B06AC25] [27AC4F58]
19 96,7 [01B65529] [C3CCC6A1]
20 92,1 [963493F1] [D55CB6D6]

Kim Wilde - Premium Gold Collection (1996)


All thanks go to rwa12

>>> Kim Wilde in my Blog <<<

DOWNLOAD: