Subcategories

Kim Waters - This Heart Of Mine (2011) {Shanachie}

Posted By: tiburon
Kim Waters - This Heart Of Mine (2011) {Shanachie}

Kim Waters - This Heart Of Mine (2011) {Shanachie}
EAC 1.0b1 | FLAC tracks level 8 | Cue+Log+M3U+MD5 | Full Scans 600dpi | 400MB + 5% Recovery
Genre: Smooth Jazz, Jazz Funk, R&B

On October 25, 2011, Kim Waters released his 17th album as a leader and tenth for Shanachie Entertainment, This Heart Of Mine, which artfully showcases why he has long held the throne as the King of Smooth Urban Jazz. This Heart Of Mine finds the saxophonist doing what he does best – creating dreamy melodies, sultry ballads, reinventing timeless R&B hits and playing funky dance-inspired and hot stepper originals. Waters brings to life a tapestry of love songs that explores the full range of emotions that love sparks.
Track List
01. Heart Seeker 4:46
02. Free Fall 4:11
03. Am I A Fool (Feat. Calvin Richardson) 5:16
04. Empire State Of Mind 4:43
05. The Groove's Alright 4:31
06. Step To This 5:04
07. I Love My Girl 4:41
08. Love Letter 5:36
09. Stay With Me Tonight 4:53
10. Running To Love 4:23
11. Double Two Love 5:05

musicians
Kim Waters – all instruments, saxophones and background vocals
Dana Pope – all female lead and background vocals
Allen Hinds – guitars
Tim Maia – background vocals on Love Letter
Calvin Richardson – lead vocals on Am I A Fool

Produced by Kim Waters


Exact Audio Copy V1.0 beta 1 from 15. November 2010

EAC extraction logfile from 8. January 2012, 23:45

Kim Waters / This Heart Of Mine

Used drive : HL-DT-STDVDRAM GH20NS10 Adapter: 2 ID: 1

Read mode : Secure
Utilize accurate stream : Yes
Defeat audio cache : Yes
Make use of C2 pointers : No

Read offset correction : 667
Overread into Lead-In and Lead-Out : No
Fill up missing offset samples with silence : Yes
Delete leading and trailing silent blocks : No
Null samples used in CRC calculations : Yes
Used interface : Native Win32 interface for Win NT & 2000
Gap handling : Appended to previous track

Used output format : User Defined Encoder
Selected bitrate : 1024 kBit/s
Quality : High
Add ID3 tag : No
Command line compressor : C:\Program Files\Exact Audio Copy\Flac\flac.exe
Additional command line options : -8 -V -T "ARTIST=%a" -T "TITLE=%t" -T "ALBUM=%g" -T "DATE=%y" -T "TRACKNUMBER=%n" -T "TOTALTRACKS=%x" -T "GENRE=%m" -T "ALBUMARTIST=%v" -T "ALBUM ARTIST=%v" -T "COMMENT=EAC Secure Mode, Test & Copy, AccurateRip, FLAC -8" %s


TOC of the extracted CD

Track | Start | Length | Start sector | End sector
––––––––––––––––––––––––––––-
1 | 0:00.00 | 4:46.05 | 0 | 21454
2 | 4:46.05 | 4:11.02 | 21455 | 40281
3 | 8:57.07 | 5:16.69 | 40282 | 64050
4 | 14:14.01 | 4:43.09 | 64051 | 85284
5 | 18:57.10 | 4:30.46 | 85285 | 105580
6 | 23:27.56 | 5:04.20 | 105581 | 128400
7 | 28:32.01 | 4:41.19 | 128401 | 149494
8 | 33:13.20 | 5:36.17 | 149495 | 174711
9 | 38:49.37 | 4:52.66 | 174712 | 196677
10 | 43:42.28 | 4:22.38 | 196678 | 216365
11 | 48:04.66 | 5:05.22 | 216366 | 239262


Track 1

Filename G:\Kim Waters - This Heart Of Mine (2011) {Shanachie}\01 - Heart Seeker.wav

Pre-gap length 0:00:02.00

Peak level 99.0 %
Extraction speed 4.9 X
Track quality 100.0 %
Test CRC FBAB8878
Copy CRC FBAB8878
Track not present in AccurateRip database
Copy OK

Track 2

Filename G:\Kim Waters - This Heart Of Mine (2011) {Shanachie}\02 - Free Fall.wav

Pre-gap length 0:00:02.00

Peak level 98.0 %
Extraction speed 4.4 X
Track quality 99.9 %
Test CRC A1A3ED85
Copy CRC A1A3ED85
Track not present in AccurateRip database
Copy OK

Track 3

Filename G:\Kim Waters - This Heart Of Mine (2011) {Shanachie}\03 - Am I A Fool.wav

Peak level 99.4 %
Extraction speed 6.1 X
Track quality 100.0 %
Test CRC FA5AC309
Copy CRC FA5AC309
Track not present in AccurateRip database
Copy OK

Track 4

Filename G:\Kim Waters - This Heart Of Mine (2011) {Shanachie}\04 - Empire State Of Mind.wav

Peak level 98.1 %
Extraction speed 6.4 X
Track quality 100.0 %
Test CRC FA7E6486
Copy CRC FA7E6486
Track not present in AccurateRip database
Copy OK

Track 5

Filename G:\Kim Waters - This Heart Of Mine (2011) {Shanachie}\05 - The Groove's Alright.wav

Pre-gap length 0:00:00.34

Peak level 98.2 %
Extraction speed 5.7 X
Track quality 99.9 %
Test CRC 51791E4B
Copy CRC 51791E4B
Track not present in AccurateRip database
Copy OK

Track 6

Filename G:\Kim Waters - This Heart Of Mine (2011) {Shanachie}\06 - Step To This.wav

Pre-gap length 0:00:00.16

Peak level 99.1 %
Extraction speed 7.4 X
Track quality 100.0 %
Test CRC 2AEA00D3
Copy CRC 2AEA00D3
Track not present in AccurateRip database
Copy OK

Track 7

Filename G:\Kim Waters - This Heart Of Mine (2011) {Shanachie}\07 - I Love My Girl.wav

Pre-gap length 0:00:01.19

Peak level 99.6 %
Extraction speed 6.4 X
Track quality 99.9 %
Test CRC 4D8C057A
Copy CRC 4D8C057A
Track not present in AccurateRip database
Copy OK

Track 8

Filename G:\Kim Waters - This Heart Of Mine (2011) {Shanachie}\08 - Love Letter.wav

Pre-gap length 0:00:00.49

Peak level 98.8 %
Extraction speed 8.1 X
Track quality 100.0 %
Test CRC 22EAA92E
Copy CRC 22EAA92E
Track not present in AccurateRip database
Copy OK

Track 9

Filename G:\Kim Waters - This Heart Of Mine (2011) {Shanachie}\09 - Stay With Me Tonight.wav

Pre-gap length 0:00:00.61

Peak level 98.0 %
Extraction speed 7.1 X
Track quality 99.9 %
Test CRC 565200FD
Copy CRC 565200FD
Track not present in AccurateRip database
Copy OK

Track 10

Filename G:\Kim Waters - This Heart Of Mine (2011) {Shanachie}\10 - Running To Love.wav

Pre-gap length 0:00:00.50

Peak level 98.7 %
Extraction speed 8.4 X
Track quality 100.0 %
Test CRC A140B0E9
Copy CRC A140B0E9
Track not present in AccurateRip database
Copy OK

Track 11

Filename G:\Kim Waters - This Heart Of Mine (2011) {Shanachie}\11 - Double Two Love.wav

Pre-gap length 0:00:00.56

Peak level 99.2 %
Extraction speed 8.6 X
Track quality 100.0 %
Test CRC 376B2E88
Copy CRC 376B2E88
Track not present in AccurateRip database
Copy OK


None of the tracks are present in the AccurateRip database

No errors occurred

End of status report

==== Log checksum 73EEA9747E8E09919EC5CDD883533C82967ABC39C03A1DB8DCF4E52160A3C342 ====


––––––––––––––––––––––––––––––––––––––––
Analyzed: Kim Waters / This Heart Of Mine
––––––––––––––––––––––––––––––––––––––––

DR Peak RMS Duration Track
––––––––––––––––––––––––––––––––––––––––
DR8 -0.09 dB -10.22 dB 4:46 01-Heart Seeker
DR8 -0.18 dB -10.23 dB 4:11 02-Free Fall
DR8 -0.05 dB -9.46 dB 5:17 03-Am I A Fool
DR8 -0.16 dB -9.95 dB 4:43 04-Empire State Of Mind
DR8 -0.16 dB -9.82 dB 4:31 05-The Groove's Alright
DR8 -0.08 dB -9.80 dB 5:04 06-Step To This
DR9 -0.03 dB -10.40 dB 4:41 07-I Love My Girl
DR8 -0.10 dB -9.71 dB 5:36 08-Love Letter
DR8 -0.17 dB -9.86 dB 4:53 09-Stay With Me Tonight
DR8 -0.11 dB -9.63 dB 4:23 10-Running To Love
DR8 -0.06 dB -10.16 dB 5:05 11-Double Two Love
––––––––––––––––––––––––––––––––––––––––

Number of tracks: 11
Official DR value: DR8

Samplerate: 44100 Hz
Channels: 2
Bits per sample: 16
Bitrate: 893 kbps
Codec: FLAC
================================================================================

Kim Waters - This Heart Of Mine (2011) {Shanachie}
Kim Waters - This Heart Of Mine (2011) {Shanachie}
Kim Waters - This Heart Of Mine (2011) {Shanachie}


Rip by tiburon


The Files Are Interchangeable