Subcategories
Please register here if you want to download anything!

If domain in your address bar is different from the list below
PLEASE LEAVE THAT SITE IMMEDIATELY
❗IT'S A DANGEROUS FAKE❗



Spicy Magazines for Men! ;-)

King Crimson - Heaven & Earth (2019) [24-Disc Super Deluxe Box Set]

Posted By: v3122
King Crimson - Heaven & Earth (2019) [24-Disc Super Deluxe Box Set]

King Crimson - Heaven & Earth (2019)
EAC | Flac(Image) + Cue + Log & MP3 CBR 320Kbps
Panegyric Records, KCCBX14 | ~ 7308 or 3177 Mb | Artwork(png) -> 1.58 Gb
2xDVD: NTSC 16:9 (720x480) VBR | LinearPCM, 2 ch / DTS, 6 ch
4xBlu-ray: MPEG-4 AVC 1080p, 23,976 fps, 16:9, High Profile 4.1
LPCM Audio 2.0, 48 kHz, 2304 kbps, 24-bit & 2304 kbps, 24-bit
Progressive Rock / Art Rock

~ 4xBlu-ray's Added ~

Heaven & Earth (Live and in the Studio 1997 – 2008) is the eighth of the major box set releases from English progressive rock group King Crimson, released in 2019 by Discipline Global Mobile, Panegyric Records, Inner Knot & Wowow Entertainment, Inc. .

This compilation cover the period which saw the recording of The Construkction of Light, released in 2000 and the album that appears to be their studio swan-song The Power to Believe, from 2003; this boxed set documents yet another change of artistic direction.

Heaven & Earth features re-mixed and master examples of the aboe two albums with previously unheard studio recordings and much more live material from the same period.

Across 18 CDs, 4 blu-ray discs (1 video and 3 audio content) and 2 DVDs (all audio content), with booklet containing sleeve-notes by Sid Smith, Robert Fripp and David Singleton. It also includes memorabilia…

~ wiki
King Crimson - Heaven & Earth (2019) [24-Disc Super Deluxe Box Set]

King Crimson - Heaven & Earth (2019):

Tracklist CD01 - 2000 The ReConstruKction Of Light
(Re-Imagining 2000 The ConstruKction Of Light):


01 ProzaKc Blues
––––––––––
The ConstruKction Of Light
02 Part One
03 Part Two
––––––––––
04 Into The Frying Pan (Intro)
05 Into The Frying Pan
06 FraKctured
07 The World's My Oyster Soup Kitchen Floor Wax Museum
––––––––––
Larks' Tongues In Aspic: Part IV
08 Part One
09 Part Two
10 Part Three
––––––––––
11 Coda: I Have A Dream
12 Heaven And Earth / ProjeKct X

Exact Audio Copy V1.3 from 2. September 2016

EAC extraction logfile from 2. July 2019, 19:46

King Crimson / The ReConstruKction Of Light

Used drive : PLEXTOR BD-R PX-B950SA Adapter: 1 ID: 1

Read mode : Secure
Utilize accurate stream : Yes
Defeat audio cache : Yes
Make use of C2 pointers : No

Read offset correction : 6
Overread into Lead-In and Lead-Out : No
Fill up missing offset samples with silence : Yes
Delete leading and trailing silent blocks : No
Null samples used in CRC calculations : Yes
Used interface : Native Win32 interface for Win NT & 2000

Used output format : Internal WAV Routines
Sample format : 44.100 Hz; 16 Bit; Stereo


TOC of the extracted CD

Track | Start | Length | Start sector | End sector
––––––––––––––––––––––––––––-
1 | 0:00.00 | 5:26.10 | 0 | 24459
2 | 5:26.10 | 5:47.57 | 24460 | 50541
3 | 11:13.67 | 2:57.09 | 50542 | 63825
4 | 14:11.01 | 1:10.29 | 63826 | 69104
5 | 15:21.30 | 7:01.44 | 69105 | 100723
6 | 22:22.74 | 9:20.61 | 100724 | 142784
7 | 31:43.60 | 6:23.19 | 142785 | 171528
8 | 38:07.04 | 3:41.46 | 171529 | 188149
9 | 41:48.50 | 2:50.33 | 188150 | 200932
10 | 44:39.08 | 2:36.17 | 200933 | 212649
11 | 47:15.25 | 4:55.66 | 212650 | 234840
12 | 52:11.16 | 7:47.47 | 234841 | 269912


Range status and errors

Selected range

Filename C:\Users\Alex\Desktop\ALLexxess\King Crimson\2019 Heaven & Earth (24-Disc Box Set Panegyric Records)\CD01 2000 ReConstruKction Of Light\King Crimson - The ReConstruKction Of Light.wav

Peak level 100.0 %
Extraction speed 7.4 X
Range quality 100.0 %
Test CRC 024C6A05
Copy CRC 024C6A05
Copy OK

No errors occurred


AccurateRip summary

Track 1 accurately ripped (confidence 3) [9305FAA7] (AR v2)
Track 2 accurately ripped (confidence 3) [A2DEBE4E] (AR v2)
Track 3 accurately ripped (confidence 3) [FBADE8A5] (AR v2)
Track 4 accurately ripped (confidence 3) [EE07ED37] (AR v2)
Track 5 accurately ripped (confidence 3) [673A733E] (AR v2)
Track 6 accurately ripped (confidence 3) [26621A51] (AR v2)
Track 7 accurately ripped (confidence 3) [9D46480E] (AR v2)
Track 8 accurately ripped (confidence 3) [C4D31F0E] (AR v2)
Track 9 accurately ripped (confidence 3) [52896A85] (AR v2)
Track 10 accurately ripped (confidence 3) [27529127] (AR v2)
Track 11 accurately ripped (confidence 3) [C4A27EA8] (AR v2)
Track 12 accurately ripped (confidence 3) [06A86510] (AR v2)

All tracks accurately ripped

End of status report

–– CUETools DB Plugin V2.1.6

[CTDB TOCID: EV5LEuWAE29eydKB004epBVJpa8-] found
Submit result: EV5LEuWAE29eydKB004epBVJpa8- has been confirmed
Track | CTDB Status
1 | (55/55) Accurately ripped
2 | (55/55) Accurately ripped
3 | (55/55) Accurately ripped
4 | (55/55) Accurately ripped
5 | (55/55) Accurately ripped
6 | (55/55) Accurately ripped
7 | (55/55) Accurately ripped
8 | (55/55) Accurately ripped
9 | (55/55) Accurately ripped
10 | (55/55) Accurately ripped
11 | (55/55) Accurately ripped
12 | (54/55) Accurately ripped


==== Log checksum 734100FB0EC53E416F35B97A3561CF24FC6E4884DF5E38547E274E988E7324D7 ====


Tracklist CD02 - 2002 Happy With What You
Have To Be Happy With / 2001 Level Five (EP):


Happy With What You
Have To Be Happy With
01 Bude
02 Happy With What You Have To Be Happy With
03 Mie Gakure
04 She Shudders
05 Eyes Wide Open
06 Shoganai
07 I Ran
08 Potato Pie
09 Larks' Tongues In Aspic: Part IV
10 Clouds
11 Einstein's Relatives
Level Five
12 Dangerous Curves
13 Level Five
14 Virtuous Circle
15 The ConstruKction Of Light
16 The Deception Of The Thrush
17 Improv: ProjeKct X

Exact Audio Copy V1.3 from 2. September 2016

EAC extraction logfile from 2. July 2019, 19:15

King Crimson / Happy With… & Level Five

Used drive : PLEXTOR BD-R PX-B950SA Adapter: 1 ID: 1

Read mode : Secure
Utilize accurate stream : Yes
Defeat audio cache : Yes
Make use of C2 pointers : No

Read offset correction : 6
Overread into Lead-In and Lead-Out : No
Fill up missing offset samples with silence : Yes
Delete leading and trailing silent blocks : No
Null samples used in CRC calculations : Yes
Used interface : Native Win32 interface for Win NT & 2000

Used output format : Internal WAV Routines
Sample format : 44.100 Hz; 16 Bit; Stereo


TOC of the extracted CD

Track | Start | Length | Start sector | End sector
––––––––––––––––––––––––––––-
1 | 0:00.00 | 0:26.13 | 0 | 1962
2 | 0:26.13 | 3:54.19 | 1963 | 19531
3 | 4:20.32 | 2:18.32 | 19532 | 29913
4 | 6:38.64 | 0:35.54 | 29914 | 32592
5 | 7:14.43 | 4:08.16 | 32593 | 51208
6 | 11:22.59 | 2:53.43 | 51209 | 64226
7 | 14:16.27 | 0:40.06 | 64227 | 67232
8 | 14:56.33 | 5:03.19 | 67233 | 89976
9 | 19:59.52 | 10:26.38 | 89977 | 136964
10 | 30:26.15 | 0:41.39 | 136965 | 140078
11 | 31:07.54 | 3:17.41 | 140079 | 154894
12 | 34:25.20 | 5:38.12 | 154895 | 180256
13 | 40:03.32 | 8:35.69 | 180257 | 218950
14 | 48:39.26 | 10:00.32 | 218951 | 263982
15 | 58:39.58 | 8:23.25 | 263983 | 301732
16 | 67:03.08 | 6:45.51 | 301733 | 332158
17 | 73:48.59 | 5:24.37 | 332159 | 356495


Range status and errors

Selected range

Filename C:\Users\Alex\Desktop\ALLexxess\King Crimson\2019 Heaven & Earth (24-Disc Box Set Panegyric Records)\CD02 2002 Happy With… & 2001 Level 5\King Crimson - Happy With… & Level Five.wav

Peak level 100.0 %
Extraction speed 8.4 X
Range quality 99.9 %
Test CRC 432AE913
Copy CRC 432AE913
Copy OK

No errors occurred


AccurateRip summary

Track 1 not present in database
Track 2 not present in database
Track 3 not present in database
Track 4 not present in database
Track 5 not present in database
Track 6 not present in database
Track 7 not present in database
Track 8 not present in database
Track 9 not present in database
Track 10 not present in database
Track 11 not present in database
Track 12 not present in database
Track 13 not present in database
Track 14 not present in database
Track 15 not present in database
Track 16 not present in database
Track 17 not present in database

None of the tracks are present in the AccurateRip database

End of status report

–– CUETools DB Plugin V2.1.6

[CTDB TOCID: USfqkcZ9NZyzOqCEtYlYOi3j.Vo-] found
Submit result: USfqkcZ9NZyzOqCEtYlYOi3j.Vo- has been confirmed
Track | CTDB Status
1 | (22/22) Accurately ripped
2 | (22/22) Accurately ripped
3 | (22/22) Accurately ripped
4 | (22/22) Accurately ripped
5 | (22/22) Accurately ripped
6 | (22/22) Accurately ripped
7 | (22/22) Accurately ripped
8 | (22/22) Accurately ripped
9 | (22/22) Accurately ripped
10 | (22/22) Accurately ripped
11 | (22/22) Accurately ripped
12 | (22/22) Accurately ripped
13 | (22/22) Accurately ripped
14 | (22/22) Accurately ripped
15 | (22/22) Accurately ripped
16 | (22/22) Accurately ripped
17 | (22/22) Accurately ripped


==== Log checksum 40B7BCA8C876A7CBB1F32D5EEF6D8DECD9D4E191C98E4B8DE0AE3ABD3019B47E ====


Tracklist CD03 - 2003 The Power To Believe:

01 The Power To Believe I: A Cappella
02 Level Five
03 Eyes Wide Open
04 Elektrik
05 Facts Of Life: Intro
06 Facts Of Life
07 The Power To Believe II
08 Dangerous Curves
09 Happy With What You Have To Be Happy With
10 The Power To Believe III
11 The Power To Believe IV: Coda
Bonus Tracks
12 Sus-tayn-Z I
13 Superslow
14 Sus-tayn-Z II

Exact Audio Copy V1.3 from 2. September 2016

EAC extraction logfile from 2. July 2019, 10:43

King Crimson / The Power To Believe

Used drive : PLEXTOR BD-R PX-B950SA Adapter: 1 ID: 1

Read mode : Secure
Utilize accurate stream : Yes
Defeat audio cache : Yes
Make use of C2 pointers : No

Read offset correction : 6
Overread into Lead-In and Lead-Out : No
Fill up missing offset samples with silence : Yes
Delete leading and trailing silent blocks : No
Null samples used in CRC calculations : Yes
Used interface : Native Win32 interface for Win NT & 2000

Used output format : Internal WAV Routines
Sample format : 44.100 Hz; 16 Bit; Stereo


TOC of the extracted CD

Track | Start | Length | Start sector | End sector
––––––––––––––––––––––––––––-
1 | 0:00.00 | 0:44.19 | 0 | 3318
2 | 0:44.19 | 7:15.10 | 3319 | 35953
3 | 7:59.29 | 4:10.48 | 35954 | 54751
4 | 12:10.02 | 8:00.13 | 54752 | 90764
5 | 20:10.15 | 1:38.56 | 90765 | 98170
6 | 21:48.71 | 5:05.59 | 98171 | 121104
7 | 26:54.55 | 7:43.41 | 121105 | 155870
8 | 34:38.21 | 6:42.53 | 155871 | 186073
9 | 41:20.74 | 3:17.68 | 186074 | 200916
10 | 44:38.67 | 4:10.11 | 200917 | 219677
11 | 48:49.03 | 2:51.21 | 219678 | 232523
12 | 51:40.24 | 5:00.06 | 232524 | 255029
13 | 56:40.30 | 3:38.34 | 255030 | 271413
14 | 60:18.64 | 4:16.32 | 271414 | 290645


Range status and errors

Selected range

Filename C:\Users\Alex\Desktop\ALLexxess\King Crimson\2019 Heaven & Earth (24-Disc Box Set Panegyric Records)\CD03 2003 Power To Believe\King Crimson - The Power To Believe.wav

Peak level 100.0 %
Extraction speed 7.4 X
Range quality 100.0 %
Test CRC 4D4A1666
Copy CRC 4D4A1666
Copy OK

No errors occurred


AccurateRip summary

Track 1 accurately ripped (confidence 2) [DC1DE829] (AR v2)
Track 2 accurately ripped (confidence 2) [4BA97A62] (AR v2)
Track 3 accurately ripped (confidence 2) [BD41BE40] (AR v2)
Track 4 accurately ripped (confidence 2) [7B50A314] (AR v2)
Track 5 accurately ripped (confidence 2) [55AD6989] (AR v2)
Track 6 accurately ripped (confidence 2) [4CCA3D99] (AR v2)
Track 7 accurately ripped (confidence 2) [899FEA4C] (AR v2)
Track 8 accurately ripped (confidence 2) [0E056E89] (AR v2)
Track 9 accurately ripped (confidence 2) [BD10B7EA] (AR v2)
Track 10 accurately ripped (confidence 2) [D447F371] (AR v2)
Track 11 accurately ripped (confidence 2) [94423569] (AR v2)
Track 12 accurately ripped (confidence 2) [ACE32F44] (AR v2)
Track 13 accurately ripped (confidence 2) [C99D8FEA] (AR v2)
Track 14 accurately ripped (confidence 2) [2C4BD7B1] (AR v2)

All tracks accurately ripped

End of status report

–– CUETools DB Plugin V2.1.6

[CTDB TOCID: S0.no.VPZZRMlTlwXtSwWpZ483s-] found
Submit result: S0.no.VPZZRMlTlwXtSwWpZ483s- has been confirmed
Track | CTDB Status
1 | (48/48) Accurately ripped
2 | (48/48) Accurately ripped
3 | (48/48) Accurately ripped
4 | (48/48) Accurately ripped
5 | (48/48) Accurately ripped
6 | (48/48) Accurately ripped
7 | (48/48) Accurately ripped
8 | (48/48) Accurately ripped
9 | (48/48) Accurately ripped
10 | (48/48) Accurately ripped
11 | (48/48) Accurately ripped
12 | (48/48) Accurately ripped
13 | (48/48) Accurately ripped
14 | (48/48) Accurately ripped


==== Log checksum 79F7B1997A5C3269064C83A4524AEC98D73702DE5A54825A3F9A774C381E818B ====


Tracklist CD04 - ProjeKct One, London December 4, 1997:

01 4 i 1
02 4 i 2
03 4 i 3
04 4 i 4
05 4 i 6
06 4 ii 1
07 4 ii 2
08 4 ii 4
09 4 ii 5
10 4 ii 6

Exact Audio Copy V1.3 from 2. September 2016

EAC extraction logfile from 1. July 2019, 19:02

ProjeKct One / London December 4, 1997

Used drive : PLEXTOR BD-R PX-B950SA Adapter: 1 ID: 1

Read mode : Secure
Utilize accurate stream : Yes
Defeat audio cache : Yes
Make use of C2 pointers : No

Read offset correction : 6
Overread into Lead-In and Lead-Out : No
Fill up missing offset samples with silence : Yes
Delete leading and trailing silent blocks : No
Null samples used in CRC calculations : Yes
Used interface : Native Win32 interface for Win NT & 2000

Used output format : Internal WAV Routines
Sample format : 44.100 Hz; 16 Bit; Stereo


TOC of the extracted CD

Track | Start | Length | Start sector | End sector
––––––––––––––––––––––––––––-
1 | 0:00.00 | 6:30.05 | 0 | 29254
2 | 6:30.05 | 7:00.31 | 29255 | 60785
3 | 13:30.36 | 10:42.11 | 60786 | 108946
4 | 24:12.47 | 11:02.38 | 108947 | 158634
5 | 35:15.10 | 3:39.04 | 158635 | 175063
6 | 38:54.14 | 7:05.45 | 175064 | 206983
7 | 45:59.59 | 7:50.54 | 206984 | 242287
8 | 53:50.38 | 8:37.74 | 242288 | 281136
9 | 62:28.37 | 7:03.09 | 281137 | 312870
10 | 69:31.46 | 9:42.57 | 312871 | 356577


Range status and errors

Selected range

Filename C:\Users\Alex\Desktop\ALLexxess\King Crimson\2019 Heaven & Earth (24-Disc Box Set Panegyric Records)\CD04 ProjeKct One, London December 4, 1997\ProjeKct One - London December 4, 1997.wav

Peak level 100.0 %
Extraction speed 8.5 X
Range quality 100.0 %
Test CRC 85815D85
Copy CRC 85815D85
Copy OK

No errors occurred


AccurateRip summary

Track 1 not present in database
Track 2 not present in database
Track 3 not present in database
Track 4 not present in database
Track 5 not present in database
Track 6 not present in database
Track 7 not present in database
Track 8 not present in database
Track 9 not present in database
Track 10 not present in database

None of the tracks are present in the AccurateRip database

End of status report

–– CUETools DB Plugin V2.1.6

[CTDB TOCID: EL0hNd.aNb4_8Bn0TrQnmLnBsyg-] found
Submit result: EL0hNd.aNb4_8Bn0TrQnmLnBsyg- has been confirmed
Track | CTDB Status
1 | (25/25) Accurately ripped
2 | (25/25) Accurately ripped
3 | (25/25) Accurately ripped
4 | (25/25) Accurately ripped
5 | (25/25) Accurately ripped
6 | (25/25) Accurately ripped
7 | (25/25) Accurately ripped
8 | (25/25) Accurately ripped
9 | (24/25) Accurately ripped
10 | (25/25) Accurately ripped


==== Log checksum 752482D17EC73B0B767FC541FF421734A10FA0DE95053C9CBB767544A1AB2ACA ====


Tracklist CD05 - ProjeKct Two, Baltimore May 2, 1998:

01 Introductory Soundscape
02 House I
03 Heavy ConstruKction
04 Vector Drift
05 Light ConstruKction
06 Live Groove
07 X-chayn-jiZ
08 Sector Patrol
09 Vector Shift To Planet Belewbeloid
10 Contrary ConstruKction
11 The Deception Of The Thrush
12 VROOOM

Exact Audio Copy V1.3 from 2. September 2016

EAC extraction logfile from 1. July 2019, 16:04

ProjeKct Two / Baltimore May 2, 1998

Used drive : PLEXTOR BD-R PX-B950SA Adapter: 1 ID: 1

Read mode : Secure
Utilize accurate stream : Yes
Defeat audio cache : Yes
Make use of C2 pointers : No

Read offset correction : 6
Overread into Lead-In and Lead-Out : No
Fill up missing offset samples with silence : Yes
Delete leading and trailing silent blocks : No
Null samples used in CRC calculations : Yes
Used interface : Native Win32 interface for Win NT & 2000

Used output format : Internal WAV Routines
Sample format : 44.100 Hz; 16 Bit; Stereo


TOC of the extracted CD

Track | Start | Length | Start sector | End sector
––––––––––––––––––––––––––––-
1 | 0:00.00 | 3:37.34 | 0 | 16308
2 | 3:37.34 | 9:01.27 | 16309 | 56910
3 | 12:38.61 | 6:37.74 | 56911 | 86759
4 | 19:16.60 | 4:16.49 | 86760 | 106008
5 | 23:33.34 | 7:22.59 | 106009 | 139217
6 | 30:56.18 | 6:01.29 | 139218 | 166321
7 | 36:57.47 | 11:41.39 | 166322 | 218935
8 | 48:39.11 | 4:41.65 | 218936 | 240075
9 | 53:21.01 | 0:29.73 | 240076 | 242323
10 | 53:50.74 | 7:08.23 | 242324 | 274446
11 | 60:59.22 | 8:18.11 | 274447 | 311807
12 | 69:17.33 | 2:39.23 | 311808 | 323755


Range status and errors

Selected range

Filename C:\Users\Alex\Desktop\ALLexxess\King Crimson\2019 Heaven & Earth (24-Disc Box Set Panegyric Records)\CD05 ProjeKct Two, Baltimore May 2, 1998\ProjeKct Two - Baltimore May 2, 1998.wav

Peak level 100.0 %
Extraction speed 7.9 X
Range quality 100.0 %
Test CRC C9152D76
Copy CRC C9152D76
Copy OK

No errors occurred


AccurateRip summary

Track 1 not present in database
Track 2 not present in database
Track 3 not present in database
Track 4 not present in database
Track 5 not present in database
Track 6 not present in database
Track 7 not present in database
Track 8 not present in database
Track 9 not present in database
Track 10 not present in database
Track 11 not present in database
Track 12 not present in database

None of the tracks are present in the AccurateRip database

End of status report

–– CUETools DB Plugin V2.1.6

[CTDB TOCID: 6GhgM1RwyG5KYnuNQiv.9HbbQEw-] found
Submit result: 6GhgM1RwyG5KYnuNQiv.9HbbQEw- has been confirmed
Track | CTDB Status
1 | (24/24) Accurately ripped
2 | (24/24) Accurately ripped
3 | (24/24) Accurately ripped
4 | (24/24) Accurately ripped
5 | (24/24) Accurately ripped
6 | (24/24) Accurately ripped
7 | (24/24) Accurately ripped
8 | (24/24) Accurately ripped
9 | (24/24) Accurately ripped
10 | (23/24) Accurately ripped
11 | (24/24) Accurately ripped
12 | (24/24) Accurately ripped


==== Log checksum 7B190488ADBE027D0572255912A7B6CBCBF030DEBFB12CDE5C6B89C4E7A5CBA6 ====


Tracklist CD06 - ProjeKct Four, San Francisco November 2, 1998:

01 Heavy ConstruKction
02 Improv I
03 ProjeKction
04 The Deception Of The Thrush
05 Hindu Fizz
06 Improv II
07 Seizure

Exact Audio Copy V1.3 from 2. September 2016

EAC extraction logfile from 28. June 2019, 19:41

ProjeKct Four / San Francisco November 2, 1998

Used drive : PLEXTOR BD-R PX-B950SA Adapter: 1 ID: 1

Read mode : Secure
Utilize accurate stream : Yes
Defeat audio cache : Yes
Make use of C2 pointers : No

Read offset correction : 6
Overread into Lead-In and Lead-Out : No
Fill up missing offset samples with silence : Yes
Delete leading and trailing silent blocks : No
Null samples used in CRC calculations : Yes
Used interface : Native Win32 interface for Win NT & 2000

Used output format : Internal WAV Routines
Sample format : 44.100 Hz; 16 Bit; Stereo


TOC of the extracted CD

Track | Start | Length | Start sector | End sector
––––––––––––––––––––––––––––-
1 | 0:00.00 | 25:56.13 | 0 | 116712
2 | 25:56.13 | 8:26.53 | 116713 | 154715
3 | 34:22.66 | 7:40.58 | 154716 | 189273
4 | 42:03.49 | 9:20.54 | 189274 | 231327
5 | 51:24.28 | 9:30.70 | 231328 | 274147
6 | 60:55.23 | 2:30.17 | 274148 | 285414
7 | 63:25.40 | 14:11.31 | 285415 | 349270


Range status and errors

Selected range

Filename C:\Users\Alex\Desktop\ALLexxess\King Crimson\2019 Heaven & Earth (24-Disc Box Set Panegyric Records)\CD06 ProjeKct Four, San Francisco November 2, 1998\ProjeKct Four - San Francisco November 2, 1998.wav

Peak level 100.0 %
Extraction speed 8.2 X
Range quality 99.9 %
Test CRC C0AD146A
Copy CRC C0AD146A
Copy OK

No errors occurred


AccurateRip summary

Track 1 not present in database
Track 2 not present in database
Track 3 not present in database
Track 4 not present in database
Track 5 not present in database
Track 6 not present in database
Track 7 not present in database

None of the tracks are present in the AccurateRip database

End of status report

–– CUETools DB Plugin V2.1.6

[CTDB TOCID: ErvDtu42Oo7xJzpOIBZmxDBoL8E-] found
Submit result: ErvDtu42Oo7xJzpOIBZmxDBoL8E- has been confirmed
Track | CTDB Status
1 | (21/21) Accurately ripped
2 | (21/21) Accurately ripped
3 | (21/21) Accurately ripped
4 | (21/21) Accurately ripped
5 | (21/21) Accurately ripped
6 | (21/21) Accurately ripped
7 | (21/21) Accurately ripped


==== Log checksum 35CC9A7A23B97204D0202BBFA7FC1CD3800228447BA6928280C755B9D0FD53F6 ====


Tracklist CD07 - ProjeKct Three, Austin March 23, 1999:

01 Masque 3
02 X-chayn-jiZ
03 CCCCCCs
04 Heavy ConstruKction
05 Masque 8
06 Masque 11
07 ProjeKction
08 The Deception Of The Thrush

Exact Audio Copy V1.3 from 2. September 2016

EAC extraction logfile from 28. June 2019, 19:07

ProjeKct Three / Austin March 23, 1999

Used drive : PLEXTOR BD-R PX-B950SA Adapter: 1 ID: 1

Read mode : Secure
Utilize accurate stream : Yes
Defeat audio cache : Yes
Make use of C2 pointers : No

Read offset correction : 6
Overread into Lead-In and Lead-Out : No
Fill up missing offset samples with silence : Yes
Delete leading and trailing silent blocks : No
Null samples used in CRC calculations : Yes
Used interface : Native Win32 interface for Win NT & 2000

Used output format : Internal WAV Routines
Sample format : 44.100 Hz; 16 Bit; Stereo


TOC of the extracted CD

Track | Start | Length | Start sector | End sector
––––––––––––––––––––––––––––-
1 | 0:00.00 | 13:55.18 | 0 | 62642
2 | 13:55.18 | 7:54.37 | 62643 | 98229
3 | 21:49.55 | 9:45.23 | 98230 | 142127
4 | 31:35.03 | 10:10.01 | 142128 | 187878
5 | 41:45.04 | 6:27.52 | 187879 | 216955
6 | 48:12.56 | 10:07.41 | 216956 | 262521
7 | 58:20.22 | 6:50.73 | 262522 | 293344
8 | 65:11.20 | 8:20.60 | 293345 | 330904


Range status and errors

Selected range

Filename C:\Users\Alex\Desktop\ALLexxess\King Crimson\2019 Heaven & Earth (24-Disc Box Set Panegyric Records)\CD07 ProjeKct Three, Austin March 23, 1999\ProjeKct Three - Austin March 23, 1999.wav

Peak level 100.0 %
Extraction speed 7.9 X
Range quality 100.0 %
Test CRC FC0B36CA
Copy CRC FC0B36CA
Copy OK

No errors occurred


AccurateRip summary

Track 1 not present in database
Track 2 not present in database
Track 3 not present in database
Track 4 not present in database
Track 5 not present in database
Track 6 not present in database
Track 7 not present in database
Track 8 not present in database

None of the tracks are present in the AccurateRip database

End of status report

–– CUETools DB Plugin V2.1.6

[CTDB TOCID: g9N7sLpuponh.twBJDMPrFksKgE-] found
Submit result: g9N7sLpuponh.twBJDMPrFksKgE- has been confirmed
Track | CTDB Status
1 | (21/21) Accurately ripped
2 | (21/21) Accurately ripped
3 | (21/21) Accurately ripped
4 | (21/21) Accurately ripped
5 | (21/21) Accurately ripped
6 | (21/21) Accurately ripped
7 | (21/21) Accurately ripped
8 | (21/21) Accurately ripped


==== Log checksum 099D7BD21C21DABE7FB00E9D93E30231B395EB38C658740498FB805AE6AEB98F ====


Tracklist CD08 - 2000 Live ConstruKction 1:

01 Improv: Principio Mastelottico (Madrid)
02 ProzaKc Blues
03 Improv: Blasticus SS Blastica
04 The ConstruKction Of Light
05 Improv: Tomorrow Never Knows Thela (Incl Tomorrow Never Knows / Warsaw)
06 Into The Frying Pan
07 Improv: Heaven C Blasticum (Legnano)

Exact Audio Copy V1.3 from 2. September 2016

EAC extraction logfile from 28. June 2019, 9:08

King Crimson / Live ConstruKction 1

Used drive : PLEXTOR BD-R PX-B950SA Adapter: 1 ID: 1

Read mode : Secure
Utilize accurate stream : Yes
Defeat audio cache : Yes
Make use of C2 pointers : No

Read offset correction : 6
Overread into Lead-In and Lead-Out : No
Fill up missing offset samples with silence : Yes
Delete leading and trailing silent blocks : No
Null samples used in CRC calculations : Yes
Used interface : Native Win32 interface for Win NT & 2000

Used output format : Internal WAV Routines
Sample format : 44.100 Hz; 16 Bit; Stereo


TOC of the extracted CD

Track | Start | Length | Start sector | End sector
––––––––––––––––––––––––––––-
1 | 0:00.00 | 4:11.35 | 0 | 18859
2 | 4:11.35 | 5:27.25 | 18860 | 43409
3 | 9:38.60 | 11:08.13 | 43410 | 93522
4 | 20:46.73 | 8:09.38 | 93523 | 130235
5 | 28:56.36 | 10:46.34 | 130236 | 178719
6 | 39:42.70 | 6:16.34 | 178720 | 206953
7 | 45:59.29 | 9:59.12 | 206954 | 251890


Range status and errors

Selected range

Filename C:\Users\Alex\Desktop\ALLexxess\King Crimson\2019 Heaven & Earth (24-Disc Box Set Panegyric Records)\CD08 2000 Live ConstruKction 1\King Crimson - Live ConstruKction 1.wav

Peak level 100.0 %
Extraction speed 7.2 X
Range quality 99.9 %
Test CRC CC1D3BF0
Copy CRC CC1D3BF0
Copy OK

No errors occurred


AccurateRip summary

Track 1 not present in database
Track 2 not present in database
Track 3 not present in database
Track 4 not present in database
Track 5 not present in database
Track 6 not present in database
Track 7 not present in database

None of the tracks are present in the AccurateRip database

End of status report

–– CUETools DB Plugin V2.1.6

[CTDB TOCID: PwwzyvdAqFInLgok2Y95gBxVxPM-] found
Submit result: PwwzyvdAqFInLgok2Y95gBxVxPM- has been confirmed
Track | CTDB Status
1 | (24/24) Accurately ripped
2 | (24/24) Accurately ripped
3 | (24/24) Accurately ripped
4 | (24/24) Accurately ripped
5 | (24/24) Accurately ripped
6 | (24/24) Accurately ripped
7 | (24/24) Accurately ripped


==== Log checksum 3FF053FFBF1C22788A183070C35A65247BF2BC04FBD75F0E007921616A363F3E ====


Tracklist CD09 - 2000 Live ConstruKction 2:

01 Improv: Crim Chill Thrill (San Sebastian)
02 One Time
03 Improv: Mastelotto Maximatamus Est (Conegliano)
04 Three Of A Perfect Pair
05 Improv: El Groovistico SS Blasticus (Barcelona)
06 Sex Sleep Eat Drink Dream
07 Improv: C Chill Unchill (Rome)
08 Cage

Exact Audio Copy V1.3 from 2. September 2016

EAC extraction logfile from 28. June 2019, 8:30

King Crimson / Live ConstruKction 2

Used drive : PLEXTOR BD-R PX-B950SA Adapter: 1 ID: 1

Read mode : Secure
Utilize accurate stream : Yes
Defeat audio cache : Yes
Make use of C2 pointers : No

Read offset correction : 6
Overread into Lead-In and Lead-Out : No
Fill up missing offset samples with silence : Yes
Delete leading and trailing silent blocks : No
Null samples used in CRC calculations : Yes
Used interface : Native Win32 interface for Win NT & 2000

Used output format : Internal WAV Routines
Sample format : 44.100 Hz; 16 Bit; Stereo


TOC of the extracted CD

Track | Start | Length | Start sector | End sector
––––––––––––––––––––––––––––-
1 | 0:00.00 | 5:41.41 | 0 | 25615
2 | 5:41.41 | 5:23.36 | 25616 | 49876
3 | 11:05.02 | 6:15.29 | 49877 | 78030
4 | 17:20.31 | 3:20.69 | 78031 | 93099
5 | 20:41.25 | 12:56.12 | 93100 | 151311
6 | 33:37.37 | 4:53.14 | 151312 | 173300
7 | 38:30.51 | 7:37.29 | 173301 | 207604
8 | 46:08.05 | 4:03.37 | 207605 | 225866


Range status and errors

Selected range

Filename C:\Users\Alex\Desktop\ALLexxess\King Crimson\2019 Heaven & Earth (24-Disc Box Set Panegyric Records)\CD09 2000 Live ConstruKction 2\King Crimson - Live ConstruKction 2.wav

Peak level 100.0 %
Extraction speed 7.0 X
Range quality 99.9 %
Test CRC 2212EF69
Copy CRC 2212EF69
Copy OK

No errors occurred


AccurateRip summary

Track 1 not present in database
Track 2 not present in database
Track 3 not present in database
Track 4 not present in database
Track 5 not present in database
Track 6 not present in database
Track 7 not present in database
Track 8 not present in database

None of the tracks are present in the AccurateRip database

End of status report

–– CUETools DB Plugin V2.1.6

[CTDB TOCID: xpd4YWgZPUro0IVczJJz..osIJM-] found
Submit result: xpd4YWgZPUro0IVczJJz..osIJM- has been confirmed
Track | CTDB Status
1 | (24/24) Accurately ripped
2 | (24/24) Accurately ripped
3 | (24/24) Accurately ripped
4 | (24/24) Accurately ripped
5 | (24/24) Accurately ripped
6 | (24/24) Accurately ripped
7 | (24/24) Accurately ripped
8 | (24/24) Accurately ripped


==== Log checksum 0CB5486CC436B588F3ABCEF2D7ACA01B5200B2CE6A70889223C88010E6772B89 ====


Tracklist CD10 - 2000 Live ConstruKction 3:

01 Improv: Heaven Groovistica (Copenhagen)
02 The World's My Oyster Soup Kitchen Floor Wax Museum
03 Improv: C Blasticum
04 Larks' Tongues In Aspic: Part IV
05 Improv: Mastelotticus SS Blasticus (Rome)
06 The Deception Of The Thrush

Exact Audio Copy V1.3 from 2. September 2016

EAC extraction logfile from 27. June 2019, 20:19

King Crimson / Live ConstruKction 3

Used drive : PLEXTOR BD-R PX-B950SA Adapter: 1 ID: 1

Read mode : Secure
Utilize accurate stream : Yes
Defeat audio cache : Yes
Make use of C2 pointers : No

Read offset correction : 6
Overread into Lead-In and Lead-Out : No
Fill up missing offset samples with silence : Yes
Delete leading and trailing silent blocks : No
Null samples used in CRC calculations : Yes
Used interface : Native Win32 interface for Win NT & 2000

Used output format : Internal WAV Routines
Sample format : 44.100 Hz; 16 Bit; Stereo


TOC of the extracted CD

Track | Start | Length | Start sector | End sector
––––––––––––––––––––––––––––-
1 | 0:00.00 | 9:33.35 | 0 | 43009
2 | 9:33.35 | 6:57.17 | 43010 | 74301
3 | 16:30.52 | 6:18.05 | 74302 | 102656
4 | 22:48.57 | 11:12.63 | 102657 | 153119
5 | 34:01.45 | 11:28.68 | 153120 | 204787
6 | 45:30.38 | 8:40.68 | 204788 | 243855


Range status and errors

Selected range

Filename C:\Users\Alex\Desktop\ALLexxess\King Crimson\2019 Heaven & Earth (24-Disc Box Set Panegyric Records)\CD10 2000 Live ConstruKction 3\King Crimson - Live ConstruKction 3.wav

Peak level 100.0 %
Extraction speed 7.2 X
Range quality 100.0 %
Test CRC DE9387C9
Copy CRC DE9387C9
Copy OK

No errors occurred


AccurateRip summary

Track 1 not present in database
Track 2 not present in database
Track 3 not present in database
Track 4 not present in database
Track 5 not present in database
Track 6 not present in database

None of the tracks are present in the AccurateRip database

End of status report

–– CUETools DB Plugin V2.1.6

[CTDB TOCID: WeyldACh58wQLghqv9djYapJVM0-] found
Submit result: WeyldACh58wQLghqv9djYapJVM0- has been confirmed
Track | CTDB Status
1 | (24/24) Accurately ripped
2 | (24/24) Accurately ripped
3 | (24/24) Accurately ripped
4 | (24/24) Accurately ripped
5 | (24/24) Accurately ripped
6 | (24/24) Accurately ripped


==== Log checksum F6138BB7D463C4C5D447F78BAFF086B3C4A94AF4CDFDD81CE47B15E34BEF269C ====


Tracklist CD11 - San Diego August 15, 2001:

01 The ConstruKction Of Light
02 Into The Frying Pan
03 Level Five
04 The Deception Of The Thrush
05 Dangerous Curves
06 Larks' Tongues In Aspic: Part IV
07 Thela Hun Ginjeet
08 Adrian Announcement
09 Red

Exact Audio Copy V1.3 from 2. September 2016

EAC extraction logfile from 27. June 2019, 19:39

King Crimson / San Diego August 15, 2001

Used drive : PLEXTOR BD-R PX-B950SA Adapter: 1 ID: 1

Read mode : Secure
Utilize accurate stream : Yes
Defeat audio cache : Yes
Make use of C2 pointers : No

Read offset correction : 6
Overread into Lead-In and Lead-Out : No
Fill up missing offset samples with silence : Yes
Delete leading and trailing silent blocks : No
Null samples used in CRC calculations : Yes
Used interface : Native Win32 interface for Win NT & 2000

Used output format : Internal WAV Routines
Sample format : 44.100 Hz; 16 Bit; Stereo


TOC of the extracted CD

Track | Start | Length | Start sector | End sector
––––––––––––––––––––––––––––-
1 | 0:00.00 | 8:47.64 | 0 | 39588
2 | 8:47.64 | 6:33.44 | 39589 | 69107
3 | 15:21.33 | 7:57.48 | 69108 | 104930
4 | 23:19.06 | 7:24.40 | 104931 | 138270
5 | 30:43.46 | 4:59.29 | 138271 | 160724
6 | 35:43.00 | 10:25.47 | 160725 | 207646
7 | 46:08.47 | 5:17.39 | 207647 | 231460
8 | 51:26.11 | 0:40.27 | 231461 | 234487
9 | 52:06.38 | 6:19.58 | 234488 | 262970


Range status and errors

Selected range

Filename C:\Users\Alex\Desktop\ALLexxess\King Crimson\2019 Heaven & Earth (24-Disc Box Set Panegyric Records)\CD11 San Diego August 15, 2001\King Crimson - San Diego August 15, 2001.wav

Peak level 95.4 %
Extraction speed 7.3 X
Range quality 99.9 %
Test CRC BD279D03
Copy CRC BD279D03
Copy OK

No errors occurred


AccurateRip summary

Track 1 not present in database
Track 2 not present in database
Track 3 not present in database
Track 4 not present in database
Track 5 not present in database
Track 6 not present in database
Track 7 not present in database
Track 8 not present in database
Track 9 not present in database

None of the tracks are present in the AccurateRip database

End of status report

–– CUETools DB Plugin V2.1.6

[CTDB TOCID: _VRVwzuW6NZJeA2wdURKTzUqP34-] found
Submit result: _VRVwzuW6NZJeA2wdURKTzUqP34- has been confirmed
Track | CTDB Status
1 | (23/23) Accurately ripped
2 | (23/23) Accurately ripped
3 | (23/23) Accurately ripped
4 | (23/23) Accurately ripped
5 | (23/23) Accurately ripped
6 | (23/23) Accurately ripped
7 | (23/23) Accurately ripped
8 | (23/23) Accurately ripped
9 | (23/23) Accurately ripped


==== Log checksum 77A3736BA27FA4A53BEA94FA87B1C7C1307AEF68728A9388C26AC53AD065DA00 ====


Tracklist CD12 - New Haven December 9, 2001:

01 Introductory Soundscape
02 Dangerous Curves
03 Into The Frying Pan
04 Adrian Announcement
05 EleKtriK
06 The ConstruKction Of Light
07 Dinosaur
08 Thela Hun Ginjeet

Exact Audio Copy V1.3 from 2. September 2016

EAC extraction logfile from 27. June 2019, 16:11

King Crimson / New Haven December 9, 2001 Part 1

Used drive : PLEXTOR BD-R PX-B950SA Adapter: 1 ID: 1

Read mode : Secure
Utilize accurate stream : Yes
Defeat audio cache : Yes
Make use of C2 pointers : No

Read offset correction : 6
Overread into Lead-In and Lead-Out : No
Fill up missing offset samples with silence : Yes
Delete leading and trailing silent blocks : No
Null samples used in CRC calculations : Yes
Used interface : Native Win32 interface for Win NT & 2000

Used output format : Internal WAV Routines
Sample format : 44.100 Hz; 16 Bit; Stereo


TOC of the extracted CD

Track | Start | Length | Start sector | End sector
––––––––––––––––––––––––––––-
1 | 0:00.00 | 3:47.67 | 0 | 17091
2 | 3:47.67 | 5:03.64 | 17092 | 39880
3 | 8:51.56 | 6:23.25 | 39881 | 68630
4 | 15:15.06 | 0:33.33 | 68631 | 71138
5 | 15:48.39 | 8:11.69 | 71139 | 108032
6 | 24:00.33 | 9:10.29 | 108033 | 149311
7 | 33:10.62 | 5:17.63 | 149312 | 173149
8 | 38:28.50 | 5:11.16 | 173150 | 196490


Range status and errors

Selected range

Filename C:\Users\Alex\Desktop\ALLexxess\King Crimson\2019 Heaven & Earth (24-Disc Box Set Panegyric Records)\CD12-CD13 New Haven December 9, 2001\King Crimson - New Haven December 9, 2001 Part 1.wav

Peak level 100.0 %
Extraction speed 6.8 X
Range quality 100.0 %
Test CRC 7C81B3CF
Copy CRC 7C81B3CF
Copy OK

No errors occurred


AccurateRip summary

Track 1 not present in database
Track 2 not present in database
Track 3 not present in database
Track 4 not present in database
Track 5 not present in database
Track 6 not present in database
Track 7 not present in database
Track 8 not present in database

None of the tracks are present in the AccurateRip database

End of status report

–– CUETools DB Plugin V2.1.6

[CTDB TOCID: 2iCCyXHewWgKHiaQkRt9VuEgtkg-] found
Submit result: 2iCCyXHewWgKHiaQkRt9VuEgtkg- has been confirmed
Track | CTDB Status
1 | (24/24) Accurately ripped
2 | (24/24) Accurately ripped
3 | (24/24) Accurately ripped
4 | (24/24) Accurately ripped
5 | (24/24) Accurately ripped
6 | (24/24) Accurately ripped
7 | (24/24) Accurately ripped
8 | (24/24) Accurately ripped


==== Log checksum EFBA760A5E04C18D73BFA42602338BD610B6C4653A9500156932182612D4EB15 ====


Tracklist CD13 - New Haven December 9, 2001:

01 Virtuous Circle
02 Larks' Tongues In Aspic: Part IV
03 The Deception Of The Thrush
04 Level Five
05 Red

Exact Audio Copy V1.3 from 2. September 2016

EAC extraction logfile from 26. June 2019, 18:55

King Crimson / New Haven December 9, 2001 Part 2

Used drive : PLEXTOR BD-R PX-B950SA Adapter: 1 ID: 1

Read mode : Secure
Utilize accurate stream : Yes
Defeat audio cache : Yes
Make use of C2 pointers : No

Read offset correction : 6
Overread into Lead-In and Lead-Out : No
Fill up missing offset samples with silence : Yes
Delete leading and trailing silent blocks : No
Null samples used in CRC calculations : Yes
Used interface : Native Win32 interface for Win NT & 2000

Used output format : Internal WAV Routines
Sample format : 44.100 Hz; 16 Bit; Stereo


TOC of the extracted CD

Track | Start | Length | Start sector | End sector
––––––––––––––––––––––––––––-
1 | 0:00.00 | 9:20.22 | 0 | 42021
2 | 9:20.22 | 12:21.50 | 42022 | 97646
3 | 21:41.72 | 8:06.54 | 97647 | 134150
4 | 29:48.51 | 10:43.47 | 134151 | 182422
5 | 40:32.23 | 6:13.32 | 182423 | 210429


Range status and errors

Selected range

Filename C:\Users\Alex\Desktop\ALLexxess\King Crimson\2019 Heaven & Earth (24-Disc Box Set Panegyric Records)\CD12-CD13 New Haven December 9, 2001\King Crimson - New Haven December 9, 2001 Part 2.wav

Peak level 98.1 %
Extraction speed 6.9 X
Range quality 99.9 %
Test CRC EF52B64A
Copy CRC EF52B64A
Copy OK

No errors occurred


AccurateRip summary

Track 1 not present in database
Track 2 not present in database
Track 3 not present in database
Track 4 not present in database
Track 5 not present in database

None of the tracks are present in the AccurateRip database

End of status report

–– CUETools DB Plugin V2.1.6

[CTDB TOCID: UVX_6C72WiaQ86d9vzdVFgmrHLk-] found
Submit result: UVX_6C72WiaQ86d9vzdVFgmrHLk- has been confirmed
Track | CTDB Status
1 | (22/22) Accurately ripped
2 | (22/22) Accurately ripped
3 | (22/22) Accurately ripped
4 | (22/22) Accurately ripped
5 | (22/22) Accurately ripped


==== Log checksum A1FCCC89AF13F658D84FAF36303619BB9F359FCC3CE372D41FD98F51D8F1A4D6 ====


Tracklist CD14 - EleKtriK: Live In Japan, 2003:

01 Introductory Soundscape
02 The Power To Believe I: A Cappella
03 Level Five
04 ProzaKc Blues
05 EleKtriK
06 Happy With What You Have To Be Happy With
07 One Time
08 Facts Of Life
09 The Power To Believe II: Power Circle
10 Dangerous Curves
11 Larks' Tongues In Aspic: Part IV
12 The World's My Oyster Soup Kitchen Floor Wax Museum

Exact Audio Copy V1.3 from 2. September 2016

EAC extraction logfile from 26. June 2019, 16:42

King Crimson / EleKtriK Live In Japan, 2003

Used drive : PLEXTOR BD-R PX-B950SA Adapter: 1 ID: 1

Read mode : Secure
Utilize accurate stream : Yes
Defeat audio cache : Yes
Make use of C2 pointers : No

Read offset correction : 6
Overread into Lead-In and Lead-Out : No
Fill up missing offset samples with silence : Yes
Delete leading and trailing silent blocks : No
Null samples used in CRC calculations : Yes
Used interface : Native Win32 interface for Win NT & 2000

Used output format : Internal WAV Routines
Sample format : 44.100 Hz; 16 Bit; Stereo


TOC of the extracted CD

Track | Start | Length | Start sector | End sector
––––––––––––––––––––––––––––-
1 | 0:00.00 | 5:04.71 | 0 | 22870
2 | 5:04.71 | 0:42.23 | 22871 | 26043
3 | 5:47.19 | 7:22.58 | 26044 | 59251
4 | 13:10.02 | 6:01.19 | 59252 | 86345
5 | 19:11.21 | 8:01.59 | 86346 | 122479
6 | 27:13.05 | 4:15.21 | 122480 | 141625
7 | 31:28.26 | 6:00.74 | 141626 | 168699
8 | 37:29.25 | 5:29.71 | 168700 | 193445
9 | 42:59.21 | 8:44.38 | 193446 | 232783
10 | 51:43.59 | 6:02.58 | 232784 | 259991
11 | 57:46.42 | 10:33.47 | 259992 | 307513
12 | 68:20.14 | 6:31.59 | 307514 | 336897


Range status and errors

Selected range

Filename C:\Users\Alex\Desktop\ALLexxess\King Crimson\2019 Heaven & Earth (24-Disc Box Set Panegyric Records)\CD14 EleKtriK Live In Japan 2003\King Crimson - EleKtriK Live In Japan, 2003.wav

Peak level 100.0 %
Extraction speed 8.0 X
Range quality 99.9 %
Test CRC 6403AC6E
Copy CRC 6403AC6E
Copy OK

No errors occurred


AccurateRip summary

Track 1 not present in database
Track 2 not present in database
Track 3 not present in database
Track 4 not present in database
Track 5 not present in database
Track 6 not present in database
Track 7 not present in database
Track 8 not present in database
Track 9 not present in database
Track 10 not present in database
Track 11 not present in database
Track 12 not present in database

None of the tracks are present in the AccurateRip database

End of status report

–– CUETools DB Plugin V2.1.6

[CTDB TOCID: ivdWF_693UuJR6jtyGa_FFwrhKE-] found
Submit result: ivdWF_693UuJR6jtyGa_FFwrhKE- has been confirmed
Track | CTDB Status
1 | (18/18) Accurately ripped
2 | (18/18) Accurately ripped
3 | (18/18) Accurately ripped
4 | (18/18) Accurately ripped
5 | (18/18) Accurately ripped
6 | (18/18) Accurately ripped
7 | (18/18) Accurately ripped
8 | (18/18) Accurately ripped
9 | (18/18) Accurately ripped
10 | (18/18) Accurately ripped
11 | (18/18) Accurately ripped
12 | (18/18) Accurately ripped


==== Log checksum 407560AB430B429788BB261FC7FE0F22AE307319D9F8630CB6205282B7EDBD55 ====


Tracklist CD15 - New Haven November 16, 2003:

01 The Power To Believe I
02 Level Five
03 The ConstruKction Of Light
04 Facts Of Life
05 EleKtriK
06 The Power To Believe II
07 Dinosaur
08 One Time
09 Happy With What You Have To Be Happy With

Exact Audio Copy V1.3 from 2. September 2016

EAC extraction logfile from 26. June 2019, 16:01

King Crimson / New Haven November 16, 2003 Part 1

Used drive : PLEXTOR BD-R PX-B950SA Adapter: 1 ID: 1

Read mode : Secure
Utilize accurate stream : Yes
Defeat audio cache : Yes
Make use of C2 pointers : No

Read offset correction : 6
Overread into Lead-In and Lead-Out : No
Fill up missing offset samples with silence : Yes
Delete leading and trailing silent blocks : No
Null samples used in CRC calculations : Yes
Used interface : Native Win32 interface for Win NT & 2000

Used output format : Internal WAV Routines
Sample format : 44.100 Hz; 16 Bit; Stereo


TOC of the extracted CD

Track | Start | Length | Start sector | End sector
––––––––––––––––––––––––––––-
1 | 0:00.00 | 0:45.33 | 0 | 3407
2 | 0:45.33 | 7:16.48 | 3408 | 36155
3 | 8:02.06 | 9:20.46 | 36156 | 78201
4 | 17:22.52 | 5:49.17 | 78202 | 104393
5 | 23:11.69 | 7:51.58 | 104394 | 139776
6 | 31:03.52 | 8:16.36 | 139777 | 177012
7 | 39:20.13 | 7:05.05 | 177013 | 208892
8 | 46:25.18 | 7:40.61 | 208893 | 243453
9 | 54:06.04 | 3:51.66 | 243454 | 260844


Range status and errors

Selected range

Filename C:\Users\Alex\Desktop\ALLexxess\King Crimson\2019 Heaven & Earth (24-Disc Box Set Panegyric Records)\CD15-CD16 New Haven November 16, 2003\King Crimson - New Haven November 16, 2003 Part 1.wav

Peak level 100.0 %
Extraction speed 7.4 X
Range quality 100.0 %
Test CRC 062BC89B
Copy CRC 062BC89B
Copy OK

No errors occurred


AccurateRip summary

Track 1 not present in database
Track 2 not present in database
Track 3 not present in database
Track 4 not present in database
Track 5 not present in database
Track 6 not present in database
Track 7 not present in database
Track 8 not present in database
Track 9 not present in database

None of the tracks are present in the AccurateRip database

End of status report

–– CUETools DB Plugin V2.1.6

[CTDB TOCID: ikh2cRUXTZY38lxk1oiui5bKus4-] found
Submit result: ikh2cRUXTZY38lxk1oiui5bKus4- has been confirmed
Track | CTDB Status
1 | (22/22) Accurately ripped
2 | (22/22) Accurately ripped
3 | (22/22) Accurately ripped
4 | (22/22) Accurately ripped
5 | (22/22) Accurately ripped
6 | (22/22) Accurately ripped
7 | (22/22) Accurately ripped
8 | (22/22) Accurately ripped
9 | (22/22) Accurately ripped


==== Log checksum 10500D6C1CB19C9FF08591721B8F7350DFAA259A650F9A677984A135B7FFA406 ====


Tracklist CD16 - New Haven November 16, 2003:

01 Dangerous Curves
02 Larks' Tongues In Aspic: Part IV
03 The Power To Believe III
04 Elephant Talk
05 RF Announcement
06 Adrian Announcement
07 Red

Exact Audio Copy V1.3 from 2. September 2016

EAC extraction logfile from 25. June 2019, 18:24

King Crimson / New Haven November 16, 2003 Part 2

Used drive : PLEXTOR BD-R PX-B950SA Adapter: 1 ID: 1

Read mode : Secure
Utilize accurate stream : Yes
Defeat audio cache : Yes
Make use of C2 pointers : No

Read offset correction : 6
Overread into Lead-In and Lead-Out : No
Fill up missing offset samples with silence : Yes
Delete leading and trailing silent blocks : No
Null samples used in CRC calculations : Yes
Used interface : Native Win32 interface for Win NT & 2000

Used output format : Internal WAV Routines
Sample format : 44.100 Hz; 16 Bit; Stereo


TOC of the extracted CD

Track | Start | Length | Start sector | End sector
––––––––––––––––––––––––––––-
1 | 0:00.00 | 6:01.41 | 0 | 27115
2 | 6:01.41 | 10:34.51 | 27116 | 74716
3 | 16:36.17 | 8:27.23 | 74717 | 112764
4 | 25:03.40 | 4:50.70 | 112765 | 134584
5 | 29:54.35 | 1:46.30 | 134585 | 142564
6 | 31:40.65 | 0:43.49 | 142565 | 145838
7 | 32:24.39 | 6:43.48 | 145839 | 176111


Range status and errors

Selected range

Filename C:\Users\Alex\Desktop\ALLexxess\King Crimson\2019 Heaven & Earth (24-Disc Box Set Panegyric Records)\CD15-CD16 New Haven November 16, 2003\King Crimson - New Haven November 16, 2003 Part 2.wav

Peak level 100.0 %
Extraction speed 6.7 X
Range quality 100.0 %
Test CRC 1F35B5FF
Copy CRC 1F35B5FF
Copy OK

No errors occurred


AccurateRip summary

Track 1 not present in database
Track 2 not present in database
Track 3 not present in database
Track 4 not present in database
Track 5 not present in database
Track 6 not present in database
Track 7 not present in database

None of the tracks are present in the AccurateRip database

End of status report

–– CUETools DB Plugin V2.1.6

[CTDB TOCID: 8onrc61Ii_4urjVvREAMZVBAVHk-] found
Submit result: 8onrc61Ii_4urjVvREAMZVBAVHk- has been confirmed
Track | CTDB Status
1 | (24/24) Accurately ripped
2 | (24/24) Accurately ripped
3 | (24/24) Accurately ripped
4 | (24/24) Accurately ripped
5 | (24/24) Accurately ripped
6 | (24/24) Accurately ripped
7 | (24/24) Accurately ripped


==== Log checksum 50672828373579A3D5E185BF974E859782E7217D6AC4E08CD9AFAFE020977F22 ====


Tracklist CD17 - New York August 14-17, 2008
:


01 Introductory Soundscape
02 Drum Duet
03 The ConstruKction Of Light
04 Red
05 Frame By Frame
06 Neurotica
07 Three Of A Perfect Pair
08 Sleepless
09 VROOOM
10 Coda: Marine 475
11 One Time
12 B'Boom

Exact Audio Copy V1.3 from 2. September 2016

EAC extraction logfile from 25. June 2019, 17:59

King Crimson / New York August 14-17, 2008 Part 1

Used drive : PLEXTOR BD-R PX-B950SA Adapter: 1 ID: 1

Read mode : Secure
Utilize accurate stream : Yes
Defeat audio cache : Yes
Make use of C2 pointers : No

Read offset correction : 6
Overread into Lead-In and Lead-Out : No
Fill up missing offset samples with silence : Yes
Delete leading and trailing silent blocks : No
Null samples used in CRC calculations : Yes
Used interface : Native Win32 interface for Win NT & 2000

Used output format : Internal WAV Routines
Sample format : 44.100 Hz; 16 Bit; Stereo


TOC of the extracted CD

Track | Start | Length | Start sector | End sector
––––––––––––––––––––––––––––-
1 | 0:00.00 | 3:39.20 | 0 | 16444
2 | 3:39.20 | 2:23.51 | 16445 | 27220
3 | 6:02.71 | 8:43.74 | 27221 | 66519
4 | 14:46.70 | 6:33.00 | 66520 | 95994
5 | 21:19.70 | 5:26.05 | 95995 | 120449
6 | 26:46.00 | 4:56.19 | 120450 | 142668
7 | 31:42.19 | 4:10.04 | 142669 | 161422
8 | 35:52.23 | 6:07.17 | 161423 | 188964
9 | 41:59.40 | 4:33.72 | 188965 | 209511
10 | 46:33.37 | 2:51.42 | 209512 | 222378
11 | 49:25.04 | 6:48.68 | 222379 | 253046
12 | 56:13.72 | 3:35.36 | 253047 | 269207


Range status and errors

Selected range

Filename C:\Users\Alex\Desktop\ALLexxess\King Crimson\2019 Heaven & Earth (24-Disc Box Set Panegyric Records)\CD17-CD18 New York August 14-17, 2008\King Crimson - New York August 14-17, 2008 Part 1.wav

Peak level 100.0 %
Extraction speed 7.5 X
Range quality 100.0 %
Test CRC 59225DFC
Copy CRC 59225DFC
Copy OK

No errors occurred


AccurateRip summary

Track 1 not present in database
Track 2 not present in database
Track 3 not present in database
Track 4 not present in database
Track 5 not present in database
Track 6 not present in database
Track 7 not present in database
Track 8 not present in database
Track 9 not present in database
Track 10 not present in database
Track 11 not present in database
Track 12 not present in database

None of the tracks are present in the AccurateRip database

End of status report

–– CUETools DB Plugin V2.1.6

[CTDB TOCID: wnThj90FN4LzEzjQr8k2YGznGyE-] found
Submit result: wnThj90FN4LzEzjQr8k2YGznGyE- has been confirmed
Track | CTDB Status
1 | (23/23) Accurately ripped
2 | (23/23) Accurately ripped
3 | (23/23) Accurately ripped
4 | (23/23) Accurately ripped
5 | (23/23) Accurately ripped
6 | (23/23) Accurately ripped
7 | (23/23) Accurately ripped
8 | (23/23) Accurately ripped
9 | (23/23) Accurately ripped
10 | (23/23) Accurately ripped
11 | (23/23) Accurately ripped
12 | (23/23) Accurately ripped


==== Log checksum 9B91375C62ABD39BFF9AA4CD1C480FA467492E64F1293CF70E403048E3681B7B ====


Tracklist CD18 - New York August 14-17, 2008
:


01 Dinosaur
02 Level Five
03 The Talking Drum
04 Larks' Tongues In Aspic: Part Two
05 Drum Duet
06 Thela Hun Ginjeet
07 Elephant Talk
08 Indiscipline

Exact Audio Copy V1.3 from 2. September 2016

EAC extraction logfile from 25. June 2019, 17:23

King Crimson / New York August 14-17, 2008 Part 2

Used drive : PLEXTOR BD-R PX-B950SA Adapter: 1 ID: 1

Read mode : Secure
Utilize accurate stream : Yes
Defeat audio cache : Yes
Make use of C2 pointers : No

Read offset correction : 6
Overread into Lead-In and Lead-Out : No
Fill up missing offset samples with silence : Yes
Delete leading and trailing silent blocks : No
Null samples used in CRC calculations : Yes
Used interface : Native Win32 interface for Win NT & 2000

Used output format : Internal WAV Routines
Sample format : 44.100 Hz; 16 Bit; Stereo


TOC of the extracted CD

Track | Start | Length | Start sector | End sector
––––––––––––––––––––––––––––-
1 | 0:00.00 | 5:43.35 | 0 | 25759
2 | 5:43.35 | 6:36.32 | 25760 | 55491
3 | 12:19.67 | 3:13.67 | 55492 | 70033
4 | 15:33.59 | 8:56.10 | 70034 | 110243
5 | 24:29.69 | 4:47.56 | 110244 | 131824
6 | 29:17.50 | 8:57.30 | 131825 | 172129
7 | 38:15.05 | 5:10.58 | 172130 | 195437
8 | 43:25.63 | 8:59.52 | 195438 | 235914


Range status and errors

Selected range

Filename C:\Users\Alex\Desktop\ALLexxess\King Crimson\2019 Heaven & Earth (24-Disc Box Set Panegyric Records)\CD17-CD18 New York August 14-17, 2008\King Crimson - New York August 14-17, 2008 Part 2.wav

Peak level 100.0 %
Extraction speed 7.2 X
Range quality 100.0 %
Test CRC 5358D3C0
Copy CRC 5358D3C0
Copy OK

No errors occurred


AccurateRip summary

Track 1 not present in database
Track 2 not present in database
Track 3 not present in database
Track 4 not present in database
Track 5 not present in database
Track 6 not present in database
Track 7 not present in database
Track 8 not present in database

None of the tracks are present in the AccurateRip database

End of status report

–– CUETools DB Plugin V2.1.6

[CTDB TOCID: WmI9jYcflEahyI72AApzvkxiMxY-] found
Submit result: WmI9jYcflEahyI72AApzvkxiMxY- has been confirmed
Track | CTDB Status
1 | (23/23) Accurately ripped
2 | (23/23) Accurately ripped
3 | (23/23) Accurately ripped
4 | (23/23) Accurately ripped
5 | (23/23) Accurately ripped
6 | (23/23) Accurately ripped
7 | (23/23) Accurately ripped
8 | (23/23) Accurately ripped


==== Log checksum 4C0930980D6FA11CF3C122D7BAF221E0AFDA894170B56E84791715985301157A ====


Tracklist DVD1:

● The ReconstruKction Of Light- (New Stereo, 5.1 Surround & Original Stereo Mixes)
● ProjeKct X - Heaven & Earth (PCM Stereo)
- 24/48 DTS (Surround) & Stereo

Title: DVD1
Size: 3.75 Gb ( 3 929 718,00 KBytes ) - DVD-5
Enabled regions: 1, 2, 3, 4, 5, 6, 7, 8

VTS_01 :
Play Length: 00:59:59
Video: NTSC 16:9 (720x480) VBR, Auto Letterboxed
Audio:
English (LinearPCM, 2 ch)
English (DTS, 6 ch)

VTS_02 :
Play Length: 00:58:20
Video: NTSC 16:9 (720x480) VBR, Auto Letterboxed
Audio:
English (LinearPCM, 2 ch)

VTS_03 :
Play Length: 01:06:54
Video: NTSC 16:9 (720x480) VBR, Auto Letterboxed
Audio:
English (LinearPCM, 2 ch)


Tracklist DVD2:

● The Power To Believe (2019 Expanded Stereo, 5.1 Surround & Original Stereo Mixes)
● Happy With What You Have To Be Happy With & Level 5 (PCM Stereo)
- 24/48 DTS (Surround) & Stereo

Title: DVD2
Size: 3.97 Gb ( 4 158 058,00 KBytes ) - DVD-5
Enabled regions: 1, 2, 3, 4, 5, 6, 7, 8

VTS_01 :
Play Length: 00:34:27
Video: NTSC 16:9 (720x480) VBR, Auto Letterboxed
Audio:
English (LinearPCM, 2 ch)

VTS_02 :
Play Length: 01:04:41
Video: NTSC 16:9 (720x480) VBR, Auto Letterboxed
Audio:
English (LinearPCM, 2 ch)
English (DTS, 6 ch)

VTS_03 :
Play Length: 00:51:17
Video: NTSC 16:9 (720x480) VBR, Auto Letterboxed
Audio:
English (LinearPCM, 2 ch)

VTS_04 :
Play Length: 00:44:49
Video: NTSC 16:9 (720x480) VBR, Auto Letterboxed
Audio:
English (LinearPCM, 2 ch)


Tracklist BD1:

PCM 24/48 Stereo
● Сomplete concerts of ProjeKcts 1, 3, 4 & 6
(Number in brackets for each group)
● ProjeKct 2 - Space Groove
● The ProjeKcts 1, 2, 3, 4 - Live from The ProjeKcts Box
● ProjeKct 1 - Jazz Cafe Suite
● ProjeKct X - Heaven & Earth
● BPM&M - ExtraKcts & ArtifaKcts (with Bonus Tracks)
● Rieflin/Fripp/Gunn - Repercussions Of Angelic Behaviour

Tracklist BD2:

● Сomplete Recordings of ProjeKct 2 - The Tour
(Rehersals and 33 Complet Concerts) DTS HD-MA 16/48 Stereo

Tracklist BD3:

● The ReConstruKction Of Light - (New Stereo, 5.1 Surround & Original Stereo Mixes)
● The Power To Believe - (Expanded 2019, 5.1 Surround & Original Stereo Mixes)
● Happy With What You Have To Be Happy With (24/48 Stereo)
● Level 5 (24/48 Stereo) & ● Live In London 2000 (24/48 Stereo)
● EleKtriK (Live In Japan 2003) ( (24/48 Stereo & 5.1 Surround)
● Video of a Tour of the KC Studio/Live Equipment Setup from 2002

Tracklist BD4:

● Bootleg TV Live - Audio & Video Selected from 21 Concerts on the Europe 2000 Tour

King Crimson - Heaven & Earth (2019) [24-Disc Super Deluxe Box Set]

King Crimson - Heaven & Earth (2019) [24-Disc Super Deluxe Box Set]

King Crimson - Heaven & Earth (2019) [24-Disc Super Deluxe Box Set]

King Crimson - Heaven & Earth (2019) [24-Disc Super Deluxe Box Set]

King Crimson - Heaven & Earth (2019) [24-Disc Super Deluxe Box Set]

* * * * *

King Crimson - Heaven & Earth (2019) [24-Disc Super Deluxe Box Set]

All thanks go to ALLexxess

King Crimson in my Blog

Download King Crimson - Heaven & Earth (2019):