Subcategories

King Crimson - Live In Vienna (2018) {3CD Box Set}

Posted By: popsakov
King Crimson - Live In Vienna (2018) {3CD Box Set}

King Crimson - Live In Vienna (2018) {3CD Box Set}
EAC Rip | FLAC (Img) + Cue + Log ~ 1,13 Gb | Scans (JPG, 600 dpi) ~ 50 Mb | RAR 5% Recovery
Art Rock, Progressive Rock | Panegyric / Discipline Global Mobile #KCXP5002

Three CDs featuring the complete concert from Vienna on Dec. 1st 2016 mixed from the original multi-track tapes. CDs Presented in concert sequence with discs 1 & 2 featuring the complete first and second sets. CD 3 features Vienna encores plus the long awaited live recorded debut of Fracture by the 2016 line-up as performed in Copenhagen. CD3 also features a series of soundscapes edited into newly sequenced pieces. Drawn from the introduction music (composed/improvised afresh for each night) & featuring Robert Fripp, Mel Collins & Tony Levin, this essential component of current live KC shows also receives it's most complete presentation to date. Presented in a 4 fold-out digifile package with 16 pages booklet featuring tour photos & notes by David Singleton & housed in a slipcase.
King Crimson - Live In Vienna (2018) {3CD Box Set}
King Crimson - Live In Vienna (2018) {3CD Box Set}
King Crimson - Live In Vienna (2018) {3CD Box Set}


***************

King Crimson - Live In Vienna (2018) {3CD Box Set}

Track List CD1:

01. Walk On: Monk Morph Music of the Chamber [2:31]
02. The Hell Hounds of Krim [3:40]
03. Pictures of a City [8:40]
04. Dawn Song [2:20]
05. Suitable Grounds for the Blues [4:47]
06. VROOOM [5:13]
07. The ConstruKction of Light [6:37]
08. The Court of the Crimson King [7:19]
09. The Letters [6:15]
10. Sailor's Tale [6:18]
11. Interlude [2:45]
12. Radical Action II [2:16]
13. Level Five [7:28]

Exact Audio Copy V1.0 beta 3 from 29. August 2011

EAC extraction logfile from 7. May 2018, 20:51

King Crimson / Live In Vienna-Disc 1

Used drive : PLEXTOR DVDR PX-740A Adapter: 0 ID: 0

Read mode : Secure
Utilize accurate stream : Yes
Defeat audio cache : Yes
Make use of C2 pointers : No

Read offset correction : 618
Overread into Lead-In and Lead-Out : No
Fill up missing offset samples with silence : Yes
Delete leading and trailing silent blocks : No
Null samples used in CRC calculations : Yes
Used interface : Native Win32 interface for Win NT & 2000

Used output format : Internal WAV Routines
Sample format : 44.100 Hz; 16 Bit; Stereo


TOC of the extracted CD

Track | Start | Length | Start sector | End sector
––––––––––––––––––––––––––––-
1 | 0:00.00 | 2:31.30 | 0 | 11354
2 | 2:31.30 | 3:39.44 | 11355 | 27823
3 | 6:10.74 | 8:40.27 | 27824 | 66850
4 | 14:51.26 | 2:19.42 | 66851 | 77317
5 | 17:10.68 | 4:46.50 | 77318 | 98817
6 | 21:57.43 | 5:13.08 | 98818 | 122300
7 | 27:10.51 | 6:37.17 | 122301 | 152092
8 | 33:47.68 | 7:18.66 | 152093 | 185008
9 | 41:06.59 | 6:14.66 | 185009 | 213124
10 | 47:21.50 | 6:18.22 | 213125 | 241496
11 | 53:39.72 | 2:45.12 | 241497 | 253883
12 | 56:25.09 | 2:15.41 | 253884 | 264049
13 | 58:40.50 | 7:28.37 | 264050 | 297686


Range status and errors

Selected range

Filename C:\MUSIC\CD Rips_J\King Crimson Vienna\CD 1\King Crimson - Live In Vienna-Disc 1.wav

Peak level 91.9 %
Extraction speed 8.9 X
Range quality 100.0 %
Test CRC 236288CE
Copy CRC 236288CE
Copy OK

No errors occurred


AccurateRip summary

Track 1 not present in database
Track 2 not present in database
Track 3 not present in database
Track 4 not present in database
Track 5 not present in database
Track 6 not present in database
Track 7 not present in database
Track 8 not present in database
Track 9 not present in database
Track 10 not present in database
Track 11 not present in database
Track 12 not present in database
Track 13 not present in database

None of the tracks are present in the AccurateRip database

End of status report

==== Log checksum 4EB503244268BF5FEAF932FE2C654B2028C5C4FC6AB41C877EDE6E2253D00A9D ====

foobar2000 1.3.16 / Dynamic Range Meter 1.1.1
log date: 2018-05-08 12:56:44

––––––––––––––––––––––––––––––––––––––––
Analyzed: King Crimson / Live In Vienna-Disc 1
––––––––––––––––––––––––––––––––––––––––

DR Peak RMS Duration Track
––––––––––––––––––––––––––––––––––––––––
DR11 -7.11 dB -23.34 dB 2:31 01-Walk On: Monk Morph Music of the Chamber
DR8 -5.32 dB -15.04 dB 3:40 02-The Hell Hounds of Krim
DR6 -2.10 dB -10.06 dB 8:40 03-Pictures of a City
DR9 -5.17 dB -18.01 dB 2:20 04-Dawn Song
DR6 -2.22 dB -9.90 dB 4:47 05-Suitable Grounds for the Blues
DR8 -0.73 dB -11.30 dB 5:13 06-VROOOM
DR7 -2.06 dB -11.11 dB 6:37 07-The ConstruKction of Light
DR7 -1.84 dB -11.27 dB 7:19 08-The Court of the Crimson King
DR7 -2.16 dB -13.23 dB 6:15 09-The Letters
DR8 -1.98 dB -11.13 dB 6:18 10-Sailor's Tale
DR10 -4.66 dB -17.65 dB 2:45 11-Interlude
DR7 -2.00 dB -9.26 dB 2:16 12-Radical Action II
DR7 -2.00 dB -10.87 dB 7:28 13-Level Five
––––––––––––––––––––––––––––––––––––––––

Number of tracks: 13
Official DR value: DR8

Samplerate: 44100 Hz
Channels: 2
Bits per sample: 16
Bitrate: 824 kbps
Codec: FLAC
================================================================================

[CUETools log; Date: 08.05.2018 12:55:30; Version: 2.1.6]
[CTDB TOCID: iiF213Ng80zaZvnsRFUSJpwOqcA-] found.
Track | CTDB Status
1 | (53/53) Accurately ripped
2 | (53/53) Accurately ripped
3 | (53/53) Accurately ripped
4 | (53/53) Accurately ripped
5 | (53/53) Accurately ripped
6 | (53/53) Accurately ripped
7 | (53/53) Accurately ripped
8 | (53/53) Accurately ripped
9 | (53/53) Accurately ripped
10 | (53/53) Accurately ripped
11 | (53/53) Accurately ripped
12 | (52/53) Accurately ripped
13 | (51/53) Accurately ripped
[AccurateRip ID: 001eb2a4-0139322a-a60f810d] disk not present in database.

Track Peak [ CRC32 ] [W/O NULL] [ LOG ]
– 91,9 [236288CE] [769FA822] CRC32
01 44,1 [268AC6E7] [7B6E0EF0]
02 54,1 [E7B77ECE] [188266AC]
03 78,5 [947CB0BD] [8E6C167B]
04 55,1 [97EFD100] [DAFE81DC]
05 77,4 [8E5B33A0] [7B8C2AF5]
06 91,9 [B03FBD69] [2A7C4058]
07 78,9 [82A2E6F7] [498D9165]
08 80,9 [C12987B1] [5B256EBB]
09 77,9 [DB2F72AD] [BED691B5]
10 79,6 [AA167903] [C91AF25C]
11 58,4 [366758B0] [B16A0BD2]
12 79,4 [F02D73D2] [9AFBF2E6]
13 79,4 [FB086560] [85600C51]

Track List CD2:

01. Fairy Dust Of The Drumsons [1:43]
02. Peace [1:55]
03. Cirkus [7:32]
04. Indiscipline [8:50]
05. Epitaph [8:47]
06. Easy Money [10:08]
07. Devil Dogs Of Tesselation Row [3:03]
08. Red [6:42]
09. Meltdown [4:16]
10. Larks' Tongues In Aspic Part Two [7:01]
11. Starless [13:03]

Exact Audio Copy V1.0 beta 3 from 29. August 2011

EAC extraction logfile from 7. May 2018, 21:08

King Crimson / Live In Vienna-Disc 2

Used drive : PLEXTOR DVDR PX-740A Adapter: 0 ID: 0

Read mode : Secure
Utilize accurate stream : Yes
Defeat audio cache : Yes
Make use of C2 pointers : No

Read offset correction : 618
Overread into Lead-In and Lead-Out : No
Fill up missing offset samples with silence : Yes
Delete leading and trailing silent blocks : No
Null samples used in CRC calculations : Yes
Used interface : Native Win32 interface for Win NT & 2000

Used output format : Internal WAV Routines
Sample format : 44.100 Hz; 16 Bit; Stereo


TOC of the extracted CD

Track | Start | Length | Start sector | End sector
––––––––––––––––––––––––––––-
1 | 0:00.00 | 1:42.47 | 0 | 7696
2 | 1:42.47 | 1:54.55 | 7697 | 16301
3 | 3:37.27 | 7:32.20 | 16302 | 50221
4 | 11:09.47 | 8:50.23 | 50222 | 89994
5 | 19:59.70 | 8:47.08 | 89995 | 129527
6 | 28:47.03 | 10:07.39 | 129528 | 175091
7 | 38:54.42 | 3:03.30 | 175092 | 188846
8 | 41:57.72 | 6:41.68 | 188847 | 218989
9 | 48:39.65 | 4:16.10 | 218990 | 238199
10 | 52:56.00 | 7:00.63 | 238200 | 269762
11 | 59:56.63 | 13:03.10 | 269763 | 328497


Range status and errors

Selected range

Filename C:\MUSIC\CD Rips_J\King Crimson Vienna\CD 2\King Crimson - Live In Vienna-Disc 2.wav

Peak level 100.0 %
Extraction speed 9.5 X
Range quality 100.0 %
Test CRC 09EFA64D
Copy CRC 09EFA64D
Copy OK

No errors occurred


AccurateRip summary

Track 1 not present in database
Track 2 not present in database
Track 3 not present in database
Track 4 not present in database
Track 5 not present in database
Track 6 not present in database
Track 7 not present in database
Track 8 not present in database
Track 9 not present in database
Track 10 not present in database
Track 11 not present in database

None of the tracks are present in the AccurateRip database

End of status report

==== Log checksum D5174563F3E820E2C29DF43F31034C094B4A14A36831FC633A45EC2EAA9D9D0F ====

foobar2000 1.3.16 / Dynamic Range Meter 1.1.1
log date: 2018-05-08 12:59:44

––––––––––––––––––––––––––––––––––––––––
Analyzed: King Crimson / Live In Vienna-Disc 2
––––––––––––––––––––––––––––––––––––––––

DR Peak RMS Duration Track
––––––––––––––––––––––––––––––––––––––––
DR19 -10.11 dB -38.03 dB 1:43 01-Fairy Dust Of The Drumsons
DR10 -2.70 dB -18.85 dB 1:55 02-Peace
DR9 -0.06 dB -11.75 dB 7:32 03-Cirkus
DR10 0.00 dB -13.07 dB 8:50 04-Indiscipline
DR11 0.00 dB -13.74 dB 8:47 05-Epitaph
DR8 -0.43 dB -11.18 dB 10:08 06-Easy Money
DR9 -2.70 dB -15.71 dB 3:03 07-Devil Dogs Of Tesselation Row
DR9 0.00 dB -10.04 dB 6:42 08-Red
DR6 -1.21 dB -9.99 dB 4:16 09-Meltdown
DR8 -2.00 dB -11.94 dB 7:01 10-Larks' Tongues In Aspic Part Two
DR8 -0.97 dB -12.50 dB 13:03 11-Starless
––––––––––––––––––––––––––––––––––––––––

Number of tracks: 11
Official DR value: DR10

Samplerate: 44100 Hz
Channels: 2
Bits per sample: 16
Bitrate: 839 kbps
Codec: FLAC
================================================================================

[CUETools log; Date: 08.05.2018 12:59:26; Version: 2.1.6]
[CTDB TOCID: NS8ndO_HU0mmnUc7yN2fuo2zKVI-] found.
Track | CTDB Status
1 | (54/54) Accurately ripped
2 | (54/54) Accurately ripped
3 | (54/54) Accurately ripped
4 | (54/54) Accurately ripped
5 | (54/54) Accurately ripped
6 | (54/54) Accurately ripped
7 | (54/54) Accurately ripped
8 | (54/54) Accurately ripped
9 | (54/54) Accurately ripped
10 | (54/54) Accurately ripped
11 | (54/54) Accurately ripped
[AccurateRip ID: 001a23ee-00ec5fd7-91111b0b] disk not present in database.

Track Peak [ CRC32 ] [W/O NULL] [ LOG ]
– 100,0 [09EFA64D] [719B4FCD] CRC32
01 31,2 [612968C3] [24AC9913]
02 73,3 [06409CC0] [FBF7011E]
03 99,3 [5EDB4B08] [586B4442]
04 100,0 [B9427846] [8FE9EFC9]
05 100,0 [213F2E24] [21F8B433]
06 95,1 [A7F10BA2] [CBE84C60]
07 73,2 [DA3F6075] [6CFB7181]
08 100,0 [76951071] [E9019FB7]
09 86,9 [A94EBBC1] [55F4334E]
10 79,4 [5C0DF000] [F7EDDFBC]
11 89,3 [AA11D900] [EE325808]

Track List CD3 - Encores & Expansions:

01. Heroes [5:23]
02. Fracture [10:57]
03. 21st Century Schizoid Man [13:08]
04. Schoenberg Softened His Hat [11:45]
05. Ahriman's Ceaseless Corruptions [6:04]
06. Spenta's Counter Claim [0:59]

Exact Audio Copy V1.0 beta 3 from 29. August 2011

EAC extraction logfile from 7. May 2018, 20:34

King Crimson / Live In Vienna-Disc 3

Used drive : PLEXTOR DVDR PX-740A Adapter: 0 ID: 0

Read mode : Secure
Utilize accurate stream : Yes
Defeat audio cache : Yes
Make use of C2 pointers : No

Read offset correction : 618
Overread into Lead-In and Lead-Out : No
Fill up missing offset samples with silence : Yes
Delete leading and trailing silent blocks : No
Null samples used in CRC calculations : Yes
Used interface : Native Win32 interface for Win NT & 2000

Used output format : Internal WAV Routines
Sample format : 44.100 Hz; 16 Bit; Stereo


TOC of the extracted CD

Track | Start | Length | Start sector | End sector
––––––––––––––––––––––––––––-
1 | 0:00.00 | 5:23.23 | 0 | 24247
2 | 5:23.23 | 10:56.57 | 24248 | 73504
3 | 16:20.05 | 13:07.46 | 73505 | 132575
4 | 29:27.51 | 11:45.14 | 132576 | 185464
5 | 41:12.65 | 6:04.34 | 185465 | 212798
6 | 47:17.24 | 0:58.51 | 212799 | 217199


Range status and errors

Selected range

Filename C:\MUSIC\CD Rips_J\King Crimson Vienna\CD 3\King Crimson - Live In Vienna-Disc 3.wav

Peak level 100.0 %
Extraction speed 8.4 X
Range quality 100.0 %
Test CRC 8212A255
Copy CRC 8212A255
Copy OK

No errors occurred


AccurateRip summary

Track 1 not present in database
Track 2 not present in database
Track 3 not present in database
Track 4 not present in database
Track 5 not present in database
Track 6 not present in database

None of the tracks are present in the AccurateRip database

End of status report

==== Log checksum C41562F45893B37621523BFE24089CF5E2A2A6A3059CF9C40E98F3A980082CB9 ====

foobar2000 1.3.16 / Dynamic Range Meter 1.1.1
log date: 2018-05-08 13:03:23

––––––––––––––––––––––––––––––––––––––––
Analyzed: King Crimson / Live In Vienna-Disc 3
––––––––––––––––––––––––––––––––––––––––

DR Peak RMS Duration Track
––––––––––––––––––––––––––––––––––––––––
DR11 0.00 dB -13.16 dB 5:23 01-Heroes
DR10 0.00 dB -12.72 dB 10:57 02-Fracture
DR9 0.00 dB -11.08 dB 13:08 03-21st Century Schizoid Man
DR11 0.00 dB -16.83 dB 11:45 04-Schoenberg Softened His Hat
DR11 -0.14 dB -15.35 dB 6:04 05-Ahriman's Ceaseless Corruptions
DR12 -3.36 dB -20.61 dB 0:59 06-Spenta's Counter Claim
––––––––––––––––––––––––––––––––––––––––

Number of tracks: 6
Official DR value: DR11

Samplerate: 44100 Hz
Channels: 2
Bits per sample: 16
Bitrate: 813 kbps
Codec: FLAC
================================================================================

[CUETools log; Date: 08.05.2018 13:03:26; Version: 2.1.6]
[CTDB TOCID: qqWKHJM9OjyN9u_0IQtGB0fSsls-] found.
Track | CTDB Status
1 | (54/54) Accurately ripped
2 | (54/54) Accurately ripped
3 | (54/54) Accurately ripped
4 | (54/54) Accurately ripped
5 | (54/54) Accurately ripped
6 | (54/54) Accurately ripped
[AccurateRip ID: 000ce7e1-0045073b-5d0b5006] disk not present in database.

Track Peak [ CRC32 ] [W/O NULL] [ LOG ]
– 100,0 [8212A255] [7DF9CA92] CRC32
01 100,0 [AFF72E71] [6E86561E]
02 100,0 [FF402513] [CF68CF98]
03 100,0 [0352F3C9] [990B7728]
04 100,0 [43A554D4] [BECA98D6]
05 98,3 [F27CD7F5] [8FA48F5C]
06 67,9 [BFA493A8] [C80828B9]

Personnel:
Mel Collins - saxophones, flutes
Robert Fripp - guitar, keyboards
Tony Levin - basses, stick, voice
Pat Mastelotto - drums
Gavin Harrison - drums
Jakko Jakszyk - guitar, voice
Jeremy Stacey - drums, keyboards

King Crimson - Live In Vienna (2018) {3CD Box Set}

All thanks go to Juergen

>>> King Crimson in my Blog <<<

Download from icerbox.com: