Subcategories

King Crimson - Live in Toronto, November 20, 2015 (2016)

Posted By: v3122
King Crimson - Live in Toronto, November 20, 2015 (2016)

King Crimson - Live in Toronto, November 20, 2015 (2016)
EAC | Flac(Image) + Cue + Log
Discipline Global Mobile, DGM5013 | ~ 843 Mb | Scans Included
Progressive Rock / Art Rock

If there were any lingering doubts that King Crimson was back in fine form after the 2014 Live at the Orpheum teaser, they can all be dispelled with the release of the entire show from November 20, 2015 in Toronto. The set list is a fan's dream and includes songs that haven't been played live in decades.
Setting expectations high, "Larks' Tongues in Aspic, Pt. 1" starts the show proper and the band maintains a similar level of excitement throughout the entire two-plus-hour set. The three-drummer frontline is able to cover anything the amazing Jamie Muir/Bill Bruford pairing brought to the table as well as raising "polyrhythmic" to a whole new level. Mel Collins' winds sound great on classics like "Larks' Tongues" but also add a new dimension to newer tracks like "Level Five" and "The ConstruKction of Light." The twin guitars sound fantastic, and Tony Levin is just incredible. Most of the new songs are pieces for the three drummers, but "Radical Action…" is the first new piece for the entire band and it's cut from the same cloth as tunes like "Red" or "Larks' Tongues, Pt. 2."
Once the music starts, the set is presented exactly as it was played; no editing. The set list is great, the band is in top form, and the sound is perfect. You really can't ask for much more from a live recording.

by Sean Westergaard, AMG
King Crimson - Live in Toronto, November 20, 2015 (2016):

King Crimson - Live in Toronto, November 20, 2015 (2016)

Tracklist CD1:

01. Threshold Soundscape
02. Larks Tongues In Aspic: Part One
03. Pictures Of A City
04. VROOOM
05. Radical Action (To Unseat The Hold Of Monkey Mind)
06. Meltdown
07. Hell Hounds Of Krim
08. The ConstruKction Of Light
09. Red
10. Epitaph

Exact Audio Copy V1.0 beta 3 from 29. August 2011

EAC extraction logfile from 15. July 2016, 19:40

King Crimson / Live in Toronto CD1

Used drive : MATSHITABD-CMB UJ242AS Adapter: 0 ID: 1

Read mode : Secure
Utilize accurate stream : Yes
Defeat audio cache : Yes
Make use of C2 pointers : No

Read offset correction : 103
Overread into Lead-In and Lead-Out : No
Fill up missing offset samples with silence : Yes
Delete leading and trailing silent blocks : No
Null samples used in CRC calculations : Yes
Used interface : Installed external ASPI interface

Used output format : User Defined Encoder
Selected bitrate : 1024 kBit/s
Quality : High
Add ID3 tag : Yes
Command line compressor : C:\Program Files (x86)\Exact Audio Copy\Flac\flac.exe
Additional command line options : -V -8 -T "Date=%year%" -T "Genre=%genre%" %source%


TOC of the extracted CD

Track | Start | Length | Start sector | End sector
––––––––––––––––––––––––––––-
1 | 0:00.00 | 4:00.06 | 0 | 18005
2 | 4:00.06 | 10:29.65 | 18006 | 65245
3 | 14:29.71 | 8:32.03 | 65246 | 103648
4 | 23:01.74 | 5:18.60 | 103649 | 127558
5 | 28:20.59 | 3:20.53 | 127559 | 142611
6 | 31:41.37 | 4:51.36 | 142612 | 164472
7 | 36:32.73 | 3:31.20 | 164473 | 180317
8 | 40:04.18 | 6:44.54 | 180318 | 210671
9 | 46:48.72 | 6:47.06 | 210672 | 241202
10 | 53:36.03 | 9:02.74 | 241203 | 281926


Range status and errors

Selected range

Filename C:\EACrip\King Crimson - Live in Toronto CD1.wav

Peak level 100.0 %
Extraction speed 4.3 X
Range quality 100.0 %
Test CRC 86B6C316
Copy CRC 86B6C316
Copy OK

No errors occurred


AccurateRip summary

Track 1 cannot be verified as accurate (confidence 32) [8FCFC5A3], AccurateRip returned [C2A2DA75] (AR v2)
Track 2 cannot be verified as accurate (confidence 32) [114046A8], AccurateRip returned [1BC5244B] (AR v2)
Track 3 cannot be verified as accurate (confidence 32) [73CBD9DF], AccurateRip returned [91E48391] (AR v2)
Track 4 cannot be verified as accurate (confidence 32) [8CBB3561], AccurateRip returned [740FA868] (AR v2)
Track 5 cannot be verified as accurate (confidence 32) [BE6C5290], AccurateRip returned [DDC4B303] (AR v2)
Track 6 cannot be verified as accurate (confidence 32) [A2CF4C63], AccurateRip returned [4021848E] (AR v2)
Track 7 cannot be verified as accurate (confidence 32) [2901A28E], AccurateRip returned [D5E8710D] (AR v2)
Track 8 cannot be verified as accurate (confidence 32) [84FDBF42], AccurateRip returned [2C9D0F75] (AR v2)
Track 9 cannot be verified as accurate (confidence 32) [0E68287B], AccurateRip returned [01046D42] (AR v2)
Track 10 cannot be verified as accurate (confidence 31) [6E295B97], AccurateRip returned [FDFAF669] (AR v2)

No tracks could be verified as accurate
You may have a different pressing from the one(s) in the database

End of status report

==== Log checksum D0899BCBA9EA9887F193A52F42E9FEE56AB876897803EB2F454993AFFC2EA131 ====

foobar2000 1.2.9 / Dynamic Range Meter 1.1.1
log date: 2016-10-09 13:26:45

––––––––––––––––––––––––––––––––––––––––
Analyzed: King Crimson / Live in Toronto CD1
––––––––––––––––––––––––––––––––––––––––

DR Peak RMS Duration Track
––––––––––––––––––––––––––––––––––––––––
DR16 -8.88 dB -34.89 dB 4:00 01-Threshold Soundscape
DR10 -0.06 dB -15.72 dB 10:30 02-Larks? Tongues in Aspic: Part One
DR10 0.00 dB -11.35 dB 8:32 03-Pictures of a City
DR10 -0.09 dB -13.85 dB 5:19 04-VROOOM
DR10 0.00 dB -11.83 dB 3:21 05-Radical Action (to Unseat the Hold of Monkey Mind)
DR9 0.00 dB -11.67 dB 4:51 06-Meltdown
DR13 -0.25 dB -16.15 dB 3:31 07-The Hell Hounds of Krim
DR11 0.00 dB -13.00 dB 6:45 08-The ConstruKction of Light
DR9 0.00 dB -10.43 dB 6:47 09-Red
DR10 0.00 dB -12.82 dB 9:03 10-Epitaph
––––––––––––––––––––––––––––––––––––––––

Number of tracks: 10
Official DR value: DR11

Samplerate: 44100 Hz
Channels: 2
Bits per sample: 16
Bitrate: 875 kbps
Codec: FLAC

[CUETools log; Date: 09.10.2016 13:26:47; Version: 2.1.4]
[CTDB TOCID: YZFBGOMVUm9vPU6bdHTJzwknvPA-] found.
Track | CTDB Status
1 | (172/173) Accurately ripped
2 | (172/173) Accurately ripped
3 | (172/173) Accurately ripped
4 | (172/173) Accurately ripped
5 | (172/173) Accurately ripped
6 | (173/173) Accurately ripped
7 | (173/173) Accurately ripped
8 | (172/173) Accurately ripped
9 | (172/173) Accurately ripped
10 | (172/173) Accurately ripped
[AccurateRip ID: 00176eb1-00b94960-750eaf0a] found.
Track [ CRC | V2 ] Status
01 [f9441273|8fcfc5a3] (00+00/49) No match
02 [826e3a1b|114046a8] (00+00/49) No match
03 [9ee394ab|73cbd9df] (00+00/49) No match
04 [90ade726|8cbb3561] (00+00/49) No match
05 [7b977f9b|be6c5290] (00+00/49) No match
06 [b6247731|a2cf4c63] (00+00/49) No match
07 [70c50024|2901a28e] (00+00/49) No match
08 [f085fa04|84fdbf42] (00+00/49) No match
09 [975b67bb|0e68287b] (00+00/49) No match
10 [3cdafd91|6e295b97] (00+00/48) No match
Offsetted by 6:
01 [2ad4ed56] (05/49) Accurately ripped
02 [87ffd8ff] (05/49) Accurately ripped
03 [b9027455] (05/49) Accurately ripped
04 [78d87708] (05/49) Accurately ripped
05 [99c7661c] (05/49) Accurately ripped
06 [52b4dc9c] (05/49) Accurately ripped
07 [1f313740] (05/49) Accurately ripped
08 [94f7de6c] (05/49) Accurately ripped
09 [8d299db8] (05/49) Accurately ripped
10 [ce226316] (05/48) Accurately ripped

Track Peak [ CRC32 ] [W/O NULL] [ LOG ]
– 100,0 [86B6C316] [F55CD255] CRC32
01 35,9 [9CAE4329] [01A9BAC0]
02 99,3 [5EB8160B] [1AAA9CF2]
03 100,0 [975FA141] [A355E63E]
04 98,9 [CC957996] [5D734CC3]
05 100,0 [8C6B802F] [88E74F93]
06 100,0 [8A8435AA] [09F5C711]
07 97,1 [4A02E283] [B87AD669]
08 100,0 [977832AE] [14D26A8B]
09 99,9 [BA800499] [45BC316E]
10 100,0 [D27E21F3] [042AFB52]

King Crimson - Live in Toronto, November 20, 2015 (2016)

Tracklist CD2:

01. Banshee Legs Bell Hassle
02. Easy Money
03. Level Five
04. The Letters
05. Sailor's Tale
06. Starless
07. The Court Of The Crimson King
08. 21st Century Schizoid Man

Exact Audio Copy V1.0 beta 3 from 29. August 2011

EAC extraction logfile from 15. July 2016, 21:17

King Crimson / Live in Toronto CD2

Used drive : MATSHITABD-CMB UJ242AS Adapter: 0 ID: 1

Read mode : Secure
Utilize accurate stream : Yes
Defeat audio cache : Yes
Make use of C2 pointers : No

Read offset correction : 103
Overread into Lead-In and Lead-Out : No
Fill up missing offset samples with silence : Yes
Delete leading and trailing silent blocks : No
Null samples used in CRC calculations : Yes
Used interface : Installed external ASPI interface

Used output format : User Defined Encoder
Selected bitrate : 1024 kBit/s
Quality : High
Add ID3 tag : Yes
Command line compressor : C:\Program Files (x86)\Exact Audio Copy\Flac\flac.exe
Additional command line options : -V -8 -T "Date=%year%" -T "Genre=%genre%" %source%


TOC of the extracted CD

Track | Start | Length | Start sector | End sector
––––––––––––––––––––––––––––-
1 | 0:00.00 | 1:43.52 | 0 | 7776
2 | 1:43.52 | 8:33.42 | 7777 | 46293
3 | 10:17.19 | 7:04.30 | 46294 | 78123
4 | 17:21.49 | 5:38.72 | 78124 | 103545
5 | 23:00.46 | 6:56.68 | 103546 | 134813
6 | 29:57.39 | 15:18.66 | 134814 | 203729
7 | 45:16.30 | 7:17.41 | 203730 | 236545
8 | 52:33.71 | 11:41.60 | 236546 | 289180


Range status and errors

Selected range

Filename C:\EACrip\King Crimson - Live in Toronto CD2.wav

Peak level 100.0 %
Extraction speed 2.6 X
Range quality 100.0 %
Test CRC 20C48D39
Copy CRC 20C48D39
Copy OK

No errors occurred


AccurateRip summary

Track 1 cannot be verified as accurate (confidence 30) [F91F5040], AccurateRip returned [D37DFAAC] (AR v2)
Track 2 cannot be verified as accurate (confidence 30) [38A1E473], AccurateRip returned [7794B8E1] (AR v2)
Track 3 cannot be verified as accurate (confidence 30) [E4DB312B], AccurateRip returned [DA0FA409] (AR v2)
Track 4 cannot be verified as accurate (confidence 30) [11AAAE52], AccurateRip returned [B6B6E80B] (AR v2)
Track 5 cannot be verified as accurate (confidence 30) [95FE6EBA], AccurateRip returned [714CF0CF] (AR v2)
Track 6 cannot be verified as accurate (confidence 30) [59A8C2C5], AccurateRip returned [B7F9ECBF] (AR v2)
Track 7 cannot be verified as accurate (confidence 30) [32D008E0], AccurateRip returned [491A3BE4] (AR v2)
Track 8 cannot be verified as accurate (confidence 29) [C7D42F3A], AccurateRip returned [A156D2AC] (AR v2)

No tracks could be verified as accurate
You may have a different pressing from the one(s) in the database

End of status report

==== Log checksum B7010DC5732AF90824913809CAE3A77F8C94F936117B6DF93D270B4B46326B90 ====

foobar2000 1.2.9 / Dynamic Range Meter 1.1.1
log date: 2016-10-09 13:26:12

––––––––––––––––––––––––––––––––––––––––
Analyzed: King Crimson / Live in Toronto CD2
––––––––––––––––––––––––––––––––––––––––

DR Peak RMS Duration Track
––––––––––––––––––––––––––––––––––––––––
DR10 -7.94 dB -21.59 dB 1:44 01-Banshee Legs Bell Hassle
DR9 0.00 dB -11.84 dB 8:34 02-Easy Money
DR8 0.00 dB -9.91 dB 7:04 03-Level Five
DR10 0.00 dB -15.14 dB 5:39 04-The Letters
DR9 0.00 dB -11.52 dB 6:57 05-Sailor's Tale
DR9 0.00 dB -13.46 dB 15:19 06-Starless
DR10 0.00 dB -12.95 dB 7:18 07-The Court of the Crimson King
DR9 0.00 dB -11.77 dB 11:42 08-21st Century Schizoid Man
––––––––––––––––––––––––––––––––––––––––

Number of tracks: 8
Official DR value: DR9

Samplerate: 44100 Hz
Channels: 2
Bits per sample: 16
Bitrate: 894 kbps
Codec: FLAC

[CUETools log; Date: 09.10.2016 13:26:26; Version: 2.1.4]
[CTDB TOCID: .ZbfluI8l6i5l7.5VaOuXn5RsrA-] found.
Track | CTDB Status
1 | (177/179) Accurately ripped
2 | (177/179) Accurately ripped
3 | (178/179) Accurately ripped
4 | (178/179) Accurately ripped
5 | (179/179) Accurately ripped
6 | (178/179) Accurately ripped
7 | (179/179) Accurately ripped
8 | (176/179) Accurately ripped
[AccurateRip ID: 0010c8ec-0075b75e-680f0f08] found.
Track [ CRC | V2 ] Status
01 [a3b52861|f91f5040] (00+00/49) No match
02 [a8bffea8|38a1e473] (00+00/49) No match
03 [1d8308fb|e4db312b] (00+00/49) No match
04 [4c941e17|11aaae52] (00+00/49) No match
05 [0ed11426|95fe6eba] (00+00/49) No match
06 [721fc0da|59a8c2c5] (00+00/49) No match
07 [9264d6e1|32d008e0] (00+00/49) No match
08 [aca0d82f|c7d42f3a] (00+00/48) No match
Offsetted by 6:
01 [7ee4d29e] (05/49) Accurately ripped
02 [e4fe8718] (05/49) Accurately ripped
03 [0f63b741] (05/49) Accurately ripped
04 [f1a56beb] (05/49) Accurately ripped
05 [eb34d012] (05/49) Accurately ripped
06 [d7a44894] (05/49) Accurately ripped
07 [aaebdef1] (05/49) Accurately ripped
08 [8ba00ea2] (05/48) Accurately ripped

Track Peak [ CRC32 ] [W/O NULL] [ LOG ]
– 100,0 [20C48D39] [B3EB9176] CRC32
01 40,1 [28C17CF5] [D6788D00]
02 100,0 [A5F12352] [B51994AE]
03 100,0 [DFFFA985] [6B7D1CAD]
04 100,0 [C0374307] [69C3A620]
05 99,9 [D72FBF0C] [2D611051]
06 100,0 [4716D764] [B14D95F8]
07 99,9 [65BDFEF8] [28553535]
08 100,0 [FC6BF0DA] [79529C1B]

King Crimson - Live in Toronto, November 20, 2015 (2016)

All thanks go to HaRD

King Crimson in my Blog

Download King Crimson - Live in Toronto, November 20, 2015 (2016):