Tags
Language
Tags

King Crimson - The Power To Believe (2003) {2019, CD+DVD-A/V, 40th Anniversary Series, Remastered} PROPER

Posted By:
King Crimson - The Power To Believe (2003) {2019, CD+DVD-A/V, 40th Anniversary Series, Remastered} PROPER

King Crimson - The Power To Believe (2003) {2019, CD+DVD-A/V, 40th Anniversary Series, Remastered}
EAC Rip | FLAC (Img) + Cue + Log ~ 417 Mb | MP3 CBR320 ~ 189 Mb | Full Scans | 01:04:35
DVD-Audio/Video | MPEG-2, NTSC 720x480 (16:9), 29.970 fps, VBR
Audio: MLP 5.1/2.0 (24/48) / DTS 5.1 (24/48) / LPCM 2.0 (24/48) | ~ 7,56 Gb | RAR 5% Recovery
Art Rock, Progressive Rock | Discipline Global Mobile / Panegyric #KCSP15

Deluxe CD + DVD-A edition. The Power to Believe - is the fifteenth and final release in the acclaimed King Crimson 40th anniversary series. The CD features an enhanced, expanded master of the album. The DVD-a features the new master in hi-res stereo audio. The DVD-A also features the album in lossless 5.1 Surround Sound as mixed by David Singleton. As a bonus feature, the mini-album Happy With What You Have to be Happy With - which preceded the release of The Power to Believe is included. Presented as a double digipak format in a slipcase with new sleeve notes by King Crimson biographer Sid Smith along with rare photos and archive material.

The Power to Believe (2003) marks the return of King Crimson for the group's first full-length studio release since ConstruKction of Light (2000). While it draws upon material featured on the live Level Five (2001) and studio Happy with What You Have to Be Happy With (2002) extended-play discs, there are also several new sonic sculptures included. Among them is the title track, which is divided into a series of central thematic motifs much in the same manner as the "Larks' Tongues in Aspic" movements had done in the past. This 21st century schizoid band ably bears the torch of its predecessors with the same ballsy aggression that has informed other seminal King Crimson works – such as In the Court of the Crimson King (1969), Red (1974), and more recently THRAK (1995). This incarnation of the Mighty Krim includes the excessively talented quartet of Adrian Belew (guitar/vocals), Robert Fripp (guitar), Trey Gunn (Warr guitar/Warr fretless guitar), and Pat Mastelotto (percussion). Under the auspices of Machine – whose notable productions include post-grunge and industrial medalists Pitchshifter and White Zombie – the combo unleashes a torrent of alternating sonic belligerence ("Level Five") and inescapable beauty ("Eyes Wide Open"). These extremes are linked as well as juxtaposed by equally challenging soundscapes from Fripp on "The Facts of Life: Intro" as well as Belew's series of "The Power to Believe" haikus. The disc is fleshed out with some choice extended instrumentals such as "Elektrik" and "Dangerous Curves," boasting tricky time signatures that are indelibly linked to equally engaging melodies. Both "Happy With What You Have to Be Happy With" and "Facts of Life" stand out as the (dare say) perfect coalescence of Belew's uncanny Beatlesque lyrical sense with the sort of bare-knuckled, in your face aural attack that has defined King Crimson for over three decades. If the bandmembers' constant tone probing is an active search to find the unwitting consciousness of a decidedly younger, rowdier, and more demanding audience, their collective mission is most assuredly accomplished on The Power to Believe – even more so than the tripped-out psychedelic prog rock behemoth from whence they initially emerged.

~ Lindsay Planer, All Music

***************

King Crimson - The Power To Believe (2003) {2019, CD+DVD-A/V, 40th Anniversary Series, Remastered} PROPER

King Crimson - The Power To Believe (2003) {2019, CD+DVD-A/V, 40th Anniversary Series, Remastered} PROPER

Track List CD:

2019 Stereo Master
01. The Power To Believe I: A Cappella [0:44]
02. Level 5 [7:15]
03. Eyes Wide Open [4:11]
04. EleKtriK [8:00]
05. Fact Of Life - Intro [1:39]
06. Fact Of Life [5:06]
07. The Power To Believe II [7:44]
08. Dangerous Curves [6:43]
09. Happy With What You Have To Be Happy With [3:18]
10. The Power To Believe III [4:10]
11. The Power To Believe IV: Coda [2:51]
Bonus Tracks:
12. Sus-tayn-Z I [5:00]
13. Superslow [3:38]
14. Sus-tayn-Z II [4:16]

Exact Audio Copy V1.0 beta 3 from 29. August 2011

EAC extraction logfile from 16. March 2020, 17:10

King Crimson / The Power To Believe

Used drive : MATSHITADVD-RAM UJ8C2 Adapter: 0 ID: 0

Read mode : Secure
Utilize accurate stream : Yes
Defeat audio cache : Yes
Make use of C2 pointers : No

Read offset correction : 103
Overread into Lead-In and Lead-Out : No
Fill up missing offset samples with silence : Yes
Delete leading and trailing silent blocks : No
Null samples used in CRC calculations : Yes
Used interface : Native Win32 interface for Win NT & 2000

Used output format : Internal WAV Routines
Sample format : 44.100 Hz; 16 Bit; Stereo


TOC of the extracted CD

Track | Start | Length | Start sector | End sector
––––––––––––––––––––––––––––-
1 | 0:00.00 | 0:44.19 | 0 | 3318
2 | 0:44.19 | 7:15.10 | 3319 | 35953
3 | 7:59.29 | 4:10.48 | 35954 | 54751
4 | 12:10.02 | 8:00.13 | 54752 | 90764
5 | 20:10.15 | 1:38.56 | 90765 | 98170
6 | 21:48.71 | 5:05.59 | 98171 | 121104
7 | 26:54.55 | 7:43.41 | 121105 | 155870
8 | 34:38.21 | 6:42.53 | 155871 | 186073
9 | 41:20.74 | 3:17.68 | 186074 | 200916
10 | 44:38.67 | 4:10.11 | 200917 | 219677
11 | 48:49.03 | 2:51.21 | 219678 | 232523
12 | 51:40.24 | 5:00.06 | 232524 | 255029
13 | 56:40.30 | 3:38.34 | 255030 | 271413
14 | 60:18.64 | 4:16.32 | 271414 | 290645


Range status and errors

Selected range

Filename C:\MUSIC\CD Rips_J\KC_2003_40A\King Crimson - The Power To Believe.wav

Peak level 100.0 %
Extraction speed 4.3 X
Range quality 100.0 %
Test CRC 808C269B
Copy CRC 808C269B
Copy OK

No errors occurred


AccurateRip summary

Track 1 accurately ripped (confidence 21) [DC1DE829] (AR v2)
Track 2 accurately ripped (confidence 21) [4BA97A62] (AR v2)
Track 3 accurately ripped (confidence 21) [BD41BE40] (AR v2)
Track 4 accurately ripped (confidence 21) [7B50A314] (AR v2)
Track 5 accurately ripped (confidence 21) [55AD6989] (AR v2)
Track 6 accurately ripped (confidence 21) [4CCA3D99] (AR v2)
Track 7 accurately ripped (confidence 21) [899FEA4C] (AR v2)
Track 8 accurately ripped (confidence 21) [0E056E89] (AR v2)
Track 9 accurately ripped (confidence 21) [BD10B7EA] (AR v2)
Track 10 accurately ripped (confidence 21) [D447F371] (AR v2)
Track 11 accurately ripped (confidence 21) [94423569] (AR v2)
Track 12 accurately ripped (confidence 21) [ACE32F44] (AR v2)
Track 13 accurately ripped (confidence 21) [C99D8FEA] (AR v2)
Track 14 accurately ripped (confidence 20) [2C4BD7B1] (AR v2)

All tracks accurately ripped

End of status report

==== Log checksum D71D65E87CB6FA4363355DEF2CDA0E74EC82081F5411578B114ABE18AD58200C ====

[CUETools log; Date: 02.07.2020 3:38:12; Version: 2.1.6]
[CTDB TOCID: S0.no.VPZZRMlTlwXtSwWpZ483s-] found.
Track | CTDB Status
1 | (115/115) Accurately ripped
2 | (114/115) Accurately ripped
3 | (114/115) Accurately ripped
4 | (114/115) Accurately ripped
5 | (114/115) Accurately ripped
6 | (114/115) Accurately ripped
7 | (114/115) Accurately ripped
8 | (114/115) Accurately ripped
9 | (114/115) Accurately ripped
10 | (114/115) Accurately ripped
11 | (114/115) Accurately ripped
12 | (114/115) Accurately ripped
13 | (114/115) Accurately ripped
14 | (113/115) Accurately ripped
[AccurateRip ID: 0021d11c-016bb769-910f230e] found.
Track [ CRC | V2 ] Status
01 [01f7a7f7|dc1de829] (00+24/29) Accurately ripped
02 [22a1ba5a|4ba97a62] (00+24/29) Accurately ripped
03 [517549e7|bd41be40] (00+24/29) Accurately ripped
04 [1be36ed4|7b50a314] (00+24/29) Accurately ripped
05 [6601fc3d|55ad6989] (00+24/29) Accurately ripped
06 [415cf4a2|4cca3d99] (00+24/29) Accurately ripped
07 [5c484a33|899fea4c] (00+24/29) Accurately ripped
08 [527750f5|0e056e89] (00+24/29) Accurately ripped
09 [1145a46b|bd10b7ea] (00+24/29) Accurately ripped
10 [eaa5d768|d447f371] (00+24/29) Accurately ripped
11 [c0d3c5fa|94423569] (00+24/29) Accurately ripped
12 [fa7bc086|ace32f44] (00+24/29) Accurately ripped
13 [a0b7e46a|c99d8fea] (00+24/29) Accurately ripped
14 [ea5345ea|2c4bd7b1] (00+23/28) Accurately ripped
Offsetted by -6:
01 [d178e863] (00/29) No match (V2 was not tested)
02 [24d130ee] (00/29) No match (V2 was not tested)
03 [72681881] (00/29) No match (V2 was not tested)
04 [55affcc4] (00/29) No match (V2 was not tested)
05 [e278f7d2] (00/29) No match (V2 was not tested)
06 [90a7a9fa] (00/29) No match (V2 was not tested)
07 [5dd52de8] (00/29) No match (V2 was not tested)
08 [702f365f] (00/29) No match (V2 was not tested)
09 [72408a4c] (00/29) No match (V2 was not tested)
10 [d311bdb3] (00/29) No match (V2 was not tested)
11 [f6bc7910] (00/29) No match (V2 was not tested)
12 [c490ed52] (00/29) No match (V2 was not tested)
13 [b8957943] (00/29) No match (V2 was not tested)
14 [bab6b598] (00/28) No match (V2 was not tested)

Track Peak [ CRC32 ] [W/O NULL] [ LOG ]
– 100,0 [808C269B] [C6EE3F39] CRC32
01 18,7 [11A5A02D] [264167DA]
02 100,0 [5B84DDFB] [C2CD2117]
03 99,5 [3476F0B6] [635508F4]
04 99,6 [C23611B0] [0FF93B9D]
05 98,3 [E073DD86] [0AA8DDD4]
06 99,6 [FB2226CE] [D20A1B4C]
07 99,4 [41266F46] [61788828]
08 100,0 [ACEA2419] [10362D87]
09 99,7 [69431211] [DE1FA631]
10 99,6 [740A8BB3] [FAC09A1A]
11 53,7 [0F3DBDEC] [3F872A9F]
12 99,4 [F4E71866] [EEEC94CE]
13 99,8 [89A8EB5C] [75217E0A]
14 95,1 [C1D34D08] [CC041E4E]

Track List DVD:

MLP Lossless 5.1 Surround
DTS 5.1 Digital Surround
The 2019 Surround Mix

1.1 The Power To Believe
1.2 Level Five
1.3 Eyes Wide Open
1.4 EleKtriK
1.5 Facts Of Life: Intro
1.6 Facts Of Life
1.7 The Power To Believe II
1.8 Dangerous Curves
1.9 Happy With What You Have To Be Happy With
1.10 The Power To Believe III
1.11 The Power To Believe IV: Coda
Bonus Tracks:
1.12 Sus-tayn-Z I
1.13 Superslow
1.14 Sus-tayn-Z II

MLP Lossless Stereo (24/48)
PCM Stereo 2.0 (24/48)
The 2019 Stereo Album Master

2.1 The Power To Believe
2.2 Level Five
2.3 Eyes Wide Open
2.4 EleKtriK
2.5 Facts Of Life: Intro
2.6 Facts Of Life
2.7 The Power To Believe II
2.8 Dangerous Curves
2.9 Happy With What You Have To Be Happy With
2.10 The Power To Believe III
2.11 The Power To Believe IV: Coda
Bonus Tracks:
2.12 Sus-tayn-Z I
2.13 Superslow
2.14 Sus-tayn-Z II

MLP Lossless Stereo (24/48)
PCM Stereo 2.0 (24/48)
Original Stereo Mix

3.1 The Power To Believe
3.2 Level Five
3.3 Eyes Wide Open
3.4 EleKtriK
3.5 Facts Of Life: Intro
3.6 Facts Of Life
3.7 The Power To Believe II
3.8 Dangerous Curves
3.9 Happy With What You Have To Be Happy With
3.10 The Power To Believe III
3.11 The Power To Believe IV: Coda

PCM Stereo 2.0 (24/48)
Additional Material
Happy With What You Have To Be Happy With

4.1 Bude
4.2 Happy With What You Have To Be Happy With
4.3 Mie Gakure
4.4 She Shudders
4.5 Eyes Wide Open (Acoustic Version)
4.6 ShoGaNai
4.7 I Ran
4.8 Potato Pie
4.9 Lark's Tongues In Aspic: Part IV
4.10 Clouds
4.11 Einstein's Relatives

PCM Stereo 2.0 (24/48)
Additional Material
Level Five

5.1 Dangerous Curves
5.2 Level Five
5.3 Virtous Circle
5.4 The ConstruKction Of Light
5.5 The Deception Of The Thrush
5.6 Improv: ProjeKct X

General
Complete name : J:\_DOWNLOAD\King Crimson - The Power To Believe (2003){2019, Discipline Global Mobile, Panegyric KCSP15}\DVD\AUDIO_TS\ATS_01_1.AOB
Format : MPEG-PS
File size : 1 024 MiB
Duration : 35 min 55 s
Overall bit rate mode : Variable
Overall bit rate : 3 985 kb/s
FileExtension_Invalid : mpeg mpg m2p vob vro pss evo

Audio
ID : 189 (0xBD)-161 (0xA1)
Format : MLP
Format/Info : Meridian Lossless Packing
Commercial name : MLP Lossless
Muxing mode : DVD-Video
Duration : 35 min 55 s
Bit rate mode : Variable
Maximum bit rate : 9 600 kb/s
Channel(s) : 6 channels
Sampling rate : 48.0 kHz
Frame rate : 1 200.000 FPS (40 SPF)
Bit depth : 24 bits

General
Complete name : J:\_DOWNLOAD\King Crimson - The Power To Believe (2003){2019, Discipline Global Mobile, Panegyric KCSP15}\DVD\AUDIO_TS\ATS_01_2.AOB
Format : MPEG-PS
File size : 1 024 MiB
Overall bit rate mode : Variable
FileExtension_Invalid : mpeg mpg m2p vob vro pss evo

Audio
ID : 189 (0xBD)-161 (0xA1)
Format : MLP
Format/Info : Meridian Lossless Packing
Commercial name : MLP Lossless
Muxing mode : DVD-Video
Bit rate mode : Variable
Maximum bit rate : 9 600 kb/s
Channel(s) : 6 channels
Sampling rate : 48.0 kHz
Frame rate : 1 200.000 FPS (40 SPF)
Bit depth : 24 bits

General
Complete name : J:\_DOWNLOAD\King Crimson - The Power To Believe (2003){2019, Discipline Global Mobile, Panegyric KCSP15}\DVD\AUDIO_TS\ATS_01_3.AOB
Format : MPEG-PS
File size : 1 024 MiB
Duration : 15 min 20 s
Overall bit rate mode : Variable
Overall bit rate : 9 327 kb/s
FileExtension_Invalid : mpeg mpg m2p vob vro pss evo

Audio
ID : 189 (0xBD)-161 (0xA1)
Format : MLP
Format/Info : Meridian Lossless Packing
Commercial name : MLP Lossless
Muxing mode : DVD-Video
Duration : 15 min 20 s
Bit rate mode : Variable
Maximum bit rate : 9 600 kb/s
Channel(s) : 2 channels
Sampling rate : 48.0 kHz
Frame rate : 1 200.000 FPS (40 SPF)
Bit depth : 24 bits

General
Complete name : J:\_DOWNLOAD\King Crimson - The Power To Believe (2003){2019, Discipline Global Mobile, Panegyric KCSP15}\DVD\AUDIO_TS\ATS_01_4.AOB
Format : MPEG-PS
File size : 224 MiB
Overall bit rate mode : Variable
FileExtension_Invalid : mpeg mpg m2p vob vro pss evo

Audio
ID : 189 (0xBD)-161 (0xA1)
Format : MLP
Format/Info : Meridian Lossless Packing
Commercial name : MLP Lossless
Muxing mode : DVD-Video
Bit rate mode : Variable
Maximum bit rate : 9 600 kb/s
Channel(s) : 2 channels
Sampling rate : 48.0 kHz
Frame rate : 1 200.000 FPS (40 SPF)
Bit depth : 24 bits

General
Complete name : J:\_DOWNLOAD\King Crimson - The Power To Believe (2003){2019, Discipline Global Mobile, Panegyric KCSP15}\DVD\AUDIO_TS\AUDIO_SV.VOB
Format : MPEG-PS
File size : 3.38 MiB
Duration : 33 ms
Overall bit rate mode : Variable
Overall bit rate : 860 Mb/s

Video
ID : 224 (0xE0)
Format : MPEG Video
Format version : Version 2
Format profile : Main@Main
Format settings : CustomMatrix
Format settings, BVOP : No
Format settings, Matrix : Custom
Format settings, GOP : N=1
Duration : 33 ms
Bit rate mode : Variable
Maximum bit rate : 4 587 kb/s
Width : 720 pixels
Height : 480 pixels
Display aspect ratio : 16:9
Frame rate : 29.970 (30000/1001) FPS
Standard : NTSC
Color space : YUV
Chroma subsampling : 4:2:0
Bit depth : 8 bits
Scan type : Progressive
Compression mode : Lossy
Color primaries : BT.601 NTSC
Transfer characteristics : BT.601
Matrix coefficients : BT.601

Text #1
ID : 189 (0xBD)-33 (0x21)
Format : RLE
Format/Info : Run-length encoding
Muxing mode : DVD-Video

Text #2
ID : 189 (0xBD)-34 (0x22)
Format : RLE
Format/Info : Run-length encoding
Muxing mode : DVD-Video

Menu

General
Complete name : J:\_DOWNLOAD\King Crimson - The Power To Believe (2003){2019, Discipline Global Mobile, Panegyric KCSP15}\DVD\AUDIO_TS\AUDIO_TS.BUP
File size : 10.0 KiB

General
Complete name : J:\_DOWNLOAD\King Crimson - The Power To Believe (2003){2019, Discipline Global Mobile, Panegyric KCSP15}\DVD\AUDIO_TS\AUDIO_TS.IFO
File size : 10.0 KiB

General
Complete name : J:\_DOWNLOAD\King Crimson - The Power To Believe (2003){2019, Discipline Global Mobile, Panegyric KCSP15}\DVD\AUDIO_TS\AUDIO_TS.VOB
Format : MPEG-PS
File size : 11.6 MiB
Duration : 12 s 6 ms
Overall bit rate : 8 076 kb/s

Video
ID : 224 (0xE0)
Format : MPEG Video
Format version : Version 2
Format profile : Main@Main
Format settings : CustomMatrix / BVOP
Format settings, BVOP : Yes
Format settings, Matrix : Custom
Format settings, GOP : Variable
Format settings, picture structure : Frame
Duration : 278 ms
Bit rate mode : Constant
Bit rate : 6 379 kb/s
Maximum bit rate : 6 000 kb/s
Width : 720 pixels
Height : 480 pixels
Display aspect ratio : 16:9
Frame rate : 29.970 (30000/1001) FPS
Standard : NTSC
Color space : YUV
Chroma subsampling : 4:2:0
Bit depth : 8 bits
Scan type : Interlaced
Scan order : Bottom Field First
Compression mode : Lossy
Bits/(Pixel*Frame) : 0.616
Time code of first frame : 00:00:00:00
Time code source : Group of pictures header
Stream size : 208 KiB (2%)

Audio
ID : 189 (0xBD)-160 (0xA0)
Format : PCM
Format settings : Big / Signed
Muxing mode : DVD-Video
Duration : 12 s 6 ms
Bit rate mode : Constant
Bit rate : 1 536 kb/s
Channel(s) : 2 channels
Sampling rate : 48.0 kHz
Bit depth : 16 bits
Stream size : 2.20 MiB (19%)

Text #1
ID : 189 (0xBD)-32 (0x20)
Format : RLE
Format/Info : Run-length encoding
Muxing mode : DVD-Video

Text #2
ID : 189 (0xBD)-33 (0x21)
Format : RLE
Format/Info : Run-length encoding
Muxing mode : DVD-Video

Menu

Format profile : Menu
File size : 14.0 KiB
Overall bit rate mode : Variable
FileExtension_Invalid : ifo

Video
ID : 224 (0xE0)
Format : MPEG Video
Format version : Version 2
Bit rate mode : Variable
Width : 720 pixels
Height : 480 pixels
Display aspect ratio : 16:9
Frame rate : 29.970 (29970/1000) FPS
Standard : NTSC
Compression mode : Lossy

Audio
Format : PCM
Channel(s) : 2 channels
Sampling rate : 48.0 kHz

Text
Format : RLE
Format/Info : Run-length encoding
Bit depth : 2 bits

General
Complete name : J:\_DOWNLOAD\King Crimson - The Power To Believe (2003){2019, Discipline Global Mobile, Panegyric KCSP15}\DVD\VIDEO_TS\VIDEO_TS.IFO
Format : DVD Video
Format profile : Menu
File size : 14.0 KiB
Overall bit rate mode : Variable

Video
ID : 224 (0xE0)
Format : MPEG Video
Format version : Version 2
Bit rate mode : Variable
Width : 720 pixels
Height : 480 pixels
Display aspect ratio : 16:9
Frame rate : 29.970 (29970/1000) FPS
Standard : NTSC
Compression mode : Lossy

Audio
Format : PCM
Channel(s) : 2 channels
Sampling rate : 48.0 kHz

Text
Format : RLE
Format/Info : Run-length encoding
Bit depth : 2 bits

General
Complete name : J:\_DOWNLOAD\King Crimson - The Power To Believe (2003){2019, Discipline Global Mobile, Panegyric KCSP15}\DVD\VIDEO_TS\VIDEO_TS.VOB
Format : MPEG-PS
File size : 11.0 MiB
Duration : 11 s 786 ms
Overall bit rate : 7 842 kb/s

Video
ID : 224 (0xE0)
Format : MPEG Video
Format version : Version 2
Format profile : Main@Main
Format settings : CustomMatrix / BVOP
Format settings, BVOP : Yes
Format settings, Matrix : Custom
Format settings, GOP : Variable
Format settings, picture structure : Frame
Duration : 33 ms
Bit rate mode : Constant
Bit rate : 6 150 kb/s
Maximum bit rate : 6 000 kb/s
Width : 720 pixels
Height : 480 pixels
Display aspect ratio : 16:9
Frame rate : 29.970 (30000/1001) FPS
Standard : NTSC
Color space : YUV
Chroma subsampling : 4:2:0
Bit depth : 8 bits
Scan type : Interlaced
Scan order : Bottom Field First
Compression mode : Lossy
Bits/(Pixel*Frame) : 0.594
Time code of first frame : 00:00:00:00
Time code source : Group of pictures header
Stream size : 25.0 KiB (0%)

Audio
ID : 189 (0xBD)-160 (0xA0)
Format : PCM
Format settings : Big / Signed
Muxing mode : DVD-Video
Duration : 11 s 786 ms
Bit rate mode : Constant
Bit rate : 1 536 kb/s
Channel(s) : 2 channels
Sampling rate : 48.0 kHz
Bit depth : 16 bits
Stream size : 2.16 MiB (20%)

Text #1
ID : 189 (0xBD)-32 (0x20)
Format : RLE
Format/Info : Run-length encoding
Muxing mode : DVD-Video

Text #2
ID : 189 (0xBD)-33 (0x21)
Format : RLE
Format/Info : Run-length encoding
Muxing mode : DVD-Video

Text #3
ID : 189 (0xBD)-34 (0x22)
Format : RLE
Format/Info : Run-length encoding
Muxing mode : DVD-Video

Menu

General
Complete name : J:\_DOWNLOAD\King Crimson - The Power To Believe (2003){2019, Discipline Global Mobile, Panegyric KCSP15}\DVD\VIDEO_TS\VTS_01_0.BUP
Format : DVD Video
Format profile : Program
File size : 38.0 KiB
Duration : 34 min 27 s
Overall bit rate mode : Variable
Overall bit rate : 151 b/s
FileExtension_Invalid : ifo

Video
ID : 224 (0xE0)
Format : MPEG Video
Format version : Version 2
Duration : 34 min 27 s
Bit rate mode : Variable
Width : 720 pixels
Height : 480 pixels
Display aspect ratio : 16:9
Frame rate : 29.970 (29970/1000) FPS
Standard : NTSC
Compression mode : Lossy

Audio
ID : 0 (0x0)
Format : PCM
Duration : 34 min 27 s
Channel(s) : 2 channels
Sampling rate : 48.0 kHz
Language : English

Menu
Duration : 34 min 27 s
00:00:00.000 : Chapter 1
00:00:29.000 : Chapter 2
00:04:23.000 : Chapter 3
00:06:41.000 : Chapter 4
00:07:17.000 : Chapter 5
00:11:23.000 : Chapter 6
00:14:18.000 : Chapter 7
00:14:57.000 : Chapter 8
00:20:01.000 : Chapter 9
00:30:26.500 : Chapter 10
00:31:07.500 : Chapter 11
List (Audio) : 0

General
Complete name : J:\_DOWNLOAD\King Crimson - The Power To Believe (2003){2019, Discipline Global Mobile, Panegyric KCSP15}\DVD\VIDEO_TS\VTS_01_0.IFO
Format : DVD Video
Format profile : Program
File size : 38.0 KiB
Duration : 34 min 27 s
Overall bit rate mode : Variable
Overall bit rate : 151 b/s

Video
ID : 224 (0xE0)
Format : MPEG Video
Format version : Version 2
Duration : 34 min 27 s
Bit rate mode : Variable
Width : 720 pixels
Height : 480 pixels
Display aspect ratio : 16:9
Frame rate : 29.970 (29970/1000) FPS
Standard : NTSC
Compression mode : Lossy

Audio
ID : 0 (0x0)
Format : PCM
Duration : 34 min 27 s
Channel(s) : 2 channels
Sampling rate : 48.0 kHz
Language : English

Menu
Duration : 34 min 27 s
00:00:00.000 : Chapter 1
00:00:29.000 : Chapter 2
00:04:23.000 : Chapter 3
00:06:41.000 : Chapter 4
00:07:17.000 : Chapter 5
00:11:23.000 : Chapter 6
00:14:18.000 : Chapter 7
00:14:57.000 : Chapter 8
00:20:01.000 : Chapter 9
00:30:26.500 : Chapter 10
00:31:07.500 : Chapter 11
List (Audio) : 0

General
Complete name : J:\_DOWNLOAD\King Crimson - The Power To Believe (2003){2019, Discipline Global Mobile, Panegyric KCSP15}\DVD\VIDEO_TS\VTS_01_0.VOB
Format : MPEG-PS
File size : 42.0 KiB
Duration : 33 ms
Overall bit rate mode : Variable
Overall bit rate : 10.4 Mb/s

Video
ID : 224 (0xE0)
Format : MPEG Video
Format version : Version 2
Format profile : Main@Main
Format settings, BVOP : No
Format settings, Matrix : Default
Duration : 33 ms
Bit rate mode : Variable
Maximum bit rate : 9 000 kb/s
Width : 720 pixels
Height : 480 pixels
Display aspect ratio : 16:9
Frame rate : 29.970 (30000/1001) FPS
Standard : NTSC
Color space : YUV
Chroma subsampling : 4:2:0
Bit depth : 8 bits
Scan type : Progressive
Scan order : Top Field First
Compression mode : Lossy
Time code of first frame : 00:00:00;00
Time code source : Group of pictures header
Color primaries : BT.601 NTSC
Transfer characteristics : BT.601
Matrix coefficients : BT.601

Text #1
ID : 189 (0xBD)-32 (0x20)
Format : RLE
Format/Info : Run-length encoding
Muxing mode : DVD-Video

Text #2
ID : 189 (0xBD)-33 (0x21)
Format : RLE
Format/Info : Run-length encoding
Muxing mode : DVD-Video

Text #3
ID : 189 (0xBD)-34 (0x22)
Format : RLE
Format/Info : Run-length encoding
Muxing mode : DVD-Video

Menu

General
Complete name : J:\_DOWNLOAD\King Crimson - The Power To Believe (2003){2019, Discipline Global Mobile, Panegyric KCSP15}\DVD\VIDEO_TS\VTS_01_1.VOB
Format : MPEG-PS
File size : 589 MiB
Duration : 34 min 28 s
Overall bit rate mode : Constant
Overall bit rate : 2 387 kb/s

Audio
ID : 189 (0xBD)-160 (0xA0)
Format : PCM
Format settings : Big / Signed
Muxing mode : DVD-Video
Duration : 34 min 28 s
Bit rate mode : Constant
Bit rate : 1 536 kb/s
Channel(s) : 2 channels
Sampling rate : 48.0 kHz
Bit depth : 24 bits
Stream size : 379 MiB (64%)

Menu

General
Complete name : J:\_DOWNLOAD\King Crimson - The Power To Believe (2003){2019, Discipline Global Mobile, Panegyric KCSP15}\DVD\VIDEO_TS\VTS_02_0.BUP
Format : DVD Video
Format profile : Program
File size : 54.0 KiB
Duration : 1 h 4 min
Overall bit rate mode : Variable
Overall bit rate : 114 b/s
FileExtension_Invalid : ifo

Video
ID : 224 (0xE0)
Format : MPEG Video
Format version : Version 2
Duration : 1 h 4 min
Bit rate mode : Variable
Width : 720 pixels
Height : 480 pixels
Display aspect ratio : 16:9
Frame rate : 29.970 (29970/1000) FPS
Standard : NTSC
Compression mode : Lossy

Audio #1
ID : 0 (0x0)
Format : PCM
Duration : 1 h 4 min
Channel(s) : 2 channels
Sampling rate : 48.0 kHz
Language : English

Audio #2
ID : 137 (0x89)
Format : DTS
Format/Info : Digital Theater Systems
Duration : 1 h 4 min
Channel(s) : 6 channels
Sampling rate : 48.0 kHz
Language : English

Menu
Duration : 1 h 4 min
00:00:00.000 : Chapter 1
00:00:47.000 : Chapter 2
00:08:07.000 : Chapter 3
00:12:13.000 : Chapter 4
00:20:12.000 : Chapter 5
00:21:50.000 : Chapter 6
00:26:58.000 : Chapter 7
00:34:39.000 : Chapter 8
00:41:22.000 : Chapter 9
00:44:39.000 : Chapter 10
00:48:53.000 : Chapter 11
00:51:41.000 : Chapter 12
00:56:40.000 : Chapter 13
01:00:20.000 : Chapter 14
List (Audio) : 0 / 1

General
Complete name : J:\_DOWNLOAD\King Crimson - The Power To Believe (2003){2019, Discipline Global Mobile, Panegyric KCSP15}\DVD\VIDEO_TS\VTS_02_0.IFO
Format : DVD Video
Format profile : Program
File size : 54.0 KiB
Duration : 1 h 4 min
Overall bit rate mode : Variable
Overall bit rate : 114 b/s

Video
ID : 224 (0xE0)
Format : MPEG Video
Format version : Version 2
Duration : 1 h 4 min
Bit rate mode : Variable
Width : 720 pixels
Height : 480 pixels
Display aspect ratio : 16:9
Frame rate : 29.970 (29970/1000) FPS
Standard : NTSC
Compression mode : Lossy

Audio #1
ID : 0 (0x0)
Format : PCM
Duration : 1 h 4 min
Channel(s) : 2 channels
Sampling rate : 48.0 kHz
Language : English

Audio #2
ID : 137 (0x89)
Format : DTS
Format/Info : Digital Theater Systems
Duration : 1 h 4 min
Channel(s) : 6 channels
Sampling rate : 48.0 kHz
Language : English

Menu
Duration : 1 h 4 min
00:00:00.000 : Chapter 1
00:00:47.000 : Chapter 2
00:08:07.000 : Chapter 3
00:12:13.000 : Chapter 4
00:20:12.000 : Chapter 5
00:21:50.000 : Chapter 6
00:26:58.000 : Chapter 7
00:34:39.000 : Chapter 8
00:41:22.000 : Chapter 9
00:44:39.000 : Chapter 10
00:48:53.000 : Chapter 11
00:51:41.000 : Chapter 12
00:56:40.000 : Chapter 13
01:00:20.000 : Chapter 14
List (Audio) : 0 / 1

General
Complete name : J:\_DOWNLOAD\King Crimson - The Power To Believe (2003){2019, Discipline Global Mobile, Panegyric KCSP15}\DVD\VIDEO_TS\VTS_02_0.VOB
Format : MPEG-PS
File size : 66.0 KiB
Duration : 33 ms
Overall bit rate mode : Variable
Overall bit rate : 16.4 Mb/s

Video
ID : 224 (0xE0)
Format : MPEG Video
Format version : Version 2
Format profile : Main@Main
Format settings, BVOP : No
Format settings, Matrix : Default
Duration : 33 ms
Bit rate mode : Variable
Maximum bit rate : 9 000 kb/s
Width : 720 pixels
Height : 480 pixels
Display aspect ratio : 16:9
Frame rate : 29.970 (30000/1001) FPS
Standard : NTSC
Color space : YUV
Chroma subsampling : 4:2:0
Bit depth : 8 bits
Scan type : Progressive
Scan order : Top Field First
Compression mode : Lossy
Color primaries : BT.601 NTSC
Transfer characteristics : BT.601
Matrix coefficients : BT.601

Text #1
ID : 189 (0xBD)-32 (0x20)
Format : RLE
Format/Info : Run-length encoding
Muxing mode : DVD-Video

Text #2
ID : 189 (0xBD)-33 (0x21)
Format : RLE
Format/Info : Run-length encoding
Muxing mode : DVD-Video

Text #3
ID : 189 (0xBD)-34 (0x22)
Format : RLE
Format/Info : Run-length encoding
Muxing mode : DVD-Video

Menu

General
Complete name : J:\_DOWNLOAD\King Crimson - The Power To Believe (2003){2019, Discipline Global Mobile, Panegyric KCSP15}\DVD\VIDEO_TS\VTS_02_1.VOB
Format : MPEG-PS
File size : 1 024 MiB
Duration : 36 min 28 s
Overall bit rate mode : Constant
Overall bit rate : 3 923 kb/s

Audio #1
ID : 189 (0xBD)-137 (0x89)
Format : DTS
Format/Info : Digital Theater Systems
Muxing mode : DVD-Video
Duration : 36 min 28 s
Bit rate mode : Constant
Bit rate : 1 510 kb/s
Channel(s) : 6 channels
Channel layout : C L R Ls Rs LFE
Sampling rate : 48.0 kHz
Frame rate : 93.750 FPS (512 SPF)
Bit depth : 24 bits
Compression mode : Lossy
Stream size : 394 MiB (38%)

Audio #2
ID : 189 (0xBD)-160 (0xA0)
Format : PCM
Format settings : Big / Signed
Muxing mode : DVD-Video
Duration : 36 min 28 s
Bit rate mode : Constant
Bit rate : 1 536 kb/s
Channel(s) : 2 channels
Sampling rate : 48.0 kHz
Bit depth : 24 bits
Stream size : 401 MiB (39%)

Menu

General
Complete name : J:\_DOWNLOAD\King Crimson - The Power To Believe (2003){2019, Discipline Global Mobile, Panegyric KCSP15}\DVD\VIDEO_TS\VTS_02_2.VOB
Format : MPEG-PS
File size : 793 MiB
Duration : 28 min 15 s
Overall bit rate mode : Constant
Overall bit rate : 3 923 kb/s

Audio #1
ID : 189 (0xBD)-137 (0x89)
Format : DTS
Format/Info : Digital Theater Systems
Muxing mode : DVD-Video
Duration : 28 min 15 s
Bit rate mode : Constant
Bit rate : 1 510 kb/s
Channel(s) : 6 channels
Channel layout : C L R Ls Rs LFE
Sampling rate : 48.0 kHz
Frame rate : 93.750 FPS (512 SPF)
Bit depth : 24 bits
Compression mode : Lossy
Stream size : 305 MiB (38%)

Audio #2
ID : 189 (0xBD)-160 (0xA0)
Format : PCM
Format settings : Big / Signed
Muxing mode : DVD-Video
Duration : 28 min 15 s
Bit rate mode : Constant
Bit rate : 1 536 kb/s
Channel(s) : 2 channels
Sampling rate : 48.0 kHz
Bit depth : 24 bits
Stream size : 311 MiB (39%)

Menu

General
Complete name : J:\_DOWNLOAD\King Crimson - The Power To Believe (2003){2019, Discipline Global Mobile, Panegyric KCSP15}\DVD\VIDEO_TS\VTS_03_0.BUP
Format : DVD Video
Format profile : Program
File size : 48.0 KiB
Duration : 51 min 17 s
Overall bit rate mode : Variable
Overall bit rate : 128 b/s
FileExtension_Invalid : ifo

Video
ID : 224 (0xE0)
Format : MPEG Video
Format version : Version 2
Duration : 51 min 17 s
Bit rate mode : Variable
Width : 720 pixels
Height : 480 pixels
Display aspect ratio : 16:9
Frame rate : 29.970 (29970/1000) FPS
Standard : NTSC
Compression mode : Lossy

Audio
ID : 0 (0x0)
Format : PCM
Duration : 51 min 17 s
Channel(s) : 2 channels
Sampling rate : 48.0 kHz
Language : English

Menu
Duration : 51 min 17 s
00:00:00.000 : Chapter 1
00:00:46.000 : Chapter 2
00:08:04.000 : Chapter 3
00:12:12.000 : Chapter 4
00:20:12.000 : Chapter 5
00:21:50.000 : Chapter 6
00:26:56.000 : Chapter 7
00:34:40.000 : Chapter 8
00:41:21.000 : Chapter 9
00:44:38.000 : Chapter 10
00:48:50.000 : Chapter 11
List (Audio) : 0

General
Complete name : J:\_DOWNLOAD\King Crimson - The Power To Believe (2003){2019, Discipline Global Mobile, Panegyric KCSP15}\DVD\VIDEO_TS\VTS_03_0.IFO
Format : DVD Video
Format profile : Program
File size : 48.0 KiB
Duration : 51 min 17 s
Overall bit rate mode : Variable
Overall bit rate : 128 b/s

Video
ID : 224 (0xE0)
Format : MPEG Video
Format version : Version 2
Duration : 51 min 17 s
Bit rate mode : Variable
Width : 720 pixels
Height : 480 pixels
Display aspect ratio : 16:9
Frame rate : 29.970 (29970/1000) FPS
Standard : NTSC
Compression mode : Lossy

Audio
ID : 0 (0x0)
Format : PCM
Duration : 51 min 17 s
Channel(s) : 2 channels
Sampling rate : 48.0 kHz
Language : English

Menu
Duration : 51 min 17 s
00:00:00.000 : Chapter 1
00:00:46.000 : Chapter 2
00:08:04.000 : Chapter 3
00:12:12.000 : Chapter 4
00:20:12.000 : Chapter 5
00:21:50.000 : Chapter 6
00:26:56.000 : Chapter 7
00:34:40.000 : Chapter 8
00:41:21.000 : Chapter 9
00:44:38.000 : Chapter 10
00:48:50.000 : Chapter 11
List (Audio) : 0

General
Complete name : J:\_DOWNLOAD\King Crimson - The Power To Believe (2003){2019, Discipline Global Mobile, Panegyric KCSP15}\DVD\VIDEO_TS\VTS_03_0.VOB
Format : MPEG-PS
File size : 48.0 KiB
Duration : 33 ms
Overall bit rate mode : Variable
Overall bit rate : 11.9 Mb/s

Video
ID : 224 (0xE0)
Format : MPEG Video
Format version : Version 2
Format profile : Main@Main
Format settings, BVOP : No
Format settings, Matrix : Default
Duration : 33 ms
Bit rate mode : Variable
Maximum bit rate : 9 000 kb/s
Width : 720 pixels
Height : 480 pixels
Display aspect ratio : 16:9
Frame rate : 29.970 (30000/1001) FPS
Standard : NTSC
Color space : YUV
Chroma subsampling : 4:2:0
Bit depth : 8 bits
Scan type : Progressive
Scan order : Top Field First
Compression mode : Lossy
Time code of first frame : 00:00:00;00
Time code source : Group of pictures header
Color primaries : BT.601 NTSC
Transfer characteristics : BT.601
Matrix coefficients : BT.601

Text #1
ID : 189 (0xBD)-32 (0x20)
Format : RLE
Format/Info : Run-length encoding
Muxing mode : DVD-Video

Text #2
ID : 189 (0xBD)-33 (0x21)
Format : RLE
Format/Info : Run-length encoding
Muxing mode : DVD-Video

Text #3
ID : 189 (0xBD)-34 (0x22)
Format : RLE
Format/Info : Run-length encoding
Muxing mode : DVD-Video

Menu

General
Complete name : J:\_DOWNLOAD\King Crimson - The Power To Believe (2003){2019, Discipline Global Mobile, Panegyric KCSP15}\DVD\VIDEO_TS\VTS_03_1.VOB
Format : MPEG-PS
File size : 877 MiB
Duration : 51 min 20 s
Overall bit rate mode : Constant
Overall bit rate : 2 387 kb/s

Audio
ID : 189 (0xBD)-160 (0xA0)
Format : PCM
Format settings : Big / Signed
Muxing mode : DVD-Video
Duration : 51 min 20 s
Bit rate mode : Constant
Bit rate : 1 536 kb/s
Channel(s) : 2 channels
Sampling rate : 48.0 kHz
Bit depth : 24 bits
Stream size : 564 MiB (64%)

Menu

General
Complete name : J:\_DOWNLOAD\King Crimson - The Power To Believe (2003){2019, Discipline Global Mobile, Panegyric KCSP15}\DVD\VIDEO_TS\VTS_04_0.BUP
Format : DVD Video
Format profile : Program
File size : 42.0 KiB
Duration : 44 min 49 s
Overall bit rate mode : Variable
Overall bit rate : 128 b/s
FileExtension_Invalid : ifo

Video
ID : 224 (0xE0)
Format : MPEG Video
Format version : Version 2
Duration : 44 min 49 s
Bit rate mode : Variable
Width : 720 pixels
Height : 480 pixels
Display aspect ratio : 16:9
Frame rate : 29.970 (29970/1000) FPS
Standard : NTSC
Compression mode : Lossy

Audio
ID : 0 (0x0)
Format : PCM
Duration : 44 min 49 s
Channel(s) : 2 channels
Sampling rate : 48.0 kHz
Language : English

Menu
Duration : 44 min 49 s
00:00:00.000 : Chapter 1
00:05:41.000 : Chapter 2
00:14:15.500 : Chapter 3
00:24:15.000 : Chapter 4
00:32:37.500 : Chapter 5
00:39:22.500 : Chapter 6
List (Audio) : 0

General
Complete name : J:\_DOWNLOAD\King Crimson - The Power To Believe (2003){2019, Discipline Global Mobile, Panegyric KCSP15}\DVD\VIDEO_TS\VTS_04_0.IFO
Format : DVD Video
Format profile : Program
File size : 42.0 KiB
Duration : 44 min 49 s
Overall bit rate mode : Variable
Overall bit rate : 128 b/s

Video
ID : 224 (0xE0)
Format : MPEG Video
Format version : Version 2
Duration : 44 min 49 s
Bit rate mode : Variable
Width : 720 pixels
Height : 480 pixels
Display aspect ratio : 16:9
Frame rate : 29.970 (29970/1000) FPS
Standard : NTSC
Compression mode : Lossy

Audio
ID : 0 (0x0)
Format : PCM
Duration : 44 min 49 s
Channel(s) : 2 channels
Sampling rate : 48.0 kHz
Language : English

Menu
Duration : 44 min 49 s
00:00:00.000 : Chapter 1
00:05:41.000 : Chapter 2
00:14:15.500 : Chapter 3
00:24:15.000 : Chapter 4
00:32:37.500 : Chapter 5
00:39:22.500 : Chapter 6
List (Audio) : 0

General
Complete name : J:\_DOWNLOAD\King Crimson - The Power To Believe (2003){2019, Discipline Global Mobile, Panegyric KCSP15}\DVD\VIDEO_TS\VTS_04_0.VOB
Format : MPEG-PS
File size : 32.0 KiB
Duration : 33 ms
Overall bit rate mode : Variable
Overall bit rate : 7 944 kb/s

Video
ID : 224 (0xE0)
Format : MPEG Video
Format version : Version 2
Format profile : Main@Main
Format settings, BVOP : No
Format settings, Matrix : Default
Duration : 33 ms
Bit rate mode : Variable
Maximum bit rate : 9 000 kb/s
Width : 720 pixels
Height : 480 pixels
Display aspect ratio : 16:9
Frame rate : 29.970 (30000/1001) FPS
Standard : NTSC
Color space : YUV
Chroma subsampling : 4:2:0
Bit depth : 8 bits
Scan type : Progressive
Scan order : Top Field First
Compression mode : Lossy
Time code of first frame : 00:00:00;00
Time code source : Group of pictures header
Color primaries : BT.601 NTSC
Transfer characteristics : BT.601
Matrix coefficients : BT.601

Text #1
ID : 189 (0xBD)-32 (0x20)
Format : RLE
Format/Info : Run-length encoding
Muxing mode : DVD-Video

Text #2
ID : 189 (0xBD)-33 (0x21)
Format : RLE
Format/Info : Run-length encoding
Muxing mode : DVD-Video

Text #3
ID : 189 (0xBD)-34 (0x22)
Format : RLE
Format/Info : Run-length encoding
Muxing mode : DVD-Video

Menu

General
Complete name : J:\_DOWNLOAD\King Crimson - The Power To Believe (2003){2019, Discipline Global Mobile, Panegyric KCSP15}\DVD\VIDEO_TS\VTS_04_1.VOB
Format : MPEG-PS
File size : 766 MiB
Duration : 44 min 51 s
Overall bit rate mode : Constant
Overall bit rate : 2 387 kb/s

Audio
ID : 189 (0xBD)-160 (0xA0)
Format : PCM
Format settings : Big / Signed
Muxing mode : DVD-Video
Duration : 44 min 51 s
Bit rate mode : Constant
Bit rate : 1 536 kb/s
Channel(s) : 2 channels
Sampling rate : 48.0 kHz
Bit depth : 24 bits
Stream size : 493 MiB (64%)

Menu

King Crimson - The Power To Believe (2003) {2019, CD+DVD-A/V, 40th Anniversary Series, Remastered} PROPER

King Crimson - The Power To Believe (2003) {2019, CD+DVD-A/V, 40th Anniversary Series, Remastered} PROPER


All thanks go to Juergen

>>> King Crimson in my Blog <<<

DOWNLOAD: