Subcategories

Daniel Pemberton - King Arthur Legend of the Sword (Original Motion Picture Soundtrack) (2017)

Posted By: SERTiL
Daniel Pemberton - King Arthur Legend of the Sword (Original Motion Picture Soundtrack) (2017)

Daniel Pemberton - King Arthur Legend of the Sword (Original Motion Picture Soundtrack)
EAC Rip | FLAC (tracks)+cue, log, m3u, front cover | 76:01 min | 428 MB
Label: Sony Classical - 88985440902 | Tracks: 26 | Rls.date: 2017
Soundtrack

Daniel Pemberton is an Ivor Novello winning and multi-BAFTA nominated composer well known for embracing a wide range of musical mediums – from electronic to orchestral – throughout his work. After more than a decade establishing himself as one of the most inventive and experimental voices in British television – scoring countless Emmy and BAFTA award winning dramas and documentaries such as Complicit, Peep Show, Upstairs Downstairs, Desperate Romantics, Space Dive, Occupation and Hiroshima – Pemberton moved into the world of film with the period supernatural thriller The Awakening (2011). Ridley Scott hired the composer to score his feature The Counselor (2013) and The Vatican (2014). This work, alongside scores to other features such as Blood (2012), In Fear (2013) and Cuban Fury (2014), led him to be named ‘Discovery Of The Year’ at the prestigious World Soundtrack Awards 2014.
Most recently we have seen the release of Pemberton’s acclaimed soundtrack to Guy Ritchie’s The Man From U.N.C.L.E. (2015). The bold 1960’s influenced music caught the attention of cinema goers and critics alike and has established him as one of the most versatile and exciting voices working in film today. With yet another legendary director, Academy Award winner Danny Boyle, Pemberton continues to approach the world of scoring from a new angle, creating another unique and unexpectedly inventive soundtrack with his latest work – Steve Jobs (2015).

TRACKLIST
01. From Nothing Comes a King
02. King Arthur: Legend of the Sword
03. Growing Up Londinium
04. Jackseye's Tale
05. The Story of Mordred
06. Vortigen and the Syrens
07. The Legend of Excalibur
08. Seasoned Oak
09. The Vikings & The Barons
10. The Politics & The Life
11. Tower & Power
12. The Born King
13. Assassins Breathe
14. Run Londinium
15. Fireball
16. Journey to the Caves
17. The Wolf & The Hanged Men
18. Camelot in Flames
19. The Lady in the Lake
20. The Darklands
21. Revelation
22. King Arthur: Destiny of the Sword
23. The Power of Excalibur
24. Knights of the Round Table
25. King Arthur: The Coronation
26. The Devil & The Huntsman

Exact Audio Copy V1.1 from 23. June 2015

EAC extraction logfile from 16. May 2017, 11:55

Daniel Pemberton / King Arthur: Legend of the Sword (Original Motion Picture Soundtrack)

Used drive : slimtype eTDU108 1 Adapter: 1 ID: 0

Read mode : Secure
Utilize accurate stream : Yes
Defeat audio cache : Yes
Make use of C2 pointers : No

Read offset correction : 6
Overread into Lead-In and Lead-Out : No
Fill up missing offset samples with silence : Yes
Delete leading and trailing silent blocks : No
Null samples used in CRC calculations : Yes
Used interface : Native Win32 interface for Win NT & 2000
Gap handling : Appended to previous track

Used output format : User Defined Encoder
Selected bitrate : 1024 kBit/s
Quality : High
Add ID3 tag : No
Command line compressor : C:\Program Files (x86)\Exact Audio Copy\FLAC\FLAC.EXE
Additional command line options : -6 -V -T "ARTIST=%artist%" -T "TITLE=%title%" -T "ALBUM=%albumtitle%" -T "DATE=%year%" -T "TRACKNUMBER=%tracknr%" -T "GENRE=%genre%" -T "COMMENT=%comment%" -T "BAND=%albuminterpret%" -T "ALBUMARTIST=%albuminterpret%" -T "COMPOSER=%composer%" %haslyrics%–tag-from-file=LYRICS="%lyricsfile%"%haslyrics% -T "DISCNUMBER=%cdnumber%" -T "TOTALDISCS=%totalcds%" -T "TOTALTRACKS=%numtracks%" %hascover%–picture="%coverfile%"%hascover% %source% -o %dest%


TOC of the extracted CD

Track | Start | Length | Start sector | End sector
––––––––––––––––––––––––––––-
1 | 0:00.00 | 0:43.06 | 0 | 3230
2 | 0:43.06 | 2:52.12 | 3231 | 16142
3 | 3:35.18 | 2:41.68 | 16143 | 28285
4 | 6:17.11 | 3:31.26 | 28286 | 44136
5 | 9:48.37 | 2:00.00 | 44137 | 53136
6 | 11:48.37 | 2:18.07 | 53137 | 63493
7 | 14:06.44 | 2:43.33 | 63494 | 75751
8 | 16:50.02 | 2:18.44 | 75752 | 86145
9 | 19:08.46 | 2:59.05 | 86146 | 99575
10 | 22:07.51 | 3:22.20 | 99576 | 114745
11 | 25:29.71 | 3:52.66 | 114746 | 132211
12 | 29:22.62 | 2:30.40 | 132212 | 143501
13 | 31:53.27 | 4:23.23 | 143502 | 163249
14 | 36:16.50 | 5:45.36 | 163250 | 189160
15 | 42:02.11 | 2:03.31 | 189161 | 198416
16 | 44:05.42 | 1:56.59 | 198417 | 207175
17 | 46:02.26 | 2:28.47 | 207176 | 218322
18 | 48:30.73 | 2:24.52 | 218323 | 229174
19 | 50:55.50 | 3:07.37 | 229175 | 243236
20 | 54:03.12 | 2:43.14 | 243237 | 255475
21 | 56:46.26 | 3:05.05 | 255476 | 269355
22 | 59:51.31 | 2:42.58 | 269356 | 281563
23 | 62:34.14 | 4:03.56 | 281564 | 299844
24 | 66:37.70 | 3:30.21 | 299845 | 315615
25 | 70:08.16 | 1:45.33 | 315616 | 323523
26 | 71:53.49 | 4:18.28 | 323524 | 342901


Track 1

Filename D:\My Music\barca008\Daniel Pemberton - King Arthur Legend of the Sword (Original Motion Picture Soundtrack)\01 - From Nothing Comes a King.wav

Pre-gap length 0:00:02.00

Peak level 31.9 %
Extraction speed 1.7 X
Track quality 100.0 %
Test CRC D0A3A924
Copy CRC D0A3A924
Track not present in AccurateRip database
Copy OK

Track 2

Filename D:\My Music\barca008\Daniel Pemberton - King Arthur Legend of the Sword (Original Motion Picture Soundtrack)\02 - King Arthur- Legend of the Sword.wav

Peak level 100.0 %
Extraction speed 2.8 X
Track quality 100.0 %
Test CRC 11F728EA
Copy CRC 11F728EA
Track not present in AccurateRip database
Copy OK

Track 3

Filename D:\My Music\barca008\Daniel Pemberton - King Arthur Legend of the Sword (Original Motion Picture Soundtrack)\03 - Growing Up Londinium.wav

Peak level 100.0 %
Extraction speed 2.9 X
Track quality 100.0 %
Test CRC CCDEA81B
Copy CRC CCDEA81B
Track not present in AccurateRip database
Copy OK

Track 4

Filename D:\My Music\barca008\Daniel Pemberton - King Arthur Legend of the Sword (Original Motion Picture Soundtrack)\04 - Jackseye's Tale.wav

Pre-gap length 0:00:01.42

Peak level 100.0 %
Extraction speed 3.2 X
Track quality 100.0 %
Test CRC ED68C7AD
Copy CRC ED68C7AD
Track not present in AccurateRip database
Copy OK

Track 5

Filename D:\My Music\barca008\Daniel Pemberton - King Arthur Legend of the Sword (Original Motion Picture Soundtrack)\05 - The Story of Mordred.wav

Peak level 99.7 %
Extraction speed 3.0 X
Track quality 100.0 %
Test CRC 20FEC1B1
Copy CRC 20FEC1B1
Track not present in AccurateRip database
Copy OK

Track 6

Filename D:\My Music\barca008\Daniel Pemberton - King Arthur Legend of the Sword (Original Motion Picture Soundtrack)\06 - Vortigen and the Syrens.wav

Pre-gap length 0:00:00.21

Peak level 51.2 %
Extraction speed 2.2 X
Track quality 99.9 %
Test CRC 5036A09D
Copy CRC 5036A09D
Track not present in AccurateRip database
Copy OK

Track 7

Filename D:\My Music\barca008\Daniel Pemberton - King Arthur Legend of the Sword (Original Motion Picture Soundtrack)\07 - The Legend of Excalibur.wav

Peak level 99.9 %
Extraction speed 3.5 X
Track quality 100.0 %
Test CRC 46D52936
Copy CRC 46D52936
Track not present in AccurateRip database
Copy OK

Track 8

Filename D:\My Music\barca008\Daniel Pemberton - King Arthur Legend of the Sword (Original Motion Picture Soundtrack)\08 - Seasoned Oak.wav

Peak level 100.0 %
Extraction speed 3.5 X
Track quality 100.0 %
Test CRC 991EFB47
Copy CRC 991EFB47
Track not present in AccurateRip database
Copy OK

Track 9

Filename D:\My Music\barca008\Daniel Pemberton - King Arthur Legend of the Sword (Original Motion Picture Soundtrack)\09 - The Vikings & the Barons.wav

Peak level 98.9 %
Extraction speed 3.8 X
Track quality 100.0 %
Test CRC A7D2420C
Copy CRC A7D2420C
Track not present in AccurateRip database
Copy OK

Track 10

Filename D:\My Music\barca008\Daniel Pemberton - King Arthur Legend of the Sword (Original Motion Picture Soundtrack)\10 - The Politics & the Life.wav

Peak level 100.0 %
Extraction speed 4.0 X
Track quality 100.0 %
Test CRC F57912D4
Copy CRC F57912D4
Track not present in AccurateRip database
Copy OK

Track 11

Filename D:\My Music\barca008\Daniel Pemberton - King Arthur Legend of the Sword (Original Motion Picture Soundtrack)\11 - Tower & Power.wav

Peak level 100.0 %
Extraction speed 4.3 X
Track quality 100.0 %
Test CRC 9444CD23
Copy CRC 9444CD23
Track not present in AccurateRip database
Copy OK

Track 12

Filename D:\My Music\barca008\Daniel Pemberton - King Arthur Legend of the Sword (Original Motion Picture Soundtrack)\12 - The Born King.wav

Peak level 99.7 %
Extraction speed 4.1 X
Track quality 100.0 %
Test CRC 743C0AD5
Copy CRC 743C0AD5
Track not present in AccurateRip database
Copy OK

Track 13

Filename D:\My Music\barca008\Daniel Pemberton - King Arthur Legend of the Sword (Original Motion Picture Soundtrack)\13 - Assassins Breathe.wav

Pre-gap length 0:00:00.53

Peak level 100.0 %
Extraction speed 4.6 X
Track quality 100.0 %
Test CRC 2BA78E8C
Copy CRC 2BA78E8C
Track not present in AccurateRip database
Copy OK

Track 14

Filename D:\My Music\barca008\Daniel Pemberton - King Arthur Legend of the Sword (Original Motion Picture Soundtrack)\14 - Run Londinium.wav

Peak level 100.0 %
Extraction speed 5.0 X
Track quality 100.0 %
Test CRC 729BBBE4
Copy CRC 729BBBE4
Track not present in AccurateRip database
Copy OK

Track 15

Filename D:\My Music\barca008\Daniel Pemberton - King Arthur Legend of the Sword (Original Motion Picture Soundtrack)\15 - Fireball.wav

Pre-gap length 0:00:01.69

Peak level 100.0 %
Extraction speed 4.3 X
Track quality 100.0 %
Test CRC B10E1115
Copy CRC B10E1115
Track not present in AccurateRip database
Copy OK

Track 16

Filename D:\My Music\barca008\Daniel Pemberton - King Arthur Legend of the Sword (Original Motion Picture Soundtrack)\16 - Journey to the Caves.wav

Pre-gap length 0:00:00.27

Peak level 100.0 %
Extraction speed 4.3 X
Track quality 100.0 %
Test CRC 36377182
Copy CRC 36377182
Track not present in AccurateRip database
Copy OK

Track 17

Filename D:\My Music\barca008\Daniel Pemberton - King Arthur Legend of the Sword (Original Motion Picture Soundtrack)\17 - The Wolf & the Hanged Men.wav

Pre-gap length 0:00:00.15

Peak level 80.7 %
Extraction speed 4.7 X
Track quality 100.0 %
Test CRC CB820002
Copy CRC CB820002
Track not present in AccurateRip database
Copy OK

Track 18

Filename D:\My Music\barca008\Daniel Pemberton - King Arthur Legend of the Sword (Original Motion Picture Soundtrack)\18 - Camelot In Flames.wav

Pre-gap length 0:00:01.02

Peak level 98.8 %
Extraction speed 4.7 X
Track quality 100.0 %
Test CRC 3343E198
Copy CRC 3343E198
Track not present in AccurateRip database
Copy OK

Track 19

Filename D:\My Music\barca008\Daniel Pemberton - King Arthur Legend of the Sword (Original Motion Picture Soundtrack)\19 - The Lady In the Lake.wav

Pre-gap length 0:00:00.41

Peak level 99.3 %
Extraction speed 5.0 X
Track quality 100.0 %
Test CRC 4C501858
Copy CRC 4C501858
Track not present in AccurateRip database
Copy OK

Track 20

Filename D:\My Music\barca008\Daniel Pemberton - King Arthur Legend of the Sword (Original Motion Picture Soundtrack)\20 - The Darklands.wav

Peak level 100.0 %
Extraction speed 5.0 X
Track quality 100.0 %
Test CRC C9FC5821
Copy CRC C9FC5821
Track not present in AccurateRip database
Copy OK

Track 21

Filename D:\My Music\barca008\Daniel Pemberton - King Arthur Legend of the Sword (Original Motion Picture Soundtrack)\21 - Revelation.wav

Peak level 99.7 %
Extraction speed 5.2 X
Track quality 100.0 %
Test CRC 2E5538B8
Copy CRC 2E5538B8
Track not present in AccurateRip database
Copy OK

Track 22

Filename D:\My Music\barca008\Daniel Pemberton - King Arthur Legend of the Sword (Original Motion Picture Soundtrack)\22 - King Arthur- Destiny of the Sword.wav

Peak level 100.0 %
Extraction speed 5.2 X
Track quality 100.0 %
Test CRC 060CDCF4
Copy CRC 060CDCF4
Track not present in AccurateRip database
Copy OK

Track 23

Filename D:\My Music\barca008\Daniel Pemberton - King Arthur Legend of the Sword (Original Motion Picture Soundtrack)\23 - The Power of Excalibur.wav

Peak level 100.0 %
Extraction speed 5.7 X
Track quality 100.0 %
Test CRC 126C4229
Copy CRC 126C4229
Track not present in AccurateRip database
Copy OK

Track 24

Filename D:\My Music\barca008\Daniel Pemberton - King Arthur Legend of the Sword (Original Motion Picture Soundtrack)\24 - Knights of the Round Table.wav

Pre-gap length 0:00:00.13

Peak level 99.7 %
Extraction speed 5.6 X
Track quality 100.0 %
Test CRC 23AA3068
Copy CRC 23AA3068
Track not present in AccurateRip database
Copy OK

Track 25

Filename D:\My Music\barca008\Daniel Pemberton - King Arthur Legend of the Sword (Original Motion Picture Soundtrack)\25 - King Arthur- The Coronation.wav

Peak level 100.0 %
Extraction speed 5.0 X
Track quality 100.0 %
Test CRC FDC33A2A
Copy CRC FDC33A2A
Track not present in AccurateRip database
Copy OK

Track 26

Filename D:\My Music\barca008\Daniel Pemberton - King Arthur Legend of the Sword (Original Motion Picture Soundtrack)\26 - The Devil & the Huntsman.wav

Peak level 100.0 %
Extraction speed 6.0 X
Track quality 100.0 %
Test CRC E323E849
Copy CRC E323E849
Track not present in AccurateRip database
Copy OK


None of the tracks are present in the AccurateRip database

No errors occurred

End of status report

–– CUETools DB Plugin V2.1.6

[CTDB TOCID: q0K5WckmMruddpeAjhfVWv2pr4s-] found
Submit result: q0K5WckmMruddpeAjhfVWv2pr4s- has been confirmed
Track | CTDB Status
1 | (1/1) Accurately ripped
2 | (1/1) Accurately ripped
3 | (1/1) Accurately ripped
4 | (1/1) Accurately ripped
5 | (1/1) Accurately ripped
6 | (1/1) Accurately ripped
7 | (1/1) Accurately ripped
8 | (1/1) Accurately ripped
9 | (1/1) Accurately ripped
10 | (1/1) Accurately ripped
11 | (1/1) Accurately ripped
12 | (1/1) Accurately ripped
13 | (1/1) Accurately ripped
14 | (1/1) Accurately ripped
15 | (1/1) Accurately ripped
16 | (1/1) Accurately ripped
17 | (1/1) Accurately ripped
18 | (1/1) Accurately ripped
19 | (1/1) Accurately ripped
20 | (1/1) Accurately ripped
21 | (1/1) Accurately ripped
22 | (1/1) Accurately ripped
23 | (1/1) Accurately ripped
24 | (1/1) Accurately ripped
25 | (1/1) Accurately ripped
26 | (1/1) Accurately ripped


==== Log checksum F42C93D4464DAD931D71C5BC5074D96B72C8CDE20DD313FA3E694A827FDE89B9 ====


Thanks to the Original customer.