King Tubby - Dub Mix Up: Rare Dubs 1975 - 1979 (2004)

Posted By: uff
King Tubby - Dub Mix Up: Rare Dubs 1975 - 1979 (2004)

King Tubby - Dub Mix Up: Rare Dubs 1975 - 1979 (2004)
Reggae | 1cd | EAC Rip | Ape + Cue + Log | covers
Jamaican Recordings JRCD016 | rel: 2004 | 250Mb

King Tubby the Dub Master, who's output was as prolific as it is sought after and who's presence is surely missed.We would like to take you on another dub excursion. This time through some essential cuts made for the Producer / DJ Tappa Zukie. King Tubby always added something a little special to the tracks he worked on. Producers would often bring their already tracks to his home studio at 18 Drummlie Avenue, in the Kingston district of Waterhouse. The backing tracks which were laid at various other studios around Kingston, like Channel 1 and Randy's Studio 17, would then be voiced / Re - voiced at King Tubby's.

Track listing
01. Population Dub (3:31)
02. Strange Dub (3:57)
03. Take 5 Dub (3:23)
04. Slavemaster (3:02)
05. Words, Sounds & Dubwise (3:45)
06. Judgment Dub (3:19)
07. Upper 1st Street Dub (3:25)
08. Run & Hide The Dub (2:41)
09. Give Me Your Dub (2:42)
10. Syndicate Dub (3:22)
11. Shank I Sheck (3:44)
12. Wicked Dub (2:58)
13. Ain't That Loving Dub (3:26)
14. Dub Faith (4:07)
~ (47:22)

Personnel
Drums - Sly Dunbar & Santa Davis
Bass - Robbie Shakespeare & George Fullwood
Guitar - Chinna
Rhythm Guitar - Tony Chin
Keyboards - Augustus Pablo & Keith Sterling
Piano - Ansel Collins
Saxophone - Deadly Headly
Trombone - Vin Gordon
Trumpet - Bobby Ellis
Percussions - Scully Simms


EAC extraction logfile from 12. May 2007, 15:37 for CD
King Tubby / Dub Mix Up (Rare Dubs 1975 - 1979)

Used drive : JLMS DVD-ROM LTD-165H Adapter: 1 ID: 0
Read mode : Secure with NO C2, accurate stream, disable cache
Read offset correction : 12
Overread into Lead-In and Lead-Out : No

Used output format : Internal WAV Routines
44.100 Hz; 16 Bit; Stereo

Other options :
Fill up missing offset samples with silence : Yes
Delete leading and trailing silent blocks : No
Installed external ASPI interface


Track 1
Filename C:\Ripped Music\01 - Population Dub.wav

Pre-gap length 0:00:02.00

Peak level 99.9 %
Track quality 100.0 %
Test CRC 512158F5
Copy CRC 512158F5
Copy OK

Track 2
Filename C:\Ripped Music\02 - Strange Dub.wav

Peak level 91.8 %
Track quality 100.0 %
Test CRC 7A7BBA83
Copy CRC 7A7BBA83
Copy OK

Track 3
Filename C:\Ripped Music\03 - Take 5 Dub.wav

Pre-gap length 0:00:00.09

Peak level 91.8 %
Track quality 99.9 %
Test CRC 28E2D2B3
Copy CRC 28E2D2B3
Copy OK

Track 4
Filename C:\Ripped Music\04 - Slavemaster.wav

Peak level 91.8 %
Track quality 100.0 %
Test CRC 0A4807D5
Copy CRC 0A4807D5
Copy OK

Track 5
Filename C:\Ripped Music\05 - Words, Sounds & Dubwise.wav

Peak level 99.9 %
Track quality 100.0 %
Test CRC 77C4CECF
Copy CRC 77C4CECF
Copy OK

Track 6
Filename C:\Ripped Music\06 - Judgment Dub.wav

Peak level 98.0 %
Track quality 99.9 %
Test CRC 0961D056
Copy CRC 0961D056
Copy OK

Track 7
Filename C:\Ripped Music\07 - Upper 1st Street Dub.wav

Peak level 96.8 %
Track quality 100.0 %
Test CRC 64FB6BF0
Copy CRC 64FB6BF0
Copy OK

Track 8
Filename C:\Ripped Music\08 - Run & Hide The Dub.wav

Peak level 99.9 %
Track quality 100.0 %
Test CRC 2CF6CAE3
Copy CRC 2CF6CAE3
Copy OK

Track 9
Filename C:\Ripped Music\09 - Give Me Your Dub.wav

Peak level 97.2 %
Track quality 100.0 %
Test CRC 30818603
Copy CRC 30818603
Copy OK

Track 10
Filename C:\Ripped Music\10 - Syndicate Dub.wav

Peak level 98.0 %
Track quality 100.0 %
Test CRC AAB62607
Copy CRC AAB62607
Copy OK

Track 11
Filename C:\Ripped Music\11 - Shank I Sheck.wav

Peak level 99.9 %
Track quality 100.0 %
Test CRC 5F10BB30
Copy CRC 5F10BB30
Copy OK

Track 12
Filename C:\Ripped Music\12 - Wicked Dub.wav

Peak level 97.5 %
Track quality 100.0 %
Test CRC B37618A5
Copy CRC B37618A5
Copy OK

Track 13
Filename C:\Ripped Music\13 - Ain't That Loving Dub.wav

Peak level 97.5 %
Track quality 100.0 %
Test CRC 872C63C6
Copy CRC 872C63C6
Copy OK

Track 14
Filename C:\Ripped Music\14 - Dub Faith.wav

Peak level 83.6 %
Track quality 100.0 %
Test CRC 973A91B8
Copy CRC 973A91B8
Copy OK

No errors occured


End of status report



[CUETools log; Date: 2015.12.03. 10:47:21; Version: 2.1.5]
[CTDB TOCID: 3zwcB46Bj9QTRar20Bc7hqbtY64-] found.
Track | CTDB Status
1 | (2/2) Accurately ripped
2 | (2/2) Accurately ripped
3 | (2/2) Accurately ripped
4 | (2/2) Accurately ripped
5 | (2/2) Accurately ripped
6 | (2/2) Accurately ripped
7 | (2/2) Accurately ripped
8 | (2/2) Accurately ripped
9 | (2/2) Accurately ripped
10 | (2/2) Accurately ripped
11 | (2/2) Accurately ripped
12 | (2/2) Accurately ripped
13 | (2/2) Accurately ripped
14 | (2/2) Accurately ripped
[AccurateRip ID: 00187130-0102f67a-c30b1a0e] found.
Track [ CRC | V2 ] Status
01 [9b996440|955ffbb1] (3+0/3) Accurately ripped
02 [daa08630|47aa63eb] (3+0/3) Accurately ripped
03 [6adabbf3|dca3d4a1] (3+0/3) Accurately ripped
04 [f33efc07|5e9a9c6c] (3+0/3) Accurately ripped
05 [3ab4ad31|b256de80] (3+0/3) Accurately ripped
06 [1160913f|014424a6] (3+0/3) Accurately ripped
07 [d2df7719|dc5ef58c] (3+0/3) Accurately ripped
08 [8cac54f5|384b5d55] (3+0/3) Accurately ripped
09 [573986a6|8773c805] (3+0/3) Accurately ripped
10 [da1b5921|b27a960c] (3+0/3) Accurately ripped
11 [3c06302b|9078dec6] (3+0/3) Accurately ripped
12 [e79aa94c|4e475281] (3+0/3) Accurately ripped
13 [020041e2|a2061a28] (3+0/3) Accurately ripped
14 [b44d5171|448cdbc0] (3+0/3) Accurately ripped

Track Peak [ CRC32 ] [W/O NULL] [ LOG ]
– 99,9 [8BF80EF1] [84A307AE]
01 99,9 [512158F5] [C1A91991] CRC32
02 91,8 [7A7BBA83] [81A64497] CRC32
03 91,8 [28E2D2B3] [54380E5C] CRC32
04 91,8 [0A4807D5] [86AE0062] CRC32
05 99,9 [77C4CECF] [43C71767] CRC32
06 98,0 [0961D056] [062EE30A] CRC32
07 96,8 [64FB6BF0] [608B5035] CRC32
08 99,9 [2CF6CAE3] [324D59B9] CRC32
09 97,2 [30818603] [A9C2A212] CRC32
10 98,0 [AAB62607] [21DF4FAA] CRC32
11 99,9 [5F10BB30] [09E55D1B] CRC32
12 97,5 [B37618A5] [5BCC032D] CRC32
13 97,5 [872C63C6] [C7ECF04B] CRC32
14 83,6 [973A91B8] [2780D429] CRC32


original uploader unknown, found in my archive
Oboom

Yunfile


password: asd