Subcategories

King Crimson - The Collectors' King Crimson Volume Four [3CD Box Set] (2001)

Posted By: gribovar
King Crimson - The Collectors' King Crimson Volume Four [3CD Box Set] (2001)

King Crimson - The Collectors' King Crimson Volume Four [3CD Box Set] (2001)
EAC Rip | FLAC (image+.cue+log) - 1,11 GB | MP3 CBR 320 kbps (LAME 3.93) - 444 MB | Covers - 168 MB
Genre: Progressive Rock | RAR 3% Rec. | Label: Pony Canyon (PCCY-01493)

This Japanese box set contains three consecutive entries in King Crimson's live and studio archival releases. The specific volumes in question are the tenth, 11th, and 13th from Discipline Global Mobile's Collectors' Club mail-order-only series covering Live in Central Park, NYC '74, the pre-Krim Discipline: Live at Moles Club, 1981, and the last gasp of the '90s double-trio incarnation on the Nashville Rehearsals, 1997. The July 1, 1974, concert in Central Park was the final King Crimson performance by the '70s quartet. While the recording is very good - not great - the group's spirited musical antics more than make up for any lack of audio fidelity. With the notable exception of "21st Century Schizoid Man," the band draws primarily from material on the Larks' Tongues in Aspic, Starless and Bible Black, and Red albums, respectively. This set of musicians shared a rare synergy. It is evident in the sheer terror heard spewing from David Cross' violin and in the sadistic pleasure of Robert Fripp's incendiary guitar solos. That same relentless vibe controls the rhythm section as well. Percussionist Bill Bruford and bassist John Wetton carve new dimensions into "Exiles" and "Fracture" - mutually propelling the grooves and increasing the overall fury of the set. The second disc features the '80s quartet shortly before the "official" re-formation of King Crimson in 1981. Their initial moniker was Discipline and featured returning Crimson members Robert Fripp on guitar, Bill Bruford on percussion, with guitarist, vocalist, and lyricist Adrian Belew and bass player Tony Levin. The quartet made their public debut at the Moles Club in Bath, England, on April 30, 1981, and this Collectors' Club volume is dedicated to that high-energy inauguration. From the first polyrhythmic strains of "Discipline" there is the immediate feeling that the band is actively seeking change. Even classics such as "Red" and "Larks' Tongues in Aspic (Part II)" take on a unique visage thanks in part to the heroics of Levin and Belew. It's ironic that their dedication to the band and music is what completes the transformation of the quartet into King Crimson. Outstanding are the first public performances of "Thela Hun Ginjeet," "Indiscipline," and a picturesque "Matte Kudasai." The recording used is from a non-professional audience source and is likewise exceedingly well-documented. The final inclusion is from the mid-'90s incarnation of King Crimson and finds the double-trio regrouped in the spring of 1997 to actively search new sonic textures. While the same six musicians came back to the fold, the energy had changed within the combo. Nashville Rehearsals, 1997 is a composite highlight reel of that tentative regrouping at S.I.R. Studios. Many of the ideas presented during these sessions became cornerstones that took King Crimson away from the heavily saturated sound of the double-trio and into the lean sonic circus that re-emerged with The Construkction of Light. "Too Many eeee's" and "Pat's Mechanikal Fives" contain various motifs that can be traced right through the process. "Seizure" also became a staple of future ProjeKcts and King Crimson experiments. It should be noted that the Collectors' King Crimson box sets were specifically designed for the Asian market and are edited with respect to each title's mail-order configurations. "Frame by Frame" from the Moles Club as well as "Nice to Start" and "Trey, Pat & Bill" from the S.I.R. Studios release have been excised for use in this compendium.

CD 1 Tracklist (Live In Central Park, NYC 1974):
01. Walk On… No Pussyfooting
02. 21st Century Schizoid Man
03. Lament
04. Exiles
05. Improve: Cerberus
06. Easy Money
07. Fracture
08. Starless
09. The Talking Drum
10. Larks' Tongues In Aspic: Part 2

Total time: 01:14:00

CD 2 Tracklist (Discipline - Live At Moles Club 1981):
01. Discipline
02. Thela Hun Ginjeet
03. Red
04. Elephant Talk
05. Matte Kudasai
06. The Sheltering Sky
07. Indiscipline
08. Larks' Tonges In Aspic (Part II)

Total time: 48:43

CD 3 Tracklist (Nashville Rehearsals 1997):
01. Presidents
02. Scapeplay
03. Sungel
04. Off Sets
05. Big Funk
06. Jimmy Bond
07. Have U Got?
08. Mulundrum
09. Too Many Eeee's
10. Pat's Meckanical Fives
11. Seizure
12. Circulation
13. KCF
14. Ragin' Drone
15. JB In 7
16. Split Hands
17. Sad Woman Jam
18. Tony's Jam

Total time: 01:06:09

Exact Audio Copy V1.0 beta 3 from 29. August 2011

EAC extraction logfile from 27. May 2014, 22:55

King Crimson / Live In Central Park, NYC 07-01-74

Used drive : PLEXTOR CD-R PX-240A Adapter: 6 ID: 1

Read mode : Secure
Utilize accurate stream : Yes
Defeat audio cache : Yes
Make use of C2 pointers : No

Read offset correction : 6
Overread into Lead-In and Lead-Out : No
Fill up missing offset samples with silence : Yes
Delete leading and trailing silent blocks : No
Null samples used in CRC calculations : Yes
Used interface : Installed external ASPI interface

Used output format : Internal WAV Routines
Sample format : 44.100 Hz; 16 Bit; Stereo


TOC of the extracted CD

Track | Start | Length | Start sector | End sector
––––––––––––––––––––––––––––-
1 | 0:00.00 | 2:10.64 | 0 | 9813
2 | 2:10.64 | 7:58.29 | 9814 | 45692
3 | 10:09.18 | 4:46.45 | 45693 | 67187
4 | 14:55.63 | 7:55.30 | 67188 | 102842
5 | 22:51.18 | 8:27.30 | 102843 | 140897
6 | 31:18.48 | 6:26.24 | 140898 | 169871
7 | 37:44.72 | 11:20.42 | 169872 | 220913
8 | 49:05.39 | 12:31.24 | 220914 | 277262
9 | 61:36.63 | 5:30.09 | 277263 | 302021
10 | 67:06.72 | 6:53.60 | 302022 | 333056


Range status and errors

Selected range

Filename Z:\data\hexonut\Seeding\King Crimson\2001-The Collectors' King Crimson Volume Four\2001-Pony Canyon [Japan, PCCY-01493]\CD 1 - Live In Central Park, NYC 07-01-74\Live In Central Park, NYC 07-01-74.wav

Peak level 100.0 %
Extraction speed 10.3 X
Range quality 100.0 %
Test CRC F1B510F1
Copy CRC F1B510F1
Copy OK

No errors occurred


AccurateRip summary

Track 1 accurately ripped (confidence 4) [26BDB9F7] (AR v2)
Track 2 accurately ripped (confidence 4) [5613E632] (AR v2)
Track 3 accurately ripped (confidence 4) [DB411D1B] (AR v2)
Track 4 accurately ripped (confidence 4) [148C6A9A] (AR v2)
Track 5 accurately ripped (confidence 4) [49371793] (AR v2)
Track 6 accurately ripped (confidence 4) [E52E1D21] (AR v2)
Track 7 accurately ripped (confidence 4) [3B116D3B] (AR v2)
Track 8 accurately ripped (confidence 4) [FDC4E123] (AR v2)
Track 9 accurately ripped (confidence 4) [6BCFDC12] (AR v2)
Track 10 accurately ripped (confidence 4) [85BCF552] (AR v2)

All tracks accurately ripped

End of status report

==== Log checksum 87EAC4F63C91101DA4BDED89634700E0C34B5FDEE8377143C7ADF1B56608929B ====

[CUETools log; Date: 12.05.2017 19:48:01; Version: 2.1.4]
[CTDB TOCID: DQ4Ev9QPi4Fj5Wu_yTniWDc8NkA-] found.
Track | CTDB Status
1 | (16/16) Accurately ripped
2 | (16/16) Accurately ripped
3 | (16/16) Accurately ripped
4 | (16/16) Accurately ripped
5 | (16/16) Accurately ripped
6 | (16/16) Accurately ripped
7 | (16/16) Accurately ripped
8 | (16/16) Accurately ripped
9 | (16/16) Accurately ripped
10 | (16/16) Accurately ripped
[AccurateRip ID: 001979bc-00d469b5-9511580a] found.
Track [ CRC | V2 ] Status
01 [e03c9559|26bdb9f7] (03+05/10) Accurately ripped
02 [ea481b6f|5613e632] (03+05/10) Accurately ripped
03 [0161fbd7|db411d1b] (03+05/10) Accurately ripped
04 [b24cede4|148c6a9a] (03+05/10) Accurately ripped
05 [a8c9705d|49371793] (03+05/10) Accurately ripped
06 [10819960|e52e1d21] (03+05/10) Accurately ripped
07 [10162607|3b116d3b] (03+05/10) Accurately ripped
08 [1cb579b0|fdc4e123] (03+05/10) Accurately ripped
09 [bec76bd3|6bcfdc12] (03+05/10) Accurately ripped
10 [bc37085c|85bcf552] (03+05/10) Accurately ripped
Offsetted by -669:
01 [55ec2a53] (02/10) Accurately ripped
02 [0a1902fa] (02/10) Accurately ripped
03 [bf409ee9] (02/10) Accurately ripped
04 [a5deec81] (02/10) Accurately ripped
05 [f78a7d97] (02/10) Accurately ripped
06 [8e7b761d] (02/10) Accurately ripped
07 [14f0b3b0] (02/10) Accurately ripped
08 [8cf978b7] (02/10) Accurately ripped
09 [85e28535] (02/10) Accurately ripped
10 [2616d3b0] (02/10) Accurately ripped
Offsetted by 14:
01 [91b7e6c0] (00/10) No match (V2 was not tested)
02 [6684b690] (00/10) No match (V2 was not tested)
03 [9879b219] (00/10) No match (V2 was not tested)
04 [8f0c8a55] (00/10) No match (V2 was not tested)
05 [816f0e36] (00/10) No match (V2 was not tested)
06 [5a715696] (00/10) No match (V2 was not tested)
07 [0b7c96f1] (00/10) No match (V2 was not tested)
08 [4fbf6b32] (00/10) No match (V2 was not tested)
09 [e03d7754] (00/10) No match (V2 was not tested)
10 [d7490823] (00/10) No match (V2 was not tested)

Track Peak [ CRC32 ] [W/O NULL] [ LOG ]
– 100,0 [F1B510F1] [8561E59C] CRC32
01 20,9 [B38DBEBB] [0B3103DB]
02 100,0 [06E3F464] [A6C391EB]
03 100,0 [2B30F3A3] [C88A10AA]
04 86,7 [FB613959] [BF104021]
05 81,3 [4B933F0F] [0A94607E]
06 95,8 [314E943C] [7CA8FAA8]
07 80,4 [5C9ACE5F] [19AB6DD3]
08 78,5 [2DE14C9F] [5C3A53D0]
09 95,1 [5596106D] [CE3756D8]
10 88,3 [C52E072D] [B5805E5C]

Exact Audio Copy V1.0 beta 3 from 29. August 2011

EAC extraction logfile from 27. May 2014, 22:55

King Crimson / Live At Moles Club Bath April 30 1981

Used drive : LITE-ON DVDRW LH-20A1L Adapter: 6 ID: 0

Read mode : Secure
Utilize accurate stream : Yes
Defeat audio cache : Yes
Make use of C2 pointers : No

Read offset correction : 6
Overread into Lead-In and Lead-Out : No
Fill up missing offset samples with silence : Yes
Delete leading and trailing silent blocks : No
Null samples used in CRC calculations : Yes
Used interface : Installed external ASPI interface

Used output format : Internal WAV Routines
Sample format : 44.100 Hz; 16 Bit; Stereo


TOC of the extracted CD

Track | Start | Length | Start sector | End sector
––––––––––––––––––––––––––––-
1 | 0:00.00 | 5:57.62 | 0 | 26836
2 | 5:57.62 | 5:42.01 | 26837 | 52487
3 | 11:39.63 | 6:11.00 | 52488 | 80312
4 | 17:50.63 | 4:45.00 | 80313 | 101687
5 | 22:35.63 | 3:42.60 | 101688 | 118397
6 | 26:18.48 | 8:49.15 | 118398 | 158087
7 | 35:07.63 | 6:57.00 | 158088 | 189362
8 | 42:04.63 | 6:38.12 | 189363 | 219224


Range status and errors

Selected range

Filename Z:\data\hexonut\Seeding\King Crimson\2001-The Collectors' King Crimson Volume Four\2001-Pony Canyon [Japan, PCCY-01493]\CD 2 - Live At Moles Club Bath April 30 1981\Live At Moles Club Bath April 30 1981.wav

Peak level 100.0 %
Extraction speed 8.5 X
Range quality 100.0 %
Test CRC 1E2E2851
Copy CRC 1E2E2851
Copy OK

No errors occurred


AccurateRip summary

Track 1 accurately ripped (confidence 3) [56C05119] (AR v2)
Track 2 accurately ripped (confidence 3) [AE8E1487] (AR v2)
Track 3 accurately ripped (confidence 3) [E49A52E1] (AR v2)
Track 4 accurately ripped (confidence 3) [B5BCD432] (AR v2)
Track 5 accurately ripped (confidence 3) [F9C4636A] (AR v2)
Track 6 accurately ripped (confidence 3) [6218B743] (AR v2)
Track 7 accurately ripped (confidence 3) [411E729B] (AR v2)
Track 8 accurately ripped (confidence 3) [2D8F0545] (AR v2)

All tracks accurately ripped

End of status report

==== Log checksum BA0541D072D6F61E984D82D247FC3A604D42B760948499D4718F9AF4DF597DAA ====

[CUETools log; Date: 12.05.2017 19:48:34; Version: 2.1.4]
[CTDB TOCID: 8qwsRo5HFB4GAe0LFlAAYjAWAQI-] found.
Track | CTDB Status
1 | (12/12) Accurately ripped
2 | (12/12) Accurately ripped
3 | (12/12) Accurately ripped
4 | (12/12) Accurately ripped
5 | (12/12) Accurately ripped
6 | (12/12) Accurately ripped
7 | (12/12) Accurately ripped
8 | (11/12) Accurately ripped
[AccurateRip ID: 000e70e0-0060d424-5e0b6b08] found.
Track [ CRC | V2 ] Status
01 [72bfef09|56c05119] (3+3/8) Accurately ripped
02 [5bd395a7|ae8e1487] (3+3/8) Accurately ripped
03 [3e6f3c15|e49a52e1] (3+3/8) Accurately ripped
04 [d20c2a0d|b5bcd432] (3+3/8) Accurately ripped
05 [3bb0f2da|f9c4636a] (3+3/8) Accurately ripped
06 [17ea07c5|6218b743] (3+3/8) Accurately ripped
07 [89b72393|411e729b] (3+3/8) Accurately ripped
08 [8839ab80|2d8f0545] (3+3/8) Accurately ripped
Offsetted by -669:
01 [046d71b7] (0/8) No match (V2 was not tested)
02 [547418b7] (0/8) No match (V2 was not tested)
03 [7f6ba4e5] (0/8) No match (V2 was not tested)
04 [50f16d7a] (0/8) No match (V2 was not tested)
05 [08c459ac] (0/8) No match (V2 was not tested)
06 [73e0cf1c] (0/8) No match (V2 was not tested)
07 [2b3909cb] (0/8) No match (V2 was not tested)
08 [66048504] (0/8) No match (V2 was not tested)

Track Peak [ CRC32 ] [W/O NULL] [ LOG ]
– 100,0 [1E2E2851] [CBD64017] CRC32
01 90,8 [74A848CA] [A85FC205]
02 94,7 [11807592] [6FFE1901]
03 100,0 [74E60C3C] [314D7B0F]
04 100,0 [039EADF6] [7CEFA108]
05 98,8 [0E0984BE] [550BAE07]
06 100,0 [25338F4A] [FD082D38]
07 100,0 [FE665F7B] [62F5F7E9]
08 98,3 [DB063C91] [61A63CD3]

Exact Audio Copy V1.0 beta 3 from 29. August 2011

EAC extraction logfile from 28. May 2014, 6:53

King Crimson / Nashville Rehearsals 1997

Used drive : PLEXTOR CD-R PX-240A Adapter: 6 ID: 1

Read mode : Secure
Utilize accurate stream : Yes
Defeat audio cache : Yes
Make use of C2 pointers : No

Read offset correction : 6
Overread into Lead-In and Lead-Out : No
Fill up missing offset samples with silence : Yes
Delete leading and trailing silent blocks : No
Null samples used in CRC calculations : Yes
Used interface : Installed external ASPI interface

Used output format : Internal WAV Routines
Sample format : 44.100 Hz; 16 Bit; Stereo


TOC of the extracted CD

Track | Start | Length | Start sector | End sector
––––––––––––––––––––––––––––-
1 | 0:00.00 | 7:04.27 | 0 | 31826
2 | 7:04.27 | 3:37.36 | 31827 | 48137
3 | 10:41.63 | 5:46.00 | 48138 | 74087
4 | 16:27.63 | 4:24.00 | 74088 | 93887
5 | 20:51.63 | 3:30.00 | 93888 | 109637
6 | 24:21.63 | 7:07.00 | 109638 | 141662
7 | 31:28.63 | 1:05.60 | 141663 | 146597
8 | 32:34.48 | 0:39.45 | 146598 | 149567
9 | 33:14.18 | 1:11.12 | 149568 | 154904
10 | 34:25.30 | 3:03.57 | 154905 | 168686
11 | 37:29.12 | 0:51.63 | 168687 | 172574
12 | 38:21.00 | 1:04.01 | 172575 | 177375
13 | 39:25.01 | 0:32.47 | 177376 | 179822
14 | 39:57.48 | 3:42.00 | 179823 | 196472
15 | 43:39.48 | 2:42.15 | 196473 | 208637
16 | 46:21.63 | 4:36.28 | 208638 | 229365
17 | 50:58.16 | 2:36.17 | 229366 | 241082
18 | 53:34.33 | 12:34.42 | 241083 | 297674


Range status and errors

Selected range

Filename Z:\data\hexonut\Seeding\King Crimson\2001-The Collectors' King Crimson Volume Four\2001-Pony Canyon [Japan, PCCY-01493]\CD 3 - Nashville Rehearsals 1997\Nashville Rehearsals 1997.wav

Peak level 99.9 %
Extraction speed 9.7 X
Range quality 100.0 %
Test CRC DDB36198
Copy CRC DDB36198
Copy OK

No errors occurred


AccurateRip summary

Track 1 accurately ripped (confidence 3) [B5937989] (AR v2)
Track 2 accurately ripped (confidence 3) [BA89F8DA] (AR v2)
Track 3 accurately ripped (confidence 3) [A58E87FF] (AR v2)
Track 4 accurately ripped (confidence 3) [B1BA2714] (AR v2)
Track 5 accurately ripped (confidence 3) [54E4B2D3] (AR v2)
Track 6 accurately ripped (confidence 3) [998C234D] (AR v2)
Track 7 accurately ripped (confidence 3) [1703DF2D] (AR v2)
Track 8 accurately ripped (confidence 3) [C8730611] (AR v2)
Track 9 accurately ripped (confidence 3) [0A684970] (AR v2)
Track 10 accurately ripped (confidence 3) [AA554C0F] (AR v2)
Track 11 accurately ripped (confidence 3) [1C068C20] (AR v2)
Track 12 accurately ripped (confidence 3) [09036143] (AR v2)
Track 13 accurately ripped (confidence 3) [FE3845BF] (AR v2)
Track 14 accurately ripped (confidence 3) [464023AC] (AR v2)
Track 15 accurately ripped (confidence 3) [D626A889] (AR v2)
Track 16 accurately ripped (confidence 3) [F675C13D] (AR v2)
Track 17 accurately ripped (confidence 3) [8EE46CC4] (AR v2)
Track 18 accurately ripped (confidence 3) [15DCF0C0] (AR v2)

All tracks accurately ripped

End of status report

==== Log checksum A1F7F8767EB9C4C2AFDA2EB9003FC4B59BFF9B41361735C6C58123161D4A9E37 ====

[CUETools log; Date: 12.05.2017 19:49:14; Version: 2.1.4]
[CTDB TOCID: 9LjcIxw8Ky8S7i.IgQMFKVQC6ZA-] found.
Track | CTDB Status
1 | (12/12) Accurately ripped
2 | (12/12) Accurately ripped
3 | (12/12) Accurately ripped
4 | (12/12) Accurately ripped
5 | (12/12) Accurately ripped
6 | (12/12) Accurately ripped
7 | (12/12) Accurately ripped
8 | (12/12) Accurately ripped
9 | (12/12) Accurately ripped
10 | (12/12) Accurately ripped
11 | (12/12) Accurately ripped
12 | (12/12) Accurately ripped
13 | (12/12) Accurately ripped
14 | (12/12) Accurately ripped
15 | (12/12) Accurately ripped
16 | (12/12) Accurately ripped
17 | (12/12) Accurately ripped
18 | (12/12) Accurately ripped
[AccurateRip ID: 002b0f79-021f887b-0d0f8112] found.
Track [ CRC | V2 ] Status
01 [c66ec6b3|b5937989] (3+4/7) Accurately ripped
02 [8678dfbf|ba89f8da] (3+4/7) Accurately ripped
03 [18274c4a|a58e87ff] (3+4/7) Accurately ripped
04 [5f0e459f|b1ba2714] (3+4/7) Accurately ripped
05 [9811d49d|54e4b2d3] (3+4/7) Accurately ripped
06 [8d64a4a6|998c234d] (3+4/7) Accurately ripped
07 [8a10529b|1703df2d] (3+4/7) Accurately ripped
08 [91b0ea6a|c8730611] (3+4/7) Accurately ripped
09 [e5ab3c34|0a684970] (3+4/7) Accurately ripped
10 [571f54ef|aa554c0f] (3+4/7) Accurately ripped
11 [871be57e|1c068c20] (3+4/7) Accurately ripped
12 [715a76ed|09036143] (3+4/7) Accurately ripped
13 [be64ffda|fe3845bf] (3+4/7) Accurately ripped
14 [c5d33107|464023ac] (3+4/7) Accurately ripped
15 [ce0e3c99|d626a889] (3+4/7) Accurately ripped
16 [1de6ce8b|f675c13d] (3+4/7) Accurately ripped
17 [7de0161d|8ee46cc4] (3+4/7) Accurately ripped
18 [714d20e1|15dcf0c0] (3+4/7) Accurately ripped

Track Peak [ CRC32 ] [W/O NULL] [ LOG ]
– 99,9 [DDB36198] [1C3348B4] CRC32
01 96,9 [87CDB788] [E24B8866]
02 83,1 [6F899B68] [5715BDFD]
03 98,0 [D0A59A26] [4C615953]
04 98,1 [CB2A43BA] [6199C959]
05 96,6 [A1C02BCA] [345AF7A9]
06 97,9 [68C4380A] [D53C8B07]
07 91,1 [73357D69] [2425D458]
08 93,3 [B41E0E53] [97C22A41]
09 97,4 [12CDCCDA] [B2B86800]
10 96,2 [6E6D2737] [8CC40582]
11 93,0 [B812DB91] [35199251]
12 85,4 [B65E3E27] [7CBB46D7]
13 89,3 [300CF689] [848A590E]
14 94,8 [B22981BB] [1B97540A]
15 93,2 [12C12895] [67302F04]
16 99,9 [945C6C10] [0013CF08]
17 98,4 [A35CB338] [8B2F0CD1]
18 99,6 [2CDC5A3D] [3C857CCE]

Thanks to hexonut

See also:
King Crimson - The Collectors' King Crimson Volume Two [3CD Box Set] (2000)
King Crimson - The Collectors' King Crimson Volume Three [3CD Box Set] (2000)