Subcategories

King Kobra - King Kobra III (1988)

Posted By: Andi_Deris
King Kobra - King Kobra III (1988)

King Kobra - King Kobra III (1988)
EAC Rip | FLAC: Image+Cue+Log | 304 Mb | MP3 CBR 320 kbps | 117 Mb | Scans | Time: 39:34
Genre: Hard Rock, Heavy/Glam Metal | Label: Music for Nations | Cat.: CDMFN 86

King Kobra III, released in 1988 on New Renaissance Records, was the first and last album by the Edwards, Michael-Phillips, Northrup, Hart and Appice line-up of King Kobra. The album featured a strong selection of 1980s style mainstream metal.

King Kobra’s first two albums -‘Ready to Strike’ and ‘Thrill of a Lifetime’- are cult classics. Granted, they’re a little hit and miss, but the great moments on both albums are among the best that 80s melodic metal has to offer. This is, in no small part, due to the then unknown Mark Free being the featured vocalist on both albums; a performer whom would go on to become one of the melodic rock scene’s best-loved voices, achieving greater accolades with cult AOR bands Signal and Unruly Child. Sadly, by the time King Kobra issued their third album a couple of years later – the appropriately titled ‘III’ – bassist Johnny Rod had joined W.A.S.P., Mark Free had moved on, King Kobra’s sound had toughened up…and new vocalist Johnny Edwards just wasn’t up to the job. [Edwards would face a similarly hard task replacing Lou Gramm in Foreigner a couple of years later]. King Kobra threw in the towel after that third album, with Appice joining ex-Thin Lizzy guitarist John Sykes to form Blue Murder. Appice left Blue Murder in 1992 to move on to other projects.

Thirteen years after King Kobra’s third album, Appice resurrected the band name and released ‘Hollywood Trash’ – a King Kobra album in name only, with Appice being the sole original member. For this third incarnation of King Kobra, Kelly Keeling was enlisted on vocals (a man, whom coincidentally, had also been Blue Murder’s frontman sometime after Appice’s departure). While ‘Hollywood Trash’s material was patchy and had the audio quality of something recorded in a shed, Keeling did his best to deliver decent vocal performances. The end result, unsurprisingly, wasn’t really any better than ‘King Kobra III’; it seemed that no matter how hard they tried, this band were never going to match their early days with Mark Free.

King Kobra - King Kobra III (1988)




King Kobra - King Kobra III (1988)


Track Listing

01. Mean Street Machine (4:28)
02. Take It Off (3:59)
03. Walls Of Silence (5:26)
04. Legends Never Die (5:06)
05. Redline (4:09)
06. Burning In Her Fire (3:35)
07. Perfect Crime (3:59)
08. It's My Life (3:41)
09. #1 (5:11)

Produced by Carmine Appice, David Michael-Phillips and Alex Woltman

The Band

• David Michael-Phillips: lead, rhythm and bass guitars, acoustic and slide guitars, backing vocals
• Carmine Appice: drums, percussion, background vocals
• Johnny 'Boy' Edwards: vocals
• Jeff Northrup: lead and rhythm guitars, backing vocals
• Larry Hart: bass guitar

• Johnny Rod, Steve Sacchi, Mark Olsen, Bryson Jones, Peter Criss, Sarah Appice, Bob Spinella, Dave Flynn: backing vocals

Issued under licence from New Renaissance NRCD-26

King Kobra - King Kobra III (1988)


Exact Audio Copy V0.99 prebeta 4 from 23. January 2008

Отчёт EAC об извлечении, выполненном 5. марта 2009, 0:18

King Kobra / III

Дисковод: Optiarc DVD RW AD-7543A Adapter: 1 ID: 0

Режим чтения : Достоверность
Использование точного потока : Да
Отключение кэша аудио : Да
Использование указателей C2 : Нет

Коррекция смещения при чтении : 48
Способность читать области Lead-in и Lead-out : Нет
Заполнение пропущенных сэмплов тишиной : Да
Удаление блоков с тишиной в начале и конце : Нет
При вычислениях CRC использовались нулевые сэмплы : Да
Интерфейс : Установленный внешний ASPI-интерфейс

Выходной формат : Внутренние WAV-операции
Формат сэмплов : 44.100 Гц; 16 бит; стерео


TOC извлечённого CD

Трек | Старт | Длительность | Начальный сектор | Конечный сектор
––––––––––––––––––––––––––––––––––-
1 | 0:00.00 | 4:28.15 | 0 | 20114
2 | 4:28.15 | 3:59.55 | 20115 | 38094
3 | 8:27.70 | 5:26.35 | 38095 | 62579
4 | 13:54.30 | 5:06.10 | 62580 | 85539
5 | 19:00.40 | 4:09.30 | 85540 | 104244
6 | 23:09.70 | 3:35.50 | 104245 | 120419
7 | 26:45.45 | 3:59.30 | 120420 | 138374
8 | 30:45.00 | 3:41.00 | 138375 | 154949
9 | 34:26.00 | 5:11.24 | 154950 | 178298


Характеристики диапазона извлечения и сообщения об ошибках

Выбранный диапазон

Имя файла D:\Download\Моя Раздача\KIng Kobra\King Kobra - III\King Kobra - III.wav

Пиковый уровень 98.3 %
Качество диапазона 100.0 %
CRC копии 6D12008D
Копирование… OK

Ошибок не произошло


AccurateRip: сводка

Трек 1 нет в базе данных
Трек 2 нет в базе данных
Трек 3 нет в базе данных
Трек 4 нет в базе данных
Трек 5 нет в базе данных
Трек 6 нет в базе данных
Трек 7 нет в базе данных
Трек 8 нет в базе данных
Трек 9 нет в базе данных

Ни одного трека нет в базе AccurateRip

Конец отчёта


Many thanks to the original uploader: lomik70

–––––––––––
Nitroflare