Subcategories

King Kobra - Ready To Strike (1985) [Japan 1 st Press, 1993]

Posted By: Andi_Deris
King Kobra - Ready To Strike (1985) [Japan 1 st Press, 1993]

King Kobra - Ready To Strike (1985) [Japan 1 st Press, 1993]
EAC Rip | FLAC: Image+Cue+Log | 287 Mb | MP3 CBR 320 kbps | 101 Mb | Scans | Time: 41:35
Genre: Hard Rock, Heavy/Glam Metal | Label: Toshiba-EMI Ltd. | Cat.: TOCP-8054

Ready to Strike is the first album by the band King Kobra. It was released on November 9, 1985. The music here is a fairly decent slab of melodic, 80's pop metal. For this style this CD is fairly heavy as well; hanging with the likes of Dokken and Rough Cutt . While their sound is slightly generic, the band manages to write some decent anthems that make the CD very enjoyable. Vocalist Mark Free has a decent set of pipes to boot, which really pushes this CD over the edge.

King Kobra - Ready To Strike (1985) [Japan 1 st Press, 1993]




King Kobra - Ready To Strike (1985) [Japan 1 st Press, 1993]


Track Listing

01. Ready To Strike (5:21)
02. Hunger (3:30)
03. Shadow Rider (4:06)
04. Shake Up (3:30)
05. Attention (3:44)
06. Breakin' Out (4:00)
07. Tough Guys (4:23)
08. Dancing With Desire (5:39)
09. Second Thoughts (3:47)
10. Piece Of The Rock (3:35)

Produced by Spencer Proffer & Carmine Appice

The Band

• Mark Free: lead and background vocals
• David Michael-Philips: lead and rhythm guitar, background vocals, synthesizers
• Johnny Rod: bass guitar, background vocals
• Mick Sweda: lead and rhythm guitar, background vocals, synthesizers
• Carmine Appice: drums and percussion, background vocals

Notes

Series: Burrn! Legendary Masters - 10

Exact Audio Copy V0.99 prebeta 5 from 4. May 2009

Отчёт EAC об извлечении, выполненном 29. августа 2011, 11:37

King Kobra / Ready To Strike [TOCP-8054]

Дисковод: Optiarc DVD RW AD-7200A Adapter: 1 ID: 0

Режим чтения : Достоверность
Использование точного потока : Да
Отключение кэша аудио : Да
Использование указателей C2 : Нет

Коррекция смещения при чтении : 48
Способность читать области Lead-in и Lead-out : Нет
Заполнение пропущенных сэмплов тишиной : Да
Удаление блоков с тишиной в начале и конце : Нет
При вычислениях CRC использовались нулевые сэмплы : Да
Интерфейс : Встроенный Win32-интерфейс для Win NT/2000

Выходной формат : Пользовательский кодировщик
Выбранный битрейт : 128 kBit/s
Качество : Высокий
Добавление ID3-тэга : Нет
Утилита сжатия : C:\Program Files\Exact Audio Copy\Flac\flac.exe
Дополнительные параметры : -8 -V -T "artist=%a" -T "title=%t" -T "album=%g" -T "date=%y" -T "tracknumber=%n" -T "genre=%m" -T "comment=EAC


TOC извлечённого CD

Трек | Старт | Длительность | Начальный сектор | Конечный сектор
––––––––––––––––––––––––––––––––––-
1 | 0:00.00 | 5:21.37 | 0 | 24111
2 | 5:21.37 | 3:30.13 | 24112 | 39874
3 | 8:51.50 | 4:06.17 | 39875 | 58341
4 | 12:57.67 | 3:30.10 | 58342 | 74101
5 | 16:28.02 | 3:44.55 | 74102 | 90956
6 | 20:12.57 | 4:00.13 | 90957 | 108969
7 | 24:12.70 | 4:23.67 | 108970 | 128761
8 | 28:36.62 | 5:39.30 | 128762 | 154216
9 | 34:16.17 | 3:47.68 | 154217 | 171309
10 | 38:04.10 | 3:35.52 | 171310 | 187486


Характеристики диапазона извлечения и сообщения об ошибках

Выбранный диапазон

Имя файла Y:\Музыка\King Kobra\1985 Ready To Strike\King Kobra - Ready To Strike [TOCP-8054].wav

Пиковый уровень 100.0 %
Качество диапазона 100.0 %
CRC теста B0345F8B
CRC копии B0345F8B
Копирование… OK

Ошибок не произошло


AccurateRip: сводка

Трек 1 нет в базе данных
Трек 2 нет в базе данных
Трек 3 нет в базе данных
Трек 4 нет в базе данных
Трек 5 нет в базе данных
Трек 6 нет в базе данных
Трек 7 нет в базе данных
Трек 8 нет в базе данных
Трек 9 нет в базе данных
Трек 10 нет в базе данных

Ни одного трека нет в базе AccurateRip

Конец отчёта


Many thanks to the original uploader: ikebana

–––––––––––
Nitroflare