Subcategories

King Kobra - Thrill Of A Lifetime (1986) [Japan 1 st Press, 1993]

Posted By: Andi_Deris
King Kobra - Thrill Of A Lifetime (1986) [Japan 1 st Press, 1993]

King Kobra - Thrill Of A Lifetime (1986) [Japan 1 st Press, 1993]
EAC Rip | FLAC: Image+Cue+Log | 277 Mb | MP3 CBR 320 kbps | 98 Mb | Scans | Time: 40:32
Genre: Hard Rock, Heavy/Glam Metal | Label: Toshiba-EMI Ltd. | Cat.: TOCP-8103

Carmine Appice and his crew of bleach blonde L.A. poofsters are back for round two. With "Ready to Strike:" the band gave the world a quality mix of heavy music and pop hooks. Thrill of a Lifetime is the second album by the American hard rock band King Kobra, released in 1986 by Capitol Records. The album features "Iron Eagle (Never Say Die)", the theme song of the 1986 film Iron Eagle.

King Kobra - Thrill Of A Lifetime (1986) [Japan 1 st Press, 1993]




King Kobra - Thrill Of A Lifetime (1986) [Japan 1 st Press, 1993]


Track Listing

01. Second Time Around (4:08)
02. Dream On (4:29)
03. Feel The Heat (3:58)
04. Thrill Of A Lifetime (4:12)
05. Only The Strong Will Survive (3:52)
06. Iron Eagle (Never Say Die) (3:33)
07. Home Street Home (4:20)
08. Overnight Sensation (4:19)
09. Raise Your Hands To Rock (3:47)
10. Party Animal (3:54)

Produced by Carmine Appice & Duane Hitchings and Spencer Proffer

The Band

• Mark Free: lead vocals
• David Michael-Philips: guitar
• Mick Sweda: guitar
• Johnny Rod: bass
• Carmine Appice: drums
• Duane Hitchings: keyboards

Notes

Series: Burrn! Legendary Masters - 22

Exact Audio Copy V0.99 prebeta 5 from 4. May 2009

Отчёт EAC об извлечении, выполненном 16. августа 2011, 12:39

King Kobra / Thrill Of A Lifetime [TOCP-8103]

Дисковод: Optiarc DVD RW AD-7200A Adapter: 1 ID: 0

Режим чтения : Достоверность
Использование точного потока : Да
Отключение кэша аудио : Да
Использование указателей C2 : Нет

Коррекция смещения при чтении : 48
Способность читать области Lead-in и Lead-out : Нет
Заполнение пропущенных сэмплов тишиной : Да
Удаление блоков с тишиной в начале и конце : Нет
При вычислениях CRC использовались нулевые сэмплы : Да
Интерфейс : Встроенный Win32-интерфейс для Win NT/2000

Выходной формат : Пользовательский кодировщик
Выбранный битрейт : 128 kBit/s
Качество : Высокий
Добавление ID3-тэга : Нет
Утилита сжатия : C:\Program Files\Exact Audio Copy\Flac\flac.exe
Дополнительные параметры : -8 -V -T "artist=%a" -T "title=%t" -T "album=%g" -T "date=%y" -T "tracknumber=%n" -T "genre=%m" -T "comment=EAC


TOC извлечённого CD

Трек | Старт | Длительность | Начальный сектор | Конечный сектор
––––––––––––––––––––––––––––––––––-
1 | 0:00.00 | 4:08.30 | 0 | 18629
2 | 4:08.30 | 4:29.57 | 18630 | 38861
3 | 8:38.12 | 3:58.58 | 38862 | 56769
4 | 12:36.70 | 4:12.65 | 56770 | 75734
5 | 16:49.60 | 3:52.45 | 75735 | 93179
6 | 20:42.30 | 3:33.20 | 93180 | 109174
7 | 24:15.50 | 4:20.52 | 109175 | 128726
8 | 28:36.27 | 4:19.50 | 128727 | 148201
9 | 32:56.02 | 3:47.35 | 148202 | 165261
10 | 36:43.37 | 3:54.63 | 165262 | 182874


Характеристики диапазона извлечения и сообщения об ошибках

Выбранный диапазон

Имя файла Y:\Музыка\King Kobra\1986 Thrill Of A Lifetime\King Kobra - Thrill Of A Lifetime [TOCP-8103].wav

Пиковый уровень 100.0 %
Качество диапазона 99.9 %
CRC теста 6F65943F
CRC копии 6F65943F
Копирование… OK

Ошибок не произошло


AccurateRip: сводка

Трек 1 точное извлечение (доверие 3) [2926BB8B]
Трек 2 точное извлечение (доверие 3) [70AE6788]
Трек 3 точное извлечение (доверие 3) [33648532]
Трек 4 точное извлечение (доверие 3) [0B0A178E]
Трек 5 точное извлечение (доверие 3) [47F5789B]
Трек 6 точное извлечение (доверие 3) [DA71FE4E]
Трек 7 точное извлечение (доверие 3) [EA3DC02C]
Трек 8 точное извлечение (доверие 3) [86FF418E]
Трек 9 точное извлечение (доверие 3) [091AB1DD]
Трек 10 точное извлечение (доверие 3) [D271D8CD]

Все треки извлечены точно

Конец отчёта


Many thanks to the original uploader: ikebana

–––––––––––
Nitroflare