Tags
Language
Tags

Kingdom Come - Twilight Cruiser (1995)

Posted By: v3122
Kingdom Come - Twilight Cruiser (1995)

Kingdom Come - Twilight Cruiser (1995)
EAC | Flac(Image) + Cue + Log & MP3 CBR 320Kbps
Viceroy Music, 33 008-423 | ~ 379 or 122 Mb | Artwork(png) -> 135 Mb
Hard Rock

Few new bands have caused as much of a stir with the release of their debut single and few have, simultaneously, generated so much backlash as German hard rockers Kingdom Come did with "Get It On." Mistaken by many fans as a reunion of the surviving members of Led Zeppelin, the quintet was derisively known to some as "Kingdom Clone." Signed to Polydor, lead singer Lenny Wolf put together a band and entered the studio with producer Bob Rock, an engineer and musician who would later find success working with Mötley Crüe, Bon Jovi, and Metallica. When "Get It On" was leaked to several radio stations around the U.S., it generated considerable buzz due to the speculation about the "mystery" band. The Zeppelin comparisons were enough to bolster early sales and the record shipped gold as "Get It On" became a sizable AOR hit and the band took part in the Monsters of Rock tour with acts like Van Halen and the Scorpions. However, a heavy backlash soon followed and subsequent releases from their self-titled debut failed to make much impact on radio. Kingdom Come entered the studio to record a follow-up with producer Keith Olsen at the helm. The resulting In Your Face, released in 1989, did little to quell the Zeppelin comparisons or to reverse the act's decline in commercial clout. The ensuing tour saw Kingdom Come collapse and all the original members, save for Wolf, leave the band. Wolf would carry on, releasing Hands of Time under the Kingdom Come banner in 1990, but the album stiffed and, along with the emergence of grunge, sealed the act's fate in the U.S. Kingdom Come would continue to issue new material throughout the '90s and into the new century (the band's 13th studio album, Outlier, arrived in 2013), but mostly limited to releases in Wolf's native Germany.

by Tom Demalon, allmusic
Kingdom Come - Twilight Cruiser (1995):

Kingdom Come - Twilight Cruiser (1995)

Tracklist:

01. Always on the Run
02. Law of Emotions
03. Twilight Cruiser
04. Janine
05. Hope Is on Fire
06. Thank You All
07. Rather Be on My Own
08. Can't Put Out and Not Take Back
09. Cold Ground
10. I Don't Care
11. Gonna Change
12. Should Have Known

Lenny Wolf – Vocals, Rhythm Guitar
Marcus Deml – Lead Guitar, Rhythm Guitar
Oliver Kießner – Rhythm Guitar
Bernd Fintzen – Keyboards
Kai Fricke – Drums

Exact Audio Copy V1.0 beta 3 from 29. August 2011

EAC extraction logfile from 31. January 2020, 17:50

Kingdom Come / Twilight Cruiser (33 008-423)

Used drive : HL-DT-STDVD-RAM GSA-H22L Adapter: 4 ID: 4

Read mode : Secure
Utilize accurate stream : Yes
Defeat audio cache : Yes
Make use of C2 pointers : No

Read offset correction : 102
Overread into Lead-In and Lead-Out : No
Fill up missing offset samples with silence : Yes
Delete leading and trailing silent blocks : No
Null samples used in CRC calculations : Yes
Used interface : Native Win32 interface for Win NT & 2000

Used output format : User Defined Encoder
Selected bitrate : 768 kBit/s
Quality : High
Add ID3 tag : No
Command line compressor : C:\Program Files\FLAC Frontend\tools\flac.exe
Additional command line options : -V -8 %source%


TOC of the extracted CD

Track | Start | Length | Start sector | End sector
––––––––––––––––––––––––––––-
1 | 0:01.00 | 4:12.65 | 75 | 19039
2 | 4:13.65 | 4:02.37 | 19040 | 37226
3 | 8:16.27 | 6:39.03 | 37227 | 67154
4 | 14:55.30 | 4:23.15 | 67155 | 86894
5 | 19:18.45 | 3:15.05 | 86895 | 101524
6 | 22:33.50 | 3:55.15 | 101525 | 119164
7 | 26:28.65 | 3:00.62 | 119165 | 132726
8 | 29:29.52 | 4:19.73 | 132727 | 152224
9 | 33:49.50 | 4:17.15 | 152225 | 171514
10 | 38:06.65 | 4:57.05 | 171515 | 193794
11 | 43:03.70 | 3:46.27 | 193795 | 210771
12 | 46:50.22 | 4:32.38 | 210772 | 231209


Range status and errors

Selected range

Filename D:\Ready.zp\Kingdom Come - Twilight Cruiser (33 008-423).wav

Peak level 100.0 %
Extraction speed 2.8 X
Range quality 99.9 %
Test CRC 29216DD9
Copy CRC 29216DD9
Copy OK

No errors occurred


AccurateRip summary

Track 1 accurately ripped (confidence 2) [10E8178D] (AR v1)
Track 2 accurately ripped (confidence 2) [BF050579] (AR v1)
Track 3 accurately ripped (confidence 2) [DCEBDC13] (AR v1)
Track 4 accurately ripped (confidence 2) [B16585BA] (AR v1)
Track 5 accurately ripped (confidence 2) [EA60C210] (AR v1)
Track 6 accurately ripped (confidence 2) [8FDC79C1] (AR v1)
Track 7 accurately ripped (confidence 2) [1296038E] (AR v1)
Track 8 accurately ripped (confidence 2) [5D919DA1] (AR v1)
Track 9 accurately ripped (confidence 2) [BF022F76] (AR v1)
Track 10 accurately ripped (confidence 2) [9E4F3430] (AR v1)
Track 11 accurately ripped (confidence 2) [A18B82CC] (AR v1)
Track 12 accurately ripped (confidence 2) [85DFAD81] (AR v1)

All tracks accurately ripped

End of status report

–– CUETools DB Plugin V2.1.3

[CTDB TOCID: OQa9Oq55eiJSxSPXHoC67X.jPb8-] found
[83cc72c3] (2/3) No match
[26b8d773] (1/3) Accurately ripped


==== Log checksum F53CDD727103A98CF1252B9DAC3C4C1DD4CA1C600402F40F66F1E3C6579AC927 ====


[CUETools log; Date: 27.04.2020 12:52:33; Version: 2.1.4]
Pregap length 00:01:00.
[AccurateRip ID: 00173e7e-00d74d0e-ac0c090c] found.
Track [ CRC | V2 ] Status
01 [10e8178d|e5b6117a] (2+0/2) Accurately ripped
02 [bf050579|2382740c] (2+0/2) Accurately ripped
03 [dcebdc13|66c1a6dd] (2+0/2) Accurately ripped
04 [b16585ba|b76c87b2] (2+0/2) Accurately ripped
05 [ea60c210|01c38a1a] (2+0/2) Accurately ripped
06 [8fdc79c1|b9fcb354] (2+0/2) Accurately ripped
07 [1296038e|59af7b5d] (2+0/2) Accurately ripped
08 [5d919da1|abbd557b] (2+0/2) Accurately ripped
09 [bf022f76|d8e70941] (2+0/2) Accurately ripped
10 [9e4f3430|e360eebe] (2+0/2) Accurately ripped
11 [a18b82cc|365970fd] (2+0/2) Accurately ripped
12 [85dfad81|e3b4f9b8] (2+0/2) Accurately ripped

Track Peak [ CRC32 ] [W/O NULL] [ LOG ]
– 100,0 [29216DD9] [00BF2769] CRC32
01 99,8 [87467953] [703A6090]
02 99,8 [73E8FA67] [36695E39]
03 99,8 [938F03FF] [654D60F2]
04 99,8 [8D46A79A] [E628A8FA]
05 99,6 [CC4CBE81] [21DE4174]
06 100,0 [22F67429] [3D09850E]
07 99,3 [292F2E52] [C2623094]
08 99,7 [6D09C968] [79BDB928]
09 99,7 [1B93A4F7] [717AA8D1]
10 99,9 [5AFAD42B] [EE885723]
11 99,8 [768571AF] [75124DBC]
12 99,6 [51DDCE15] [E5152976]


Kingdom Come - Twilight Cruiser (1995)

All thanks go to Ready.zp

Kingdom Come in my Blog

Download Kingdom Come - Twilight Cruiser (1995):