Subcategories

Kiss - Dressed To Kill 1975 & Revenge 1992 (1999)

Posted By: v3122
Kiss - Dressed To Kill 1975 & Revenge 1992 (1999)

Kiss - Dressed To Kill 1975 & Revenge 1992 (1999)
EAC | Flac(Image) + Cue + Log & MP3 CBR 320Kbps
CD-Maximum, CDM 0499-251 | RU | ~ 567 or 191 Mb | Scans(jpg) -> 28 Mb
Hard Rock, Glam

Dressed To Kill 1975
By the release of their third album, 1975's Dressed to Kill, Kiss were fast becoming America's top rock concert attraction, yet their record sales up to this point did not reflect their ticket sales. Casablanca label head Neil Bogart decided to take matters into his own hands, and produced the new record along with the band. The result is more vibrant sounding than its predecessor, 1974's sludgefest Hotter Than Hell, and the songs have more of an obvious pop edge to them. The best-known song on the album by far is the party anthem "Rock and Roll All Nite," but it was the track "C'Mon and Love Me" that became a regional hit in the Detroit area, giving the band their first taste of radio success. Since the band was on the road for a year straight, songs such as "Room Service" and "Ladies in Waiting" dealt with life on the road (i.e., groupies), and a pair of songs were reworked from Kiss' precursor band, Wicked Lester ("Love Her All I Can" and "She"). With Dressed to Kill's Top 40 showing on the Billboard charts, the stage was now set for Kiss' big commercial breakthrough with their next release.

Revenge 1992
Despite coming off a monster ballad with Hot in the Shade's Michael Bolton-penned "Forever," Kiss was plagued by financial instability due to Simmons and Stanley's extravagance; worse, drummer Eric Carr succumbed to cancer in November 1991. But even with the grunge movement in full effect, Kiss was luckily recognized as a major influence on everyone from Trent Reznor to Lenny Kravitz – their '70s legacy intact despite the band's often dubious choices in the '80s. And even though they, too, were on the brink of commercial extinction, being savvy businessmen first and foremost, Gene Simmons and Paul Stanley fully understood the lay of the land. Not only did they need to make a definitive record, they needed to completely re-invent themselves, visually and sonically. The first step was to secure hard rock veteran Eric Singer to fill Carr's shoes; next, the band rekindled its relationship with producer Bob Ezrin. Again, never ones to ignore lucrative business opportunities, Simmons and Stanley swallowed their pride and rejoined forces with former bandmate Vinnie Vincent. Together, they co-wrote Revenge's three centerpieces – "Unholy," "I Just Wanna," and "Heart of Chrome." Bringing Vincent back to the Kiss fold ultimately proves to be the album's coup de grâce. Some of the cuts are excellent, delivered with conviction and panache, but for all the hype, the album is also tainted with filler. On the up tip, Ezrin's mongo-enormous production galvanizes the Kiss sound, making it fresh again. The band's promotional efforts would help propel the album's first-week sales sky high, culminating with a Top Ten Billboard chart entry, but indifference once again plagued the ensuing arena tour.

~ allmusic
Kiss - Dressed To Kill 1975 & Revenge 1992 (1999):

Kiss - Dressed To Kill 1975 & Revenge 1992 (1999)

Tracklist:

Dressed To Kill:

01. Room Service
02. Two Timer
03. Ladies In Waiting
04. Getaway
05. Rock Bottom
06. C'Mon And Love Me
07. Anything For My Baby
08. She
09. Love Her All I Can
10. Rock And Roll All Nite

Revenge:

11. Unholy
12. Take It Off
13. Tough Love
14. Spit
15. God Gave Rock 'N' Roll To You II
16. Domino
17. Heart Of Chrome
18. Thou Shalt Not
19. Every Time I Look At You
20. Paralyzed
21. I Just Wanna
22. Carr Jam 1981

Exact Audio Copy V1.3 from 2. September 2016

Отчёт EAC об извлечении, выполненном 26. декабря 2017, 18:40

KISS / Dressed To Kill and Revenge

Дисковод: LITE-ON CD-RW SOHR-5239V Adapter: 8 ID: 1

Режим чтения : Достоверность
Использование точного потока : Да
Отключение кэша аудио : Да
Использование указателей C2 : Нет

Коррекция смещения при чтении : 6
Способность читать области Lead-in и Lead-out : Нет
Заполнение пропущенных сэмплов тишиной : Да
Удаление блоков с тишиной в начале и конце : Нет
При вычислениях CRC использовались нулевые сэмплы : Да
Интерфейс : Установленный внешний ASPI-интерфейс

Выходной формат : Пользовательский кодировщик
Выбранный битрейт : 128 kBit/s
Качество : Высокий
Добавление ID3-тега : Нет
Утилита сжатия : C:\Program Files\Exact Audio Copy\FLAC\FLAC.EXE
Дополнительные параметры : -V -8 -T "Genre=%genre%" -T "Artist=%artist%" -T "Title=%title%" -T "Album=%albumtitle%" -T "Date=%year%" -T "Tracknumber=%tracknr%" -T "Comment=%comment%" %source%


TOC извлечённого CD

Трек | Старт | Длительность | Начальный сектор | Конечный сектор
––––––––––––––––––––––––––––––––––-
1 | 0:00.00 | 2:56.13 | 0 | 13212
2 | 2:56.13 | 2:47.44 | 13213 | 25781
3 | 5:43.57 | 2:31.74 | 25782 | 37180
4 | 8:15.56 | 2:44.46 | 37181 | 49526
5 | 11:00.27 | 3:56.13 | 49527 | 67239
6 | 14:56.40 | 2:55.57 | 67240 | 80421
7 | 17:52.22 | 2:33.42 | 80422 | 91938
8 | 20:25.64 | 4:07.47 | 91939 | 110510
9 | 24:33.36 | 2:41.24 | 110511 | 122609
10 | 27:14.60 | 2:50.40 | 122610 | 135399
11 | 30:05.25 | 3:41.74 | 135400 | 152048
12 | 33:47.24 | 4:51.29 | 152049 | 173902
13 | 38:38.53 | 3:44.47 | 173903 | 190749
14 | 42:23.25 | 3:34.29 | 190750 | 206828
15 | 45:57.54 | 5:20.44 | 206829 | 230872
16 | 51:18.23 | 4:01.08 | 230873 | 248955
17 | 55:19.31 | 4:04.48 | 248956 | 267303
18 | 59:24.04 | 3:58.65 | 267304 | 285218
19 | 63:22.69 | 4:40.29 | 285219 | 306247
20 | 68:03.23 | 4:16.31 | 306248 | 325478
21 | 72:19.54 | 4:07.27 | 325479 | 344030
22 | 76:27.06 | 2:45.25 | 344031 | 356430


Характеристики диапазона извлечения и сообщения об ошибках

Выбранный диапазон

Имя файла I:\MOI_RAZDACI\KISS_6CD_12.album\KISS_6CD_12.album\Dressed.To.Kill_1975_Revenge_1992\KISS - Dressed To Kill and Revenge.wav

Пиковый уровень 100.0 %
Скорость извлечения 10.3 X
Качество диапазона 100.0 %
CRC теста 9C35303D
CRC копии 9C35303D
Копирование… OK

Ошибок не произошло


AccurateRip: сводка

Трек 1 : извлечено точно (доверие 2) [5A82601A] (AR v2)
Трек 2 : извлечено точно (доверие 2) [2756F700] (AR v2)
Трек 3 : извлечено точно (доверие 2) [5287A518] (AR v2)
Трек 4 : извлечено точно (доверие 2) [EEED21E3] (AR v2)
Трек 5 : извлечено точно (доверие 2) [9B16DBE0] (AR v2)
Трек 6 : извлечено точно (доверие 2) [573514F9] (AR v2)
Трек 7 : извлечено точно (доверие 2) [32790B74] (AR v2)
Трек 8 : извлечено точно (доверие 2) [B6C7B834] (AR v2)
Трек 9 : извлечено точно (доверие 2) [5CF24374] (AR v2)
Трек 10 : извлечено точно (доверие 2) [A46C59C1] (AR v2)
Трек 11 : извлечено точно (доверие 2) [B8075916] (AR v2)
Трек 12 : извлечено точно (доверие 2) [F89BB344] (AR v2)
Трек 13 : извлечено точно (доверие 2) [6F551366] (AR v2)
Трек 14 : извлечено точно (доверие 2) [3471AE04] (AR v2)
Трек 15 : извлечено точно (доверие 2) [00C057C3] (AR v2)
Трек 16 : извлечено точно (доверие 2) [51D5D5CF] (AR v2)
Трек 17 : извлечено точно (доверие 2) [AD9C11CC] (AR v2)
Трек 18 : извлечено точно (доверие 2) [CC7E8AB1] (AR v2)
Трек 19 : извлечено точно (доверие 2) [F11F8214] (AR v2)
Трек 20 : извлечено точно (доверие 2) [B8750D52] (AR v2)
Трек 21 : извлечено точно (доверие 2) [7C04C3A5] (AR v2)
Трек 22 : извлечено точно (доверие 2) [19138692] (AR v2)

Все треки извлечены точно

Конец отчёта

–– CUETools DB Plugin V2.1.6

[CTDB TOCID: ilh8lf_gIAMjBE86CO8kJLiYILs-] found
Submit result: ilh8lf_gIAMjBE86CO8kJLiYILs- has been confirmed
Track | CTDB Status
1 | (3/3) Accurately ripped
2 | (3/3) Accurately ripped
3 | (3/3) Accurately ripped
4 | (3/3) Accurately ripped
5 | (3/3) Accurately ripped
6 | (3/3) Accurately ripped
7 | (3/3) Accurately ripped
8 | (3/3) Accurately ripped
9 | (3/3) Accurately ripped
10 | (3/3) Accurately ripped
11 | (3/3) Accurately ripped
12 | (3/3) Accurately ripped
13 | (3/3) Accurately ripped
14 | (3/3) Accurately ripped
15 | (3/3) Accurately ripped
16 | (3/3) Accurately ripped
17 | (3/3) Accurately ripped
18 | (3/3) Accurately ripped
19 | (3/3) Accurately ripped
20 | (3/3) Accurately ripped
21 | (3/3) Accurately ripped
22 | (3/3) Accurately ripped


==== Контрольная сумма отчёта 6768989F9ACF8ABB15D9443C1AD820B09EF0FD300AFD0AB3A359DFDC62C7FBED ====


[CUETools log; Date: 24.06.2018 0:43:29; Version: 2.1.5]
[AccurateRip ID: 003a5149-03bc05aa-4c129016] found.
Track [ CRC | V2 ] Status
01 [1062f4de|5a82601a] (0+2/2) Accurately ripped
02 [d173399c|2756f700] (0+2/2) Accurately ripped
03 [dd1c654c|5287a518] (0+2/2) Accurately ripped
04 [0cb6a883|eeed21e3] (0+2/2) Accurately ripped
05 [d29547c1|9b16dbe0] (0+2/2) Accurately ripped
06 [a847ab9c|573514f9] (0+2/2) Accurately ripped
07 [96ae92f8|32790b74] (0+2/2) Accurately ripped
08 [e1c0df91|b6c7b834] (0+2/2) Accurately ripped
09 [bd18e0e3|5cf24374] (0+2/2) Accurately ripped
10 [4f65c9a1|a46c59c1] (0+2/2) Accurately ripped
11 [978fe761|b8075916] (0+2/2) Accurately ripped
12 [ea23e86a|f89bb344] (0+2/2) Accurately ripped
13 [f2f955ab|6f551366] (0+2/2) Accurately ripped
14 [bea21883|3471ae04] (0+2/2) Accurately ripped
15 [6a7216f0|00c057c3] (0+2/2) Accurately ripped
16 [40a6dbf1|51d5d5cf] (0+2/2) Accurately ripped
17 [c9d8aa1d|ad9c11cc] (0+2/2) Accurately ripped
18 [a65090a8|cc7e8ab1] (0+2/2) Accurately ripped
19 [dc881d0a|f11f8214] (0+2/2) Accurately ripped
20 [57ce5cf9|b8750d52] (0+2/2) Accurately ripped
21 [31d4c58a|7c04c3a5] (0+2/2) Accurately ripped
22 [6ff92e31|19138692] (0+2/2) Accurately ripped

Track Peak [ CRC32 ] [W/O NULL] [ LOG ]
– 100,0 [9C35303D] [099BB3F8] CRC32
01 100,0 [C95C472C] [23D3924D]
02 100,0 [9E7412B4] [314E3EE2]
03 95,7 [B0625BDE] [20F83770]
04 100,0 [EB3DE941] [774D6DC2]
05 100,0 [D6B6628E] [CDE04297]
06 100,0 [F20BEED6] [22627681]
07 100,0 [C33C9268] [3D52EC84]
08 100,0 [5234A9D8] [22DE4652]
09 100,0 [6DA77729] [34B60F7B]
10 100,0 [2CEC46C1] [1DCE004B]
11 99,9 [2A938199] [628D8126]
12 99,9 [4FFAD5BC] [7D827AC0]
13 99,9 [85F225EB] [2C2B3155]
14 99,9 [B0FF9B31] [21E98DD7]
15 99,9 [A9420914] [2D55EC7B]
16 99,9 [A3791B71] [C89A0DD3]
17 99,9 [255C8B7D] [91DDDA1A]
18 99,9 [5A4355B2] [192E5222]
19 99,9 [904E137A] [DBF6356F]
20 99,9 [E175E002] [DCFB55A0]
21 99,9 [098DD611] [0C36E1D7]
22 99,9 [0BFF12D9] [7DB71BB4]


Kiss - Dressed To Kill 1975 & Revenge 1992 (1999)

All thanks go to the original releaser

Kiss or Kiss in my Blog

Download Kiss - Dressed To Kill 1975 & Revenge 1992 (1999):