Kiss - Lick It Up (1983) {2013, Japanese Reissue, SHM-CD}

Posted By: popsakov
Kiss - Lick It Up (1983) {2013, Japanese Reissue, SHM-CD}

Kiss - Lick It Up (1983) {2013, Japanese Reissue, SHM-CD}
EAC Rip | FLAC (Img) + Cue + Log ~ 308 Mb | MP3 CBR320 ~ 125 Mb
Scans Included (JPG, 300 dpi) | RAR 5% Recovery
Hard Rock, Glam Metal, Heavy Metal | Mercury / Universal Music #UICY-25373

Lick It Up is the 11th studio album by American band Kiss. On the day of its 1983 release, the band members appeared on MTV without their trademark make-up. It was the first public appearance without make-up by Kiss since their very early days.

Lick It Up built upon the harder sound Kiss had displayed on 1982's Creatures of the Night. But while Creatures of the Night was a commercial disappointment for Kiss, Lick It Up sold much better. It was certified gold on December 22, 1983, the first Kiss album to achieve certification since 1980's Unmasked. This is partially attributable to the increased publicity the band received after their unmasking.

Lick It Up was certified platinum on December 19, 1990. It was placed at #10 on Guitar World's Readers Poll of the Top-10 Guitar Albums of 1983. Kerrang! listed Lick It Up #3 on its list of the best hard rock albums in 1983. The album marked a turnaround in the band's flagging fortunes during the previous several years and successfully introduced them to a new generation of fans, as well as marking the beginning of the "unmasked" era that would last for the next decade.

The Lick It Up World Tour began in October, one month after the album's release, and focused on Europe during the autumn, with the US leg taking place from December to March. This was Kiss's first North American tour since 1978 to witness a significant resurgence in popularity and concert attendance.

The title track "Lick It Up" remains a staple of the ensemble's live performances, having been played over 1,300 times as of August 2015; however, the rest of the album is rarely played live.
~ Wiki

***************

Kiss - Lick It Up (1983) {2013, Japanese Reissue, SHM-CD}

Kiss - Lick It Up (1983) {2013, Japanese Reissue, SHM-CD}

Kiss - Lick It Up (1983) {2013, Japanese Reissue, SHM-CD}

Track List:

01. Exciter [4:12]
02. Not For The Innocent [4:24]
03. Lick It Up [3:57]
04. Young And Wasted [4:06]
05. Gimme More [3:44]
06. All Hell's Breakin' Loose [4:34]
07. A Million To One [4:11]
08. Fits Like A Glove [4:04]
09. Dance All Over Your Face [4:16]
10. And On The 8th Day [4:03]

Personnel:
Paul Stanley - rhythm guitar, lead vocals
Gene Simmons - bass guitar, lead vocals
Eric Carr - drums, percussion, backing vocals
Vinnie Vincent - lead guitar, backing vocals additional vocals on "Lick it up" and "And on the 8th Day"

Additional musician:
Rick Derringer - lead guitar on "Exciter"

Exact Audio Copy V1.3 from 2. September 2016

EAC extraction logfile from 6. August 2017, 14:37

Kiss / Lick It Up (UICY-25373)

Used drive : TSSTcorpCDDVDW SH-224GB Adapter: 1 ID: 0

Read mode : Secure
Utilize accurate stream : Yes
Defeat audio cache : Yes
Make use of C2 pointers : No

Read offset correction : 6
Overread into Lead-In and Lead-Out : No
Fill up missing offset samples with silence : Yes
Delete leading and trailing silent blocks : No
Null samples used in CRC calculations : Yes
Used interface : Native Win32 interface for Win NT & 2000

Used output format : User Defined Encoder
Selected bitrate : 128 kBit/s
Quality : High
Add ID3 tag : No
Command line compressor : C:\Program Files (x86)\Exact Audio Copy\FLAC\FLAC.EXE
Additional command line options : -V -8 -T "Date=%year%" -T "Genre=%genre%" %source%


TOC of the extracted CD

Track | Start | Length | Start sector | End sector
––––––––––––––––––––––––––––-
1 | 0:00.00 | 4:12.17 | 0 | 18916
2 | 4:12.17 | 4:23.40 | 18917 | 38681
3 | 8:35.57 | 3:56.70 | 38682 | 56451
4 | 12:32.52 | 4:05.58 | 56452 | 74884
5 | 16:38.35 | 3:44.32 | 74885 | 91716
6 | 20:22.67 | 4:34.00 | 91717 | 112266
7 | 24:56.67 | 4:11.20 | 112267 | 131111
8 | 29:08.12 | 4:04.23 | 131112 | 149434
9 | 33:12.35 | 4:16.22 | 149435 | 168656
10 | 37:28.57 | 4:02.70 | 168657 | 186876


Range status and errors

Selected range

Filename G:\ЕАС\rwa12\Kiss - Lick It Up (UICY-25373).wav

Peak level 99.1 %
Extraction speed 2.7 X
Range quality 100.0 %
Test CRC B6BBBD65
Copy CRC B6BBBD65
Copy OK

No errors occurred


AccurateRip summary

Track 1 accurately ripped (confidence 9) [F0DF2AB2] (AR v2)
Track 2 accurately ripped (confidence 9) [29C6C1FF] (AR v2)
Track 3 accurately ripped (confidence 10) [BAB71DA5] (AR v2)
Track 4 accurately ripped (confidence 9) [04F41F74] (AR v2)
Track 5 accurately ripped (confidence 9) [A768D8C7] (AR v2)
Track 6 accurately ripped (confidence 10) [1A2BE7DA] (AR v2)
Track 7 accurately ripped (confidence 9) [1660A47D] (AR v2)
Track 8 accurately ripped (confidence 9) [A07CB070] (AR v2)
Track 9 accurately ripped (confidence 9) [AA0C216E] (AR v2)
Track 10 accurately ripped (confidence 9) [EDDFF392] (AR v2)

All tracks accurately ripped

End of status report

–– CUETools DB Plugin V2.1.6

[CTDB TOCID: rjPAVtOC1HHq5pMarnm24WmUT6g-] found
Submit result: rjPAVtOC1HHq5pMarnm24WmUT6g- has been confirmed
Track | CTDB Status
1 | (11/11) Accurately ripped
2 | (11/11) Accurately ripped
3 | (11/11) Accurately ripped
4 | (11/11) Accurately ripped
5 | (11/11) Accurately ripped
6 | (11/11) Accurately ripped
7 | (11/11) Accurately ripped
8 | (11/11) Accurately ripped
9 | (11/11) Accurately ripped
10 | (11/11) Accurately ripped


==== Log checksum 9941D647CC9A46022D25F2F4B4DBA29452AED74A9471F7F062C91AA96B69EFAC ====

foobar2000 1.2.6 / Dynamic Range Meter 1.1.1
log date: 2017-08-08 12:06:04

––––––––––––––––––––––––––––––––––––––––
Analyzed: Kiss / Lick It Up (UICY-25373)
––––––––––––––––––––––––––––––––––––––––

DR Peak RMS Duration Track
––––––––––––––––––––––––––––––––––––––––
DR11 -2.57 dB -15.16 dB 4:12 01-Exciter
DR11 -0.77 dB -15.36 dB 4:24 02-Not For The Innocent
DR12 -1.18 dB -15.49 dB 3:57 03-Lick It Up
DR12 -1.64 dB -16.09 dB 4:06 04-Young And Wasted
DR11 -2.15 dB -15.18 dB 3:44 05-Gimme More
DR14 -0.07 dB -16.54 dB 4:34 06-All Hell's Breakin' Loose
DR12 -1.52 dB -15.87 dB 4:11 07-A Million To One
DR11 -1.52 dB -14.81 dB 4:04 08-Fits Like A Glove
DR13 -0.62 dB -16.94 dB 4:16 09-Dance All Over Your Face
DR13 -1.76 dB -17.11 dB 4:03 10-And On The 8th Day
––––––––––––––––––––––––––––––––––––––––

Number of tracks: 10
Official DR value: DR12

Samplerate: 44100 Hz
Channels: 2
Bits per sample: 16
Bitrate: 906 kbps
Codec: FLAC
================================================================================

[CUETools log; Date: 08.08.2017 12:06:03; Version: 2.1.5]
[CTDB TOCID: rjPAVtOC1HHq5pMarnm24WmUT6g-] found.
Track | CTDB Status
1 | (12/12) Accurately ripped
2 | (12/12) Accurately ripped
3 | (12/12) Accurately ripped
4 | (12/12) Accurately ripped
5 | (12/12) Accurately ripped
6 | (12/12) Accurately ripped
7 | (12/12) Accurately ripped
8 | (12/12) Accurately ripped
9 | (12/12) Accurately ripped
10 | (12/12) Accurately ripped
[AccurateRip ID: 000fb389-007d8609-7709bb0a] found.
Track [ CRC | V2 ] Status
01 [dac25044|f0df2ab2] (04+09/13) Accurately ripped
02 [3f2c125f|29c6c1ff] (04+09/13) Accurately ripped
03 [d5150138|bab71da5] (04+10/14) Accurately ripped
04 [cd87b7bb|04f41f74] (04+09/13) Accurately ripped
05 [1261791b|a768d8c7] (04+09/13) Accurately ripped
06 [66ce70ef|1a2be7da] (04+10/14) Accurately ripped
07 [5aa9c65e|1660a47d] (04+09/13) Accurately ripped
08 [8054f5cc|a07cb070] (04+09/13) Accurately ripped
09 [9964856b|aa0c216e] (04+09/13) Accurately ripped
10 [cc19f757|eddff392] (04+09/13) Accurately ripped

Track Peak [ CRC32 ] [W/O NULL] [ LOG ]
– 99,1 [B6BBBD65] [A09B2426] CRC32
01 74,4 [54399AC8] [2BDF8CDA]
02 91,5 [9240154F] [BA782B72]
03 87,3 [CBF5DAE9] [20684947]
04 82,7 [734716A3] [3250FCD9]
05 78,1 [0C7B96A3] [CD918F86]
06 99,1 [F9AF1752] [CBC60749]
07 83,9 [F90063D0] [17308ECB]
08 83,9 [7DDB8E40] [DC2BA5ED]
09 93,0 [E0FC6A5C] [BD0FC16A]
10 81,6 [B6FF8D92] [D82EABFC]

Kiss - Lick It Up (1983) {2013, Japanese Reissue, SHM-CD}

All thanks go to rwa12

>>> Kiss in my Blog <<<

Download from icerbox.com: