Subcategories

Klaus Mertens, Hamburger Ratsmusik, Simone Eckert - Dresden 1652: Werke von Christoph Bernhard und Christian Herwich (2005)

Posted By: tirexiss
Klaus Mertens, Hamburger Ratsmusik, Simone Eckert - Dresden 1652: Werke von Christoph Bernhard und Christian Herwich (2005)

Klaus Mertens, Hamburger Ratsmusik, Simone Eckert - Dresden 1652: Werke von Christoph Bernhard und Christian Herwich (2005)
EAC | FLAC (image+.cue, log) | Covers Included | 64:20 | 276 MB
Genre: Classical, Vocal | Label: New Classical Adventure | Catalog: 60147

Die Hamburger Ratsmusik: ein Ensemble mit 500-jähriger Geschichte. Dieser Gegensatz reizt zum kreativen Dialog zwischen Tradition und Gegenwart, von Alter Musik und lebendiger Interpretation. Die Anfänge der Hamburger Ratsmusik reichen zurück bis ins 16. Jahrhundert. Nach dem Grundsatz „Gott zu Ehren und Hamburg zur Lust, Ergötzlichkeit und Nutz“ leistete sich die Stadt ein Eliteensemble von acht Ratsmusikern, das vielen fürstlichen Hofkapellen Konkurrenz machen konnte. Seine erste Blüte erreichte das Ensemble im 17. und 18. Jahrhundert unter führenden Musikern wie William Brade, Johann Schop, Georg Philipp Telemann und Carl Philipp Emanuel Bach. Wiederauferweckt 1991 von der Gambistin Simone Eckert hat das Ensemble in nun mehr als fünfzehnjähriger Zusammenarbeit mit Hingabe und Enthusiasmus ein umfangreiches und außergewöhnliches Repertoire erarbeitet. Für die Musiker ist die Musik ihrer Vorgänger durch ihre enge Anlehnung an Rhetorik und durch nuancenreiche Artikulation so „beredt“, so nah an der menschlichen Sprache wie keine andere. Durch ihre klaren Strukturen und die vielfältigen Rhythmen, entlehnt aus jahrhundertealten Tänzen, entwickelt die Musik des 16. bis 18. Jahrhunderts ihren eigenen Swing. Auch lockt immer wieder das Abenteuer der Neuentdeckung unbekannter alter Musik, die in Europas Bibliotheken schlummert. Diese Schätze wiederzubeleben ist eine spannende Zielsetzung. In Konzerten, Rundfunk- und CD-Einspielungen und in Editionen für internationale Verlage präsentieren die Ratsmusiker ihre Entdeckungen dem Publikum. Das Ensemble konzertiert heute auf den wichtigen Festivals in Deutschland, darunter die Göttinger Händelfestspiele, die Barockfestspiele Bad Arolsen, die HändelFestspiele.

Klaus Mertens, Hamburger Ratsmusik, Simone Eckert - Dresden 1652: Werke von Christoph Bernhard und Christian Herwich (2005)

Track List:

Christoph Bernhard (1627-1692)
[1] Da du wolltest von mir ziehn
[2] Gleich wie ein junger Hirsch

Christian Herwich (1609-1663)
[3] Sonata 'La Chilana'

Christoph Bernhard
[4] Die sterbenden Lilien
[5] Die Lieb ist wie der Tod
[6] Suite in D minor - Allemande & Variatio
[7] Suite in D minor - Courante & Variatio
[8] Suite in D minor - Sarabande & Double
[9] Susser Christ
[10] Rex Jesu admirabilis

Christian Herwich
[11] Ruggiero

Christoph Bernhard
[12] Leb ich oder leb ich nicht
[13] Gute Nacht! Du eitles Leben

Christian Herwich
[14] Prelude
[15] Allemande
[16] Courante

Christoph Bernhard
[17] Ich bin gewiss

Christian Herwich
[18] Allemande
[19] Courante

Christoph Bernhard
[20] Herr, der du die Sternebogen
[21] Ach, wie entgeistert sich mein Geist

Christian Herwich
[22] Derde

Christoph Bernhard
[23] Gott ist mein Schild
[24] Mein Jesus! Meine Lust!
[25] Allein nach dir

Christian Herwich
[26] Aria in G

Christoph Bernhard
[27] Der Tag ist hin

Performers:
Klaus Mertens, bass-baritone
Hamburger Ratsmusik
Simone Eckert, leader

Exact Audio Copy V1.1 from 23. June 2015

EAC extraction logfile from 8. May 2016, 17:10

Klaus Mertens, Hamburger Ratsmusik, Simone Eckert / Dresden 1652

Used drive : HL-DT-STDVDRAM GU70N Adapter: 1 ID: 0

Read mode : Secure
Utilize accurate stream : Yes
Defeat audio cache : Yes
Make use of C2 pointers : No

Read offset correction : 48
Overread into Lead-In and Lead-Out : No
Fill up missing offset samples with silence : Yes
Delete leading and trailing silent blocks : No
Null samples used in CRC calculations : Yes
Used interface : Native Win32 interface for Win NT & 2000

Used output format : User Defined Encoder
Selected bitrate : 128 kBit/s
Quality : High
Add ID3 tag : No
Command line compressor : C:\Program Files (x86)\Exact Audio Copy\Flac\flac.exe
Additional command line options : -V -8 -T "Date=%year%" -T "Genre=%genre%" %source%


TOC of the extracted CD

Track | Start | Length | Start sector | End sector
––––––––––––––––––––––––––––-
1 | 0:00.00 | 3:01.62 | 0 | 13636
2 | 3:01.62 | 3:12.38 | 13637 | 28074
3 | 6:14.25 | 5:23.25 | 28075 | 52324
4 | 11:37.50 | 3:01.32 | 52325 | 65931
5 | 14:39.07 | 2:35.71 | 65932 | 77627
6 | 17:15.03 | 2:11.70 | 77628 | 87522
7 | 19:26.73 | 1:20.04 | 87523 | 93526
8 | 20:47.02 | 1:00.03 | 93527 | 98029
9 | 21:47.05 | 2:14.73 | 98030 | 108152
10 | 24:02.03 | 2:13.25 | 108153 | 118152
11 | 26:15.28 | 3:37.11 | 118153 | 134438
12 | 29:52.39 | 2:01.48 | 134439 | 143561
13 | 31:54.12 | 3:02.51 | 143562 | 157262
14 | 34:56.63 | 1:15.25 | 157263 | 162912
15 | 36:12.13 | 1:53.61 | 162913 | 171448
16 | 38:05.74 | 1:11.62 | 171449 | 176835
17 | 39:17.61 | 2:09.02 | 176836 | 186512
18 | 41:26.63 | 1:55.18 | 186513 | 195155
19 | 43:22.06 | 1:03.04 | 195156 | 199884
20 | 44:25.10 | 2:21.36 | 199885 | 210495
21 | 46:46.46 | 2:12.09 | 210496 | 220404
22 | 48:58.55 | 1:29.67 | 220405 | 227146
23 | 50:28.47 | 2:08.73 | 227147 | 236819
24 | 52:37.45 | 2:04.06 | 236820 | 246125
25 | 54:41.51 | 3:51.57 | 246126 | 263507
26 | 58:33.33 | 3:52.67 | 263508 | 280974
27 | 62:26.25 | 1:51.28 | 280975 | 289327


Range status and errors

Selected range

Filename C:\temp\Dresden 1652\Dresden 1652.wav

Peak level 92.5 %
Extraction speed 2.1 X
Range quality 100.0 %
Test CRC D9804349
Copy CRC D9804349
Copy OK

No errors occurred


AccurateRip summary

Track 1 accurately ripped (confidence 4) [9DBD75F4] (AR v2)
Track 2 accurately ripped (confidence 4) [6649B048] (AR v2)
Track 3 accurately ripped (confidence 4) [627D6461] (AR v2)
Track 4 accurately ripped (confidence 4) [8DF7517F] (AR v2)
Track 5 accurately ripped (confidence 4) [EA350522] (AR v2)
Track 6 accurately ripped (confidence 4) [0BFFB8E0] (AR v2)
Track 7 accurately ripped (confidence 4) [C132028F] (AR v2)
Track 8 accurately ripped (confidence 4) [F8FD0CC2] (AR v2)
Track 9 accurately ripped (confidence 4) [F08971D0] (AR v2)
Track 10 accurately ripped (confidence 4) [288CB0C0] (AR v2)
Track 11 accurately ripped (confidence 4) [3FBC01BF] (AR v2)
Track 12 accurately ripped (confidence 4) [95C0D7BC] (AR v2)
Track 13 accurately ripped (confidence 4) [6F239CB0] (AR v2)
Track 14 accurately ripped (confidence 4) [DE19552C] (AR v2)
Track 15 accurately ripped (confidence 4) [725DEC5E] (AR v2)
Track 16 accurately ripped (confidence 4) [86F307D3] (AR v2)
Track 17 accurately ripped (confidence 4) [83CD7621] (AR v2)
Track 18 accurately ripped (confidence 4) [32069FE4] (AR v2)
Track 19 accurately ripped (confidence 4) [3741A267] (AR v2)
Track 20 accurately ripped (confidence 4) [C8591CB6] (AR v2)
Track 21 accurately ripped (confidence 4) [3970F3F4] (AR v2)
Track 22 accurately ripped (confidence 4) [EC25595A] (AR v2)
Track 23 accurately ripped (confidence 4) [2FA9CF2C] (AR v2)
Track 24 accurately ripped (confidence 4) [66AF2796] (AR v2)
Track 25 accurately ripped (confidence 4) [FBAE7533] (AR v2)
Track 26 accurately ripped (confidence 4) [D3039D7A] (AR v2)
Track 27 accurately ripped (confidence 4) [15D491D9] (AR v2)

All tracks accurately ripped

End of status report

==== Log checksum 006B999EC73B4DD8AE777F5F0F2CB1F2AF64352B9A71A867F221753B87DC1160 ====

[CUETools log; Date: 23.11.2017 17:23:43; Version: 2.1.5]
[CTDB TOCID: KR9Ec_itUBICo6.nzsIWcU7Ajpo-] found.
Track | CTDB Status
1 | (5/5) Accurately ripped
2 | (5/5) Accurately ripped
3 | (5/5) Accurately ripped
4 | (5/5) Accurately ripped
5 | (5/5) Accurately ripped
6 | (5/5) Accurately ripped
7 | (5/5) Accurately ripped
8 | (5/5) Accurately ripped
9 | (5/5) Accurately ripped
10 | (5/5) Accurately ripped
11 | (5/5) Accurately ripped
12 | (5/5) Accurately ripped
13 | (5/5) Accurately ripped
14 | (5/5) Accurately ripped
15 | (5/5) Accurately ripped
16 | (5/5) Accurately ripped
17 | (5/5) Accurately ripped
18 | (5/5) Accurately ripped
19 | (5/5) Accurately ripped
20 | (5/5) Accurately ripped
21 | (5/5) Accurately ripped
22 | (5/5) Accurately ripped
23 | (5/5) Accurately ripped
24 | (5/5) Accurately ripped
25 | (5/5) Accurately ripped
26 | (5/5) Accurately ripped
27 | (5/5) Accurately ripped
[AccurateRip ID: 0040c92c-04bdcacf-b20f111b] found.
Track [ CRC | V2 ] Status
01 [23f51773|9dbd75f4] (0+7/7) Accurately ripped
02 [ba644542|6649b048] (0+7/7) Accurately ripped
03 [6819e3a0|627d6461] (0+7/7) Accurately ripped
04 [6115e76f|8df7517f] (0+7/7) Accurately ripped
05 [23875d87|ea350522] (0+7/7) Accurately ripped
06 [49d83da1|0bffb8e0] (0+7/7) Accurately ripped
07 [ee5cae68|c132028f] (0+7/7) Accurately ripped
08 [69bb6bdb|f8fd0cc2] (0+7/7) Accurately ripped
09 [d2132545|f08971d0] (0+7/7) Accurately ripped
10 [2404458b|288cb0c0] (0+7/7) Accurately ripped
11 [7ce385d0|3fbc01bf] (0+7/7) Accurately ripped
12 [d0ae83a6|95c0d7bc] (0+7/7) Accurately ripped
13 [0e60f4f4|6f239cb0] (0+7/7) Accurately ripped
14 [cb3cd273|de19552c] (0+7/7) Accurately ripped
15 [586d18b7|725dec5e] (0+7/7) Accurately ripped
16 [00d0a783|86f307d3] (0+7/7) Accurately ripped
17 [f6274c93|83cd7621] (0+7/7) Accurately ripped
18 [cffe0bab|32069fe4] (0+7/7) Accurately ripped
19 [d16fa05f|3741a267] (0+7/7) Accurately ripped
20 [bb8b57f0|c8591cb6] (0+7/7) Accurately ripped
21 [43d57d2b|3970f3f4] (0+7/7) Accurately ripped
22 [3d3a5d91|ec25595a] (0+7/7) Accurately ripped
23 [eaefb93b|2fa9cf2c] (0+7/7) Accurately ripped
24 [b4557ef3|66af2796] (0+7/7) Accurately ripped
25 [4963812f|fbae7533] (0+7/7) Accurately ripped
26 [ce86f4b3|d3039d7a] (0+7/7) Accurately ripped
27 [b59d6eac|15d491d9] (0+7/7) Accurately ripped

Track Peak [ CRC32 ] [W/O NULL] [ LOG ]
– 92,5 [D9804349] [6E9DC3A6] CRC32
01 61,8 [06A798C4] [204EE36C]
02 73,8 [0CC2C154] [84BE4D6B]
03 52,0 [205AD244] [0A852017]
04 64,9 [46C3E1E1] [480754B3]
05 57,2 [195F93D9] [B4BC7DE2]
06 54,8 [725B3DE5] [CCFF1B02]
07 32,1 [FD10F44F] [094778E5]
08 38,0 [15249D7A] [6371E2C3]
09 47,5 [6E15F671] [522C6DCD]
10 64,1 [D49678EB] [3728776C]
11 33,6 [84AAD8AA] [136B1027]
12 85,8 [1D28D2D0] [3E6AE39B]
13 64,4 [A245EDC7] [5EA4ACC3]
14 16,9 [72529142] [D2381ABA]
15 13,2 [9CC137A0] [997CC026]
16 12,2 [55E68449] [923EBD45]
17 69,7 [DB25BB8D] [CAB037FB]
18 17,4 [F603A377] [2C2A0A18]
19 13,0 [B9F1B9E3] [C6F2711E]
20 67,0 [D0DD8690] [E1E9E414]
21 75,1 [B33D4EAA] [E070B317]
22 29,3 [98CFB792] [EEBC4AF4]
23 79,6 [9D055759] [07F2FE83]
24 92,5 [F545A65A] [7EF6CD68]
25 80,3 [1533798D] [784026B2]
26 48,8 [EF1441C7] [66668E6D]
27 51,5 [4AF271D3] [B81C5CE4]

Thanks to the Original ripper A-Z!

Download: