Subcategories

Klaus Schulze & Pete Namlook - The Dark Side Of The Moog Vol. 9-11 (2016) {5CD Box Set, Limited Edition}

Posted By: popsakov
Klaus Schulze & Pete Namlook - The Dark Side Of The Moog Vol. 9-11 (2016) {5CD Box Set, Limited Edition}

Klaus Schulze & Pete Namlook - The Dark Side Of The Moog Vol. 9-11 (2016) {5CD Box Set, Limited Edition}
EAC Rip | FLAC (Img) + Cue + Log ~ 1,86 Gb | MP3 CBR320 ~ 559 Mb
Full Scans ~ 24 Mb | 04:48:42 | RAR 5% Recovery
Electronic, Ambient, Trance, Techno | MIG-Music #MIG 01402 5CD

Complex re-release of the most remarkable and worldwide sought after series The Dark Side Of The Moog by German electronic pioneers Klaus Schulze and Pete Namlook (aka Peter Kuhlmann) in three slip lid boxsets, each with 5 CDs, incl. bonus material and new linernotes. The third box contains Vol. 9 to Vol. 11 and two bonus CDs. The relationship between Klaus and Pete and the exchange of ideas was unorthodox from the beginning of their co-operation, in that they rarely met personally. The most remarkable contacts they had were outside of their studios, for instance their concert of April 1999 at the Jazz Festival in Hamburg , which was released as an edited version on 'Dark Side Of The Moog, Vol.8' (will be released in the second Boxset) - the interplay and chemistry between them is clearly evident, and it becomes even clearer on the un-edited version of the concert (which will be released as bonus CS on the third boxset). The influence Namlook had on Klaus's music in the middle of the nineties should not be taken lightly, because although Klaus dearly loved those early-analogue elements from his own music, they had become, to an extent, lost. It was Pete who fortified him to go back to the analogue charm of his early albums and it was Pete who supported him in the modification of his analogue instruments, leading finally to the epoch-making Schulze album from 1996 - Are You Sequenced?. And so a legendary series of recordings was born. 'Dark Side Of The Moog' grew more or less unplanned to a sprawling, stately-sized series of eleven volumes recorded between 1994 and 2008, only ending with the early, tragic death of Pete on November 8th 2012.
Klaus Schulze & Pete Namlook - The Dark Side Of The Moog Vol. 9-11 (2016) {5CD Box Set, Limited Edition}


***************

Klaus Schulze & Pete Namlook - The Dark Side Of The Moog Vol. 9-11 (2016) {5CD Box Set, Limited Edition}

Klaus Schulze & Pete Namlook - The Dark Side Of The Moog Vol. 9-11 (2016) {5CD Box Set, Limited Edition}

Track List Vol. 09 - Set The Control For The Heart Of The Mother:

01. Set The Control For The Heart Of The Mother. Part I [19:28]
02. Set The Control For The Heart Of The Mother. Part II [04:28]
03. Set The Control For The Heart Of The Mother. Part III [12:18]
04. Set The Control For The Heart Of The Mother. Part IV [01:30]
05. Set The Control For The Heart Of The Mother. Part V [11:43]
06. Set The Control For The Heart Of The Mother. Part VI [05:08]

Exact Audio Copy V1.1 from 23. June 2015

EAC extraction logfile from 2. July 2016, 18:00

Pete Namlook & Klaus Schulze / Dark Side of the Moog IX

Used drive : PIONEER BD-RW BDR-209D Adapter: 0 ID: 5

Read mode : Secure
Utilize accurate stream : Yes
Defeat audio cache : Yes
Make use of C2 pointers : No

Read offset correction : 667
Overread into Lead-In and Lead-Out : No
Fill up missing offset samples with silence : Yes
Delete leading and trailing silent blocks : No
Null samples used in CRC calculations : Yes
Used interface : Installed external ASPI interface

Used output format : User Defined Encoder
Selected bitrate : 768 kBit/s
Quality : High
Add ID3 tag : No
Command line compressor : C:\Program Files (x86)\Exact Audio Copy\FLAC\FLAC.EXE
Additional command line options : -6 -V -T "ARTIST=%artist%" -T "TITLE=%title%" -T "ALBUM=%albumtitle%" -T "DATE=%year%" -T "TRACKNUMBER=%tracknr%" -T "GENRE=%genre%" -T "COMMENT=%comment%" -T "BAND=%albuminterpret%" -T "ALBUMARTIST=%albuminterpret%" -T "COMPOSER=%composer%" %haslyrics%–tag-from-file=LYRICS="%lyricsfile%"%haslyrics% -T "DISCNUMBER=%cdnumber%" -T "TOTALDISCS=%totalcds%" -T "TOTALTRACKS=%numtracks%" %hascover%–picture="%coverfile%"%hascover% %source% -o %dest%


TOC of the extracted CD

Track | Start | Length | Start sector | End sector
––––––––––––––––––––––––––––-
1 | 0:00.00 | 19:27.65 | 0 | 87589
2 | 19:27.65 | 4:27.15 | 87590 | 107629
3 | 23:55.05 | 12:17.62 | 107630 | 162966
4 | 36:12.67 | 1:29.61 | 162967 | 169702
5 | 37:42.53 | 11:42.03 | 169703 | 222355
6 | 49:24.56 | 5:07.41 | 222356 | 245421


Range status and errors

Selected range

Filename E:\MUSIC\Pete Namlook & Klaus Schulze - Dark Side of the Moog IX.wav

Peak level 98.5 %
Extraction speed 7.9 X
Range quality 100.0 %
Test CRC 92AEFB77
Copy CRC 92AEFB77
Copy OK

No errors occurred


AccurateRip summary

Track 1 not present in database
Track 2 not present in database
Track 3 not present in database
Track 4 not present in database
Track 5 not present in database
Track 6 not present in database

None of the tracks are present in the AccurateRip database

End of status report

==== Log checksum CEE7F96FCFBAC5E476AB9F88EF3E71982623E5EE1F39C56D270D2E48172EF0F1 ====

Klaus Schulze & Pete Namlook - The Dark Side Of The Moog Vol. 9-11 (2016) {5CD Box Set, Limited Edition}

Klaus Schulze & Pete Namlook - The Dark Side Of The Moog Vol. 9-11 (2016) {5CD Box Set, Limited Edition}

Track List Vol. 10 - Astro Know Me Domina:

01. Astro Know Me Domina - Part I [16:53]
02. Astro Know Me Domina - Part II [03:24]
03. Astro Know Me Domina - Part III [04:06]
04. Astro Know Me Domina - Part IV [11:51]
05. Astro Know Me Domina - Part V [08:58]
06. Astro Know Me Domina - Part VI [05:10]

Exact Audio Copy V1.1 from 23. June 2015

EAC extraction logfile from 2. July 2016, 19:05

Pete Namlook & Klaus Schulze / Dark Side of the Moog 10

Used drive : PIONEER BD-RW BDR-209D Adapter: 0 ID: 5

Read mode : Secure
Utilize accurate stream : Yes
Defeat audio cache : Yes
Make use of C2 pointers : No

Read offset correction : 667
Overread into Lead-In and Lead-Out : No
Fill up missing offset samples with silence : Yes
Delete leading and trailing silent blocks : No
Null samples used in CRC calculations : Yes
Used interface : Installed external ASPI interface

Used output format : User Defined Encoder
Selected bitrate : 768 kBit/s
Quality : High
Add ID3 tag : No
Command line compressor : C:\Program Files (x86)\Exact Audio Copy\FLAC\FLAC.EXE
Additional command line options : -6 -V -T "ARTIST=%artist%" -T "TITLE=%title%" -T "ALBUM=%albumtitle%" -T "DATE=%year%" -T "TRACKNUMBER=%tracknr%" -T "GENRE=%genre%" -T "COMMENT=%comment%" -T "BAND=%albuminterpret%" -T "ALBUMARTIST=%albuminterpret%" -T "COMPOSER=%composer%" %haslyrics%–tag-from-file=LYRICS="%lyricsfile%"%haslyrics% -T "DISCNUMBER=%cdnumber%" -T "TOTALDISCS=%totalcds%" -T "TOTALTRACKS=%numtracks%" %hascover%–picture="%coverfile%"%hascover% %source% -o %dest%


TOC of the extracted CD

Track | Start | Length | Start sector | End sector
––––––––––––––––––––––––––––-
1 | 0:00.00 | 16:52.23 | 0 | 75922
2 | 16:52.23 | 3:23.09 | 75923 | 91156
3 | 20:15.32 | 4:05.48 | 91157 | 109579
4 | 24:21.05 | 11:50.68 | 109580 | 162897
5 | 36:11.73 | 8:57.32 | 162898 | 203204
6 | 45:09.30 | 5:09.22 | 203205 | 226401


Range status and errors

Selected range

Filename E:\MUSIC\Pete Namlook & Klaus Schulze - Dark Side of the Moog 10.wav

Peak level 100.0 %
Extraction speed 7.7 X
Range quality 100.0 %
Test CRC 4F5C6A05
Copy CRC 4F5C6A05
Copy OK

No errors occurred


AccurateRip summary

Track 1 not present in database
Track 2 not present in database
Track 3 not present in database
Track 4 not present in database
Track 5 not present in database
Track 6 not present in database

None of the tracks are present in the AccurateRip database

End of status report

==== Log checksum 3B7822A5C92A6C28EF0FF0E2FEE938AE1E7AEE415F178AB3E33C1C4C33665882 ====

Klaus Schulze & Pete Namlook - The Dark Side Of The Moog Vol. 9-11 (2016) {5CD Box Set, Limited Edition}

Klaus Schulze & Pete Namlook - The Dark Side Of The Moog Vol. 9-11 (2016) {5CD Box Set, Limited Edition}

Track List Vol. 11 - The Heart Of Our Nearest Star:

01. The Heart Of Our Nearest Star Part I [17:41]
02. The Heart Of Our Nearest Star Part II [21:58]
03. The Heart Of Our Nearest Star Part III [11:11]
04. The Heart Of Our Nearest Star Part IV [05:21]

Exact Audio Copy V1.0 beta 3 from 29. August 2011

EAC extraction logfile from 2. July 2016, 20:14

Pete Namlook + Klaus Schulze / The Dark Side Of The Moog Vol.11

Used drive : MATSHITABD-CMB UJ242AS Adapter: 0 ID: 1

Read mode : Secure
Utilize accurate stream : Yes
Defeat audio cache : Yes
Make use of C2 pointers : No

Read offset correction : 103
Overread into Lead-In and Lead-Out : No
Fill up missing offset samples with silence : Yes
Delete leading and trailing silent blocks : No
Null samples used in CRC calculations : Yes
Used interface : Installed external ASPI interface

Used output format : User Defined Encoder
Selected bitrate : 1024 kBit/s
Quality : High
Add ID3 tag : Yes
Command line compressor : C:\Program Files (x86)\Exact Audio Copy\Flac\flac.exe
Additional command line options : -V -8 -T "Date=%year%" -T "Genre=%genre%" %source%


TOC of the extracted CD

Track | Start | Length | Start sector | End sector
––––––––––––––––––––––––––––-
1 | 0:00.00 | 17:40.20 | 0 | 79519
2 | 17:40.20 | 21:57.74 | 79520 | 178368
3 | 39:38.19 | 11:10.30 | 178369 | 228648
4 | 50:48.49 | 5:20.25 | 228649 | 252673


Range status and errors

Selected range

Filename C:\EACrip\Pete Namlook + Klaus Schulze - The Dark Side Of The Moog Vol.11.wav

Peak level 98.8 %
Extraction speed 4.3 X
Range quality 99.9 %
Test CRC 70425D48
Copy CRC 70425D48
Copy OK

No errors occurred


AccurateRip summary

Track 1 not present in database
Track 2 not present in database
Track 3 not present in database
Track 4 not present in database

None of the tracks are present in the AccurateRip database

End of status report

==== Log checksum 6258007DEED40C60F23744C938D70F45B9862B90B2E38D7D7DB7F3242602725E ====

Klaus Schulze & Pete Namlook - The Dark Side Of The Moog Vol. 9-11 (2016) {5CD Box Set, Limited Edition}

Track List Vol. 11 - The Heart Of Our Nearest Star (DTS 5.1):

01. The Heart Of Our Nearest Star, Part I [18:19]
02. The Heart Of Our Nearest Star, Part II [22:07]
03. The Heart Of Our Nearest Star, Part III [16:31]

Exact Audio Copy V1.1 from 23. June 2015

EAC extraction logfile from 2. July 2016, 20:07

Klaus Schulze & Pete Namlook / The Dark Side Of The Moog 11 DTS

Used drive : PIONEER BD-RW BDR-209D Adapter: 0 ID: 5

Read mode : Secure
Utilize accurate stream : Yes
Defeat audio cache : Yes
Make use of C2 pointers : No

Read offset correction : 667
Overread into Lead-In and Lead-Out : No
Fill up missing offset samples with silence : Yes
Delete leading and trailing silent blocks : No
Null samples used in CRC calculations : Yes
Used interface : Installed external ASPI interface

Used output format : User Defined Encoder
Selected bitrate : 768 kBit/s
Quality : High
Add ID3 tag : No
Command line compressor : C:\Program Files (x86)\Exact Audio Copy\FLAC\FLAC.EXE
Additional command line options : -6 -V -T "ARTIST=%artist%" -T "TITLE=%title%" -T "ALBUM=%albumtitle%" -T "DATE=%year%" -T "TRACKNUMBER=%tracknr%" -T "GENRE=%genre%" -T "COMMENT=%comment%" -T "BAND=%albuminterpret%" -T "ALBUMARTIST=%albuminterpret%" -T "COMPOSER=%composer%" %haslyrics%–tag-from-file=LYRICS="%lyricsfile%"%haslyrics% -T "DISCNUMBER=%cdnumber%" -T "TOTALDISCS=%totalcds%" -T "TOTALTRACKS=%numtracks%" %hascover%–picture="%coverfile%"%hascover% %source% -o %dest%


TOC of the extracted CD

Track | Start | Length | Start sector | End sector
––––––––––––––––––––––––––––-
1 | 0:00.00 | 18:18.50 | 0 | 82399
2 | 18:18.50 | 22:06.25 | 82400 | 181874
3 | 40:25.00 | 16:30.56 | 181875 | 256180


Range status and errors

Selected range

Filename E:\MUSIC\Klaus Schulze & Pete Namlook - The Dark Side Of The Moog 11 DTS.wav

Peak level 25.0 %
Extraction speed 7.9 X
Range quality 100.0 %
Test CRC 5DCEA095
Copy CRC 5DCEA095
Copy OK

No errors occurred


AccurateRip summary

Track 1 not present in database
Track 2 not present in database
Track 3 not present in database

None of the tracks are present in the AccurateRip database

End of status report

==== Log checksum D7EA1AC7AD2A5898FE2AB64C359D20FDE169B47D44B502E0BC778B304B99F95D ====

Klaus Schulze & Pete Namlook - The Dark Side Of The Moog Vol. 9-11 (2016) {5CD Box Set, Limited Edition}

Klaus Schulze & Pete Namlook - The Dark Side Of The Moog Vol. 9-11 (2016) {5CD Box Set, Limited Edition}

Track List Bonus CD (Live):

01. Hamburg I [25:45]
02. Hamburg II [45:05]

Exact Audio Copy V1.0 beta 3 from 29. August 2011

EAC extraction logfile from 2. July 2016, 20:53

Pete Namlook + Klaus Schulze / The Dark Side Of The Moog Live in Hamburg

Used drive : MATSHITABD-CMB UJ242AS Adapter: 0 ID: 1

Read mode : Secure
Utilize accurate stream : Yes
Defeat audio cache : Yes
Make use of C2 pointers : No

Read offset correction : 103
Overread into Lead-In and Lead-Out : No
Fill up missing offset samples with silence : Yes
Delete leading and trailing silent blocks : No
Null samples used in CRC calculations : Yes
Used interface : Installed external ASPI interface

Used output format : User Defined Encoder
Selected bitrate : 1024 kBit/s
Quality : High
Add ID3 tag : Yes
Command line compressor : C:\Program Files (x86)\Exact Audio Copy\Flac\flac.exe
Additional command line options : -V -8 -T "Date=%year%" -T "Genre=%genre%" %source%


TOC of the extracted CD

Track | Start | Length | Start sector | End sector
––––––––––––––––––––––––––––-
1 | 0:00.00 | 25:44.28 | 0 | 115827
2 | 25:44.28 | 45:04.58 | 115828 | 318685


Range status and errors

Selected range

Filename C:\EACrip\Pete Namlook + Klaus Schulze - The Dark Side Of The Moog Live in Hamburg.wav

Peak level 100.0 %
Extraction speed 4.6 X
Range quality 100.0 %
Test CRC 8A601C44
Copy CRC 8A601C44
Copy OK

No errors occurred


AccurateRip summary

Track 1 not present in database
Track 2 not present in database

None of the tracks are present in the AccurateRip database

End of status report

==== Log checksum F49919D8BCEB9A23B7F4B59794C374054BDB64280899F61E188D7899A411C62B ====

Klaus Schulze & Pete Namlook - The Dark Side Of The Moog Vol. 9-11 (2016) {5CD Box Set, Limited Edition}