Tags
Language
Tags

Klaus Schulze - La Vie Electronique I-III (2009) 3 Box Sets, 9CDs [Re-Up]

Posted By: Designol
Klaus Schulze - La Vie Electronique I-III (2009) 3 Box Sets, 9CDs [Re-Up]

Klaus Schulze - La Vie Electronique I-III (2009) 3 Box Sets, 9CDs
EAC | FLAC | Tracks (Cue&Log) ~ 3.95 Gb | Mp3 (CBR320) ~ 1.61 Gb | Scans included
Label: Revisited/SPV | # REV108- REV110 | Time: 11:42:09
Genre: Experimental Electronic, Space, Ambient

La Vie Electronique is a series of 3-disc CD releases by Klaus Schulze, reissuing material from his limited edition 50-disc CD box set The Ultimate Edition (2000), which itself collected the previously released limited edition multi-disc box sets Silver Edition (1993, 10 discs), Historic Edition (1995, 10 discs), and Jubilee Edition (1997, 25 discs), along with an additional 5 discs. The series began in 2009 with a plan to release all the music from The Ultimate Edition in chronological order. Four volumes were released in 2009, and four more were released in 2010. In May 2011 the ninth volume was released, with the tenth volume following in June 2011. Five more volumes, for a total of fifteen, are tentatively scheduled, with a possible addition of several more after that, with the eleventh volume scheduled for May 2012.

As both a solo artist and as a member of groups including Tangerine Dream and Ash Ra Tempel, Klaus Schulze emerged among the founding fathers of contemporary electronic music, his epic, meditative soundscapes a key influence on the subsequent rise of the new age aesthetic. Born in Berlin on August 4, 1947, Schulze began his performing career during the 1960s, playing guitar, bass and drums in a variety of local bands; by 1969, he was drumming in Tangerine Dream, appearing a year later on their debut LP Electronic Meditation. The album was Schulze's lone effort with the group, however, as he soon co-founded Ash Ra Tempel with Manuel Gottsching and Harmut Enke, debuting in 1971 with a self-titled record; again, however, the band format appeared to stifle Schulze, and he mounted a solo career a few months later.

While Schulze's previous recorded work had been in a typically noisy Krautrock vein, as a solo artist he quickly became more reflective; although he acquired his first synthesizer in 1972, it did not enter into his solo debut Irrlicht, its long, droning pieces instead assembled from electronic organ, oscillators and orchestral recordings. The double album Cyborg followed in 1973, and a year later he issued Blackdance, his first recording to feature synths; Timewind, regarded by many as Schulze's masterpiece, appeared in 1975. Around that same time he began producing prog-rockers the Far East Family Band; the group's keyboardist, who went on to become the new age superstar Kitaro, frequently cited Schulze as the central influence behind his own plunge into the world of synths and electronics.

After collaborating with Stomu Yamash'ta on 1976's Go, Schulze resurfaced with a flurry of new solo material, including the LP Moondawn, 1977's Mirage and two volumes of the porn soundtrack Body Love. He remained extraordinarily prolific in the years to follow, with 1979's Dune, inspired by the Frank Herbert sci-fi classic, becoming his 11th solo record released during the 1970s alone. The 1980s were no less fertile, with Schulze issuing a steady stream of new work in addition to various productions released on his own IC label; Dig It was his first fully digital recording. By the following decade, Schulze had immersed himself in contemporary dance music, occasionally working in conjunction with Pete Namlook (as Dark Side of the Moog). The first half of the 1990s also saw Schulze experiment with sampling, starting with the album Beyond Recall, but these forays largely ended in 1995 with the release of In Blue. Ten years later, he began re-releasing his earlier works and collaborating with Lisa Gerrard of Dead Can Dance. In April 2008, Schulze released Kontinuum; he also released Farscape, a joint project with Gerrard, in June of the same year.

Biography by Jason Ankeny, Allmusic.com

Klaus Schulze - La Vie Electronique I-III (2009) 3 Box Sets, 9CDs [Re-Up]

Klaus Schulze - La Vie Electronique I-III (2009) 3 Box Sets, 9CDs [Re-Up]






Klaus Schulze - La Vie Electronique I-III (2009) 3 Box Sets, 9CDs [Re-Up]

Klaus Schulze - La Vie Electronique I-III (2009) 3 Box Sets, 9CDs [Re-Up]

Klaus Schulze - La Vie Electronique I (2009) 3CD Box Set
EAC | FLAC | Tracks (Cue&Log) ~ 1.3 Gb | Mp3 (CBR320) ~ 550 Mb | Scans included
Label: Revisited | # REV108 | Time: 03:54:33

The limited-edition box sets in the Edition series (Silver Edition, 1993, ten CDs; Historic Edition, 1995, ten CDs; Jubilee Edition, 1997, 25 CDs; all gathered [with extra material added] in Ultimate Edition, 2000, 50 CDs) are the most sought-after items in Klaus Schulze collectors' circles, exchanging hands at outrageous prices. In 2009, Klaus D. Mueller and Schulze began releasing La Vie Electronique ("The Electronic Life"), a series of three-CD sets that reissued all the material previously released in these long-deleted box sets, plus a few unreleased tracks, with all the material put back in chronological sequence (the Edition sets mixed things up, time line-wise). Volume 1 covers the years 1968-1972 and is mainly very interesting. One highlight is "I Was Dreaming I Was Awake and Then I Woke Up and Found Myself Asleep," a previously unreleased 25-minute piece that, is stronger than Irrlicht, Schulze's debut LP. "Cyborgs Traum" is also major Schulze material. Also, "Dynamo" and "Traumraum" feature rare occurrences of glissando electric guitar in Schulze's music. On the other hand, the 64-minute "Die Kunst, Jundert Jahre alt Zu Werden" is mediocre: it sounds like a long, in-studio improvisation during which the artist is trying out ideas but developing none. Then again, that is what this whole series is about: archival documents, experiments, drafts, and blueprints. And there's more than enough here to satisfy the fan.

Review by François Couture, Allmusic.com

Tracklist:

CD1 (Time: 01:18:55):
01. I Was Dreaming I Was Awake (07:07)
02. And Then I Woke Up (08:17)
03. And Found Myself Asleep (09:25)
04. The Real McCoy (12:54)
05. Time Never Dies (13:15)
06. The Age Of Shopping (13:08)
07. Dynamo (14:22)
08. Interview 1970 (00:24)

CD2 (Time: 01:18:11):
01. Mit Jungen Augen (09:29)
02. Est Ist Abend (05:50)
03. Ob Est Regnet (07:37)
04. Heiber Tag (08:37)
05. Study For Brain Eno (07:20)
06. Fuzzy Logic (09:39)
07. Hasten Slowly (10:38)
08. Feed Your Head (07:39)
09. Electric Dream (11:17)

CD3 (Time: 01:17:26):
01. Frühlicht (03:28)
02. Etude Pour Une Fin Du Monde (10:05)
03. Bruitismus (09:59)
04. Die Kultpumpe (03:33)
05. Loch Im Meer (01:54)
06. Maschinenspiele (15:11)
07. Die Grüne Leiche (07:09)
08. Gesang Zur Dämmerung (12:46)
09. Study For Terry Riley (05:12)
10. Les Jockeys Camoulés (08:03)


Exact Audio Copy V0.99 prebeta 4 from 23. January 2008

EAC extraction logfile from 19. February 2009, 21:58

Klaus Schulze / La Vie Electronique I

Used drive : PLEXTOR DVDR PX-810SA Adapter: 4 ID: 1

Read mode : Secure
Utilize accurate stream : Yes
Defeat audio cache : Yes
Make use of C2 pointers : No

Read offset correction : 48
Overread into Lead-In and Lead-Out : No
Fill up missing offset samples with silence : Yes
Delete leading and trailing silent blocks : No
Null samples used in CRC calculations : Yes
Used interface : Native Win32 interface for Win NT & 2000
Gap handling : Appended to previous track

Used output format : User Defined Encoder
Selected bitrate : 1024 kBit/s
Quality : High
Add ID3 tag : Yes
Command line compressor : C:\Program Files\Exact Audio Copy\Flac\flac.exe
Additional command line options : -6 -V -T "ARTIST=%a" -T "TITLE=%t" -T "ALBUM=%g" -T "DATE=%y" -T "TRACKNUMBER=%n" -T "GENRE=%m" -T "COMMENT=%e" %s -o %d


TOC of the extracted CD

Track | Start | Length | Start sector | End sector
––––––––––––––––––––––––––––-
1 | 0:00.00 | 7:07.69 | 0 | 32093
2 | 7:07.69 | 8:17.57 | 32094 | 69425
3 | 15:25.51 | 9:25.24 | 69426 | 111824
4 | 24:51.00 | 12:54.00 | 111825 | 169874
5 | 37:45.00 | 13:15.12 | 169875 | 229511
6 | 51:00.12 | 13:08.63 | 229512 | 288674
7 | 64:09.00 | 14:22.32 | 288675 | 353356
8 | 78:31.32 | 0:24.10 | 353357 | 355166


Track 1

Filename E:\Mijn Muziek Flac\Klaus Schulze\Klaus Schulze La Vie Electrnique I\Cd 1\01-I Was Dreaming I Was Awake.wav

Pre-gap length 0:00:02.00

Peak level 83.6 %
Track quality 100.0 %
Test CRC AF235860
Copy CRC AF235860
Track not present in AccurateRip database
Copy OK

Track 2

Filename E:\Mijn Muziek Flac\Klaus Schulze\Klaus Schulze La Vie Electrnique I\Cd 1\02-And Then I Woke Up.wav

Peak level 80.3 %
Track quality 99.9 %
Test CRC 6F911DB4
Copy CRC 6F911DB4
Track not present in AccurateRip database
Copy OK

Track 3

Filename E:\Mijn Muziek Flac\Klaus Schulze\Klaus Schulze La Vie Electrnique I\Cd 1\03-And Found Myself Asleep.wav

Peak level 95.7 %
Track quality 100.0 %
Test CRC 9B7A1413
Copy CRC 9B7A1413
Track not present in AccurateRip database
Copy OK

Track 4

Filename E:\Mijn Muziek Flac\Klaus Schulze\Klaus Schulze La Vie Electrnique I\Cd 1\04-The Real McCoy.wav

Peak level 96.6 %
Track quality 100.0 %
Test CRC EDB58228
Copy CRC EDB58228
Track not present in AccurateRip database
Copy OK

Track 5

Filename E:\Mijn Muziek Flac\Klaus Schulze\Klaus Schulze La Vie Electrnique I\Cd 1\05-Time Never Dies.wav

Peak level 75.6 %
Track quality 100.0 %
Test CRC 1371A8CB
Copy CRC 1371A8CB
Track not present in AccurateRip database
Copy OK

Track 6

Filename E:\Mijn Muziek Flac\Klaus Schulze\Klaus Schulze La Vie Electrnique I\Cd 1\06-The Age Of Shopping.wav

Peak level 84.4 %
Track quality 100.0 %
Test CRC DF78130E
Copy CRC DF78130E
Track not present in AccurateRip database
Copy OK

Track 7

Filename E:\Mijn Muziek Flac\Klaus Schulze\Klaus Schulze La Vie Electrnique I\Cd 1\07-Dynamo.wav

Peak level 92.5 %
Track quality 100.0 %
Test CRC 88A2A1FB
Copy CRC 88A2A1FB
Track not present in AccurateRip database
Copy OK

Track 8

Filename E:\Mijn Muziek Flac\Klaus Schulze\Klaus Schulze La Vie Electrnique I\Cd 1\08-Interview 1970.wav

Pre-gap length 0:00:03.20

Peak level 76.9 %
Track quality 100.0 %
Test CRC 66ED32D9
Copy CRC 66ED32D9
Track not present in AccurateRip database
Copy OK


None of the tracks are present in the AccurateRip database

No errors occurred

End of status report

Exact Audio Copy V0.99 prebeta 4 from 23. January 2008

EAC extraction logfile from 19. February 2009, 22:25

Klaus Schulze / La Vie Electronique I

Used drive : PLEXTOR DVDR PX-810SA Adapter: 4 ID: 1

Read mode : Secure
Utilize accurate stream : Yes
Defeat audio cache : Yes
Make use of C2 pointers : No

Read offset correction : 48
Overread into Lead-In and Lead-Out : No
Fill up missing offset samples with silence : Yes
Delete leading and trailing silent blocks : No
Null samples used in CRC calculations : Yes
Used interface : Native Win32 interface for Win NT & 2000
Gap handling : Appended to previous track

Used output format : User Defined Encoder
Selected bitrate : 1024 kBit/s
Quality : High
Add ID3 tag : Yes
Command line compressor : C:\Program Files\Exact Audio Copy\Flac\flac.exe
Additional command line options : -6 -V -T "ARTIST=%a" -T "TITLE=%t" -T "ALBUM=%g" -T "DATE=%y" -T "TRACKNUMBER=%n" -T "GENRE=%m" -T "COMMENT=%e" %s -o %d


TOC of the extracted CD

Track | Start | Length | Start sector | End sector
––––––––––––––––––––––––––––-
1 | 0:00.00 | 9:29.55 | 0 | 42729
2 | 9:29.55 | 5:50.48 | 42730 | 69027
3 | 15:20.28 | 7:37.54 | 69028 | 103356
4 | 22:58.07 | 8:37.68 | 103357 | 142199
5 | 31:36.00 | 7:20.32 | 142200 | 175231
6 | 38:56.32 | 9:39.58 | 175232 | 218714
7 | 48:36.15 | 10:38.26 | 218715 | 266590
8 | 59:14.41 | 7:39.26 | 266591 | 301041
9 | 66:53.67 | 11:17.40 | 301042 | 351856


Track 1

Filename E:\Mijn Muziek Flac\Klaus Schulze\Klaus Schulze La Vie Electrnique I\Cd 2\01-Mit Jungen Augen.wav

Pre-gap length 0:00:02.00

Peak level 95.3 %
Track quality 100.0 %
Test CRC 1DE981C5
Copy CRC 1DE981C5
Track not present in AccurateRip database
Copy OK

Track 2

Filename E:\Mijn Muziek Flac\Klaus Schulze\Klaus Schulze La Vie Electrnique I\Cd 2\02-Est Ist Abend.wav

Peak level 55.5 %
Track quality 99.9 %
Test CRC E043947F
Copy CRC E043947F
Track not present in AccurateRip database
Copy OK

Track 3

Filename E:\Mijn Muziek Flac\Klaus Schulze\Klaus Schulze La Vie Electrnique I\Cd 2\03-Ob Est Regnet.wav

Peak level 99.1 %
Track quality 100.0 %
Test CRC D8FDC1FF
Copy CRC D8FDC1FF
Track not present in AccurateRip database
Copy OK

Track 4

Filename E:\Mijn Muziek Flac\Klaus Schulze\Klaus Schulze La Vie Electrnique I\Cd 2\04-Heiber Tag.wav

Peak level 73.9 %
Track quality 100.0 %
Test CRC 8316A106
Copy CRC 8316A106
Track not present in AccurateRip database
Copy OK

Track 5

Filename E:\Mijn Muziek Flac\Klaus Schulze\Klaus Schulze La Vie Electrnique I\Cd 2\05-Study For Brain Eno.wav

Peak level 72.1 %
Track quality 100.0 %
Test CRC DB2E5CC8
Copy CRC DB2E5CC8
Track not present in AccurateRip database
Copy OK

Track 6

Filename E:\Mijn Muziek Flac\Klaus Schulze\Klaus Schulze La Vie Electrnique I\Cd 2\06-Fuzzy Logic.wav

Peak level 52.4 %
Track quality 99.9 %
Test CRC EAF066BE
Copy CRC EAF066BE
Track not present in AccurateRip database
Copy OK

Track 7

Filename E:\Mijn Muziek Flac\Klaus Schulze\Klaus Schulze La Vie Electrnique I\Cd 2\07-Hasten Slowly.wav

Peak level 82.6 %
Track quality 100.0 %
Test CRC 66985EAE
Copy CRC 66985EAE
Track not present in AccurateRip database
Copy OK

Track 8

Filename E:\Mijn Muziek Flac\Klaus Schulze\Klaus Schulze La Vie Electrnique I\Cd 2\08-Feed Your Head.wav

Peak level 76.2 %
Track quality 100.0 %
Test CRC F10773FE
Copy CRC F10773FE
Track not present in AccurateRip database
Copy OK

Track 9

Filename E:\Mijn Muziek Flac\Klaus Schulze\Klaus Schulze La Vie Electrnique I\Cd 2\09-Electric Dream.wav

Peak level 93.8 %
Track quality 100.0 %
Test CRC 6040228E
Copy CRC 6040228E
Track not present in AccurateRip database
Copy OK


None of the tracks are present in the AccurateRip database

No errors occurred

End of status report

Exact Audio Copy V0.99 prebeta 4 from 23. January 2008

EAC extraction logfile from 19. February 2009, 22:57

Klaus Schulze / La Vie Electronique I

Used drive : PLEXTOR DVDR PX-810SA Adapter: 4 ID: 1

Read mode : Secure
Utilize accurate stream : Yes
Defeat audio cache : Yes
Make use of C2 pointers : No

Read offset correction : 48
Overread into Lead-In and Lead-Out : No
Fill up missing offset samples with silence : Yes
Delete leading and trailing silent blocks : No
Null samples used in CRC calculations : Yes
Used interface : Native Win32 interface for Win NT & 2000
Gap handling : Appended to previous track

Used output format : User Defined Encoder
Selected bitrate : 1024 kBit/s
Quality : High
Add ID3 tag : Yes
Command line compressor : C:\Program Files\Exact Audio Copy\Flac\flac.exe
Additional command line options : -6 -V -T "ARTIST=%a" -T "TITLE=%t" -T "ALBUM=%g" -T "DATE=%y" -T "TRACKNUMBER=%n" -T "GENRE=%m" -T "COMMENT=%e" %s -o %d


TOC of the extracted CD

Track | Start | Length | Start sector | End sector
––––––––––––––––––––––––––––-
1 | 0:00.00 | 3:28.46 | 0 | 15645
2 | 3:28.46 | 10:05.67 | 15646 | 61087
3 | 13:34.38 | 9:59.33 | 61088 | 106045
4 | 23:33.71 | 3:33.39 | 106046 | 122059
5 | 27:07.35 | 1:54.38 | 122060 | 130647
6 | 29:01.73 | 15:11.47 | 130648 | 199019
7 | 44:13.45 | 7:09.29 | 199020 | 231223
8 | 51:22.74 | 12:46.66 | 231224 | 288739
9 | 64:09.65 | 5:12.54 | 288740 | 312193
10 | 69:22.44 | 8:03.38 | 312194 | 348456


Track 1

Filename E:\Mijn Muziek Flac\Klaus Schulze\Klaus Schulze La Vie Electrnique I\Cd 3\01-Frьhlicht.wav

Pre-gap length 0:00:02.00

Peak level 58.3 %
Track quality 100.0 %
Test CRC F91D78A1
Copy CRC F91D78A1
Track not present in AccurateRip database
Copy OK

Track 2

Filename E:\Mijn Muziek Flac\Klaus Schulze\Klaus Schulze La Vie Electrnique I\Cd 3\02-Etude Pour Une Fin Du Monde.wav

Peak level 81.9 %
Track quality 100.0 %
Test CRC 303D3917
Copy CRC 303D3917
Track not present in AccurateRip database
Copy OK

Track 3

Filename E:\Mijn Muziek Flac\Klaus Schulze\Klaus Schulze La Vie Electrnique I\Cd 3\03-Bruitismus.wav

Peak level 79.1 %
Track quality 100.0 %
Test CRC 82A3287F
Copy CRC 82A3287F
Track not present in AccurateRip database
Copy OK

Track 4

Filename E:\Mijn Muziek Flac\Klaus Schulze\Klaus Schulze La Vie Electrnique I\Cd 3\04-Die Kultpumpe.wav

Peak level 92.1 %
Track quality 99.9 %
Test CRC 37E15D86
Copy CRC 37E15D86
Track not present in AccurateRip database
Copy OK

Track 5

Filename E:\Mijn Muziek Flac\Klaus Schulze\Klaus Schulze La Vie Electrnique I\Cd 3\05-Loch Im Meer.wav

Peak level 44.4 %
Track quality 100.0 %
Test CRC CDB54071
Copy CRC CDB54071
Track not present in AccurateRip database
Copy OK

Track 6

Filename E:\Mijn Muziek Flac\Klaus Schulze\Klaus Schulze La Vie Electrnique I\Cd 3\06-Maschinenspiele.wav

Peak level 89.8 %
Track quality 100.0 %
Test CRC 310A7A0B
Copy CRC 310A7A0B
Track not present in AccurateRip database
Copy OK

Track 7

Filename E:\Mijn Muziek Flac\Klaus Schulze\Klaus Schulze La Vie Electrnique I\Cd 3\07-Die Grьne Leiche.wav

Peak level 80.4 %
Track quality 100.0 %
Test CRC ED888A9B
Copy CRC ED888A9B
Track not present in AccurateRip database
Copy OK

Track 8

Filename E:\Mijn Muziek Flac\Klaus Schulze\Klaus Schulze La Vie Electrnique I\Cd 3\08-Gesang Zur Dдmmerung.wav

Peak level 70.9 %
Track quality 100.0 %
Test CRC D831D4EB
Copy CRC D831D4EB
Track not present in AccurateRip database
Copy OK

Track 9

Filename E:\Mijn Muziek Flac\Klaus Schulze\Klaus Schulze La Vie Electrnique I\Cd 3\09-Study For Terry Riley.wav

Peak level 74.1 %
Track quality 100.0 %
Test CRC CABD9170
Copy CRC CABD9170
Track not present in AccurateRip database
Copy OK

Track 10

Filename E:\Mijn Muziek Flac\Klaus Schulze\Klaus Schulze La Vie Electrnique I\Cd 3\10-Les Jockeys Camoulйs.wav

Pre-gap length 0:00:04.48

Peak level 78.9 %
Track quality 99.9 %
Test CRC 94902219
Copy CRC 94902219
Track not present in AccurateRip database
Copy OK


None of the tracks are present in the AccurateRip database

No errors occurred

End of status report




Klaus Schulze - La Vie Electronique I-III (2009) 3 Box Sets, 9CDs [Re-Up]

Klaus Schulze - La Vie Electronique I-III (2009) 3 Box Sets, 9CDs [Re-Up]

Klaus Schulze - La Vie Electronique II (2009) 3CD Box Set
EAC | FLAC | Tracks (Cue&Log) ~ 1.32 Gb | Mp3 (CBR320) ~ 544 Mb | Scans included
Label: Revisited | # REV109 | Time: 03:52:39

Volume Two (three CDs) in this series reissuing all the material found on the long out of print Ultimate Edition box sets (for more background on the series as a whole, see La Vie Electronique 1) is much more interesting than volume one, and the pick of the first six volumes. The music comes from 1972-1975 (but mostly 1972-1973), a rich period of experimentation, as Schulze was gradually forging what would be known as his "classic" sound, nearly palpable by "Blaue Stunde," the 38-minute piece from 1975 concluding the set. This second installment contains more finished works than the drafts-and-jams-packed volume one. "Das große Identifikationsspiel" (42 minutes) is a very good suite of rather experimental music written for a science fiction radio drama by Alfred Behrens. The 27-minute "Titanensee" was done with a ballet in mind, never to be produced; again, it is a strong work in Schulze's experimental vein. However, the undisputed highlight of volume two is a whole album's worth of collaborations with Hans-Jörg Stahlschmidt, a project that had been brought to completion, only to gather dust on a record company's shelves. On this set of tracks, Schulze steps outside of his usual style, his partner's acoustic guitar and vocals (Schulze also plays some acoustic backing) drawing the music close to Popol Vuh territory. For fans curious about Schulze's artistic development, this volume is the one to get, as you can see him trying out ideas and working on collaborations with other artists, and even other art forms.

Review by François Couture, Allmusic.com

Tracklist:

CD1 (Time: 01:19:46):
01. North Of The Yukon (20:42)
02. Nightwind (16:13)
03. Minuet (11:41)
04. Signs Of Dawn (22:38)
05. Study For Philip K.Dick (08:31)

CD2 (Time: 01:19:47):
01. Geburt Der Moderne (06:00)
02. Devil My Care (07:21)
03. Les 7 Boules De Cristal (03:16)
04. On A Marché Sur La Lune (07:00)
05. Der Schrecken Vom Amazonas (16:40)
06. Schier Unendich (01:33)
07. Chaos (10:26)
08. Gaia (09:26)
09. Uranos (07:14)
10. Electric Love-Affair (10:47)

CD3 (Time: 01:13:05)
01. Land Der Leeren Häuser (11:14)
02. Studies For Organ,Keyboards and Drumset (14:51)
03. Memento Mori (09:08)
04. Tooth Of Time (09:50)
05. Every Inch A King (09:24)
06. Chronique Scandaleuse (07:06)
07. Con Amore (04:25)
08. Last Not Least (07:04)


Exact Audio Copy V0.99 prebeta 4 from 23. January 2008

EAC extraction logfile from 20. February 2009, 0:59

Klaus Schulze / La Vie Electronique II

Used drive : PLEXTOR DVDR PX-810SA Adapter: 4 ID: 1

Read mode : Secure
Utilize accurate stream : Yes
Defeat audio cache : Yes
Make use of C2 pointers : No

Read offset correction : 48
Overread into Lead-In and Lead-Out : No
Fill up missing offset samples with silence : Yes
Delete leading and trailing silent blocks : No
Null samples used in CRC calculations : Yes
Used interface : Native Win32 interface for Win NT & 2000
Gap handling : Appended to previous track

Used output format : User Defined Encoder
Selected bitrate : 1024 kBit/s
Quality : High
Add ID3 tag : Yes
Command line compressor : C:\Program Files\Exact Audio Copy\Flac\flac.exe
Additional command line options : -6 -V -T "ARTIST=%a" -T "TITLE=%t" -T "ALBUM=%g" -T "DATE=%y" -T "TRACKNUMBER=%n" -T "GENRE=%m" -T "COMMENT=%e" %s -o %d


TOC of the extracted CD

Track | Start | Length | Start sector | End sector
––––––––––––––––––––––––––––-
1 | 0:00.00 | 20:42.36 | 0 | 93185
2 | 20:42.36 | 16:13.39 | 93186 | 166199
3 | 36:56.00 | 11:41.03 | 166200 | 218777
4 | 48:37.03 | 22:38.00 | 218778 | 320627
5 | 71:15.03 | 8:31.19 | 320628 | 358971


Track 1

Filename E:\Mijn Muziek Flac\Klaus Schulze\Klaus Schulze La Vie Electronique II\Cd 1\01-North Of The Yukon.wav

Pre-gap length 0:00:02.00

Peak level 97.1 %
Track quality 100.0 %
Test CRC D48068F8
Copy CRC D48068F8
Track not present in AccurateRip database
Copy OK

Track 2

Filename E:\Mijn Muziek Flac\Klaus Schulze\Klaus Schulze La Vie Electronique II\Cd 1\02-Nightwind.wav

Peak level 92.2 %
Track quality 100.0 %
Test CRC C60DF72B
Copy CRC C60DF72B
Track not present in AccurateRip database
Copy OK

Track 3

Filename E:\Mijn Muziek Flac\Klaus Schulze\Klaus Schulze La Vie Electronique II\Cd 1\03-Minuet.wav

Peak level 93.3 %
Track quality 100.0 %
Test CRC 09593DA0
Copy CRC 09593DA0
Track not present in AccurateRip database
Copy OK

Track 4

Filename E:\Mijn Muziek Flac\Klaus Schulze\Klaus Schulze La Vie Electronique II\Cd 1\04-Signs Of Dawn.wav

Pre-gap length 0:00:03.03

Peak level 91.0 %
Track quality 100.0 %
Test CRC DFFDD721
Copy CRC DFFDD721
Track not present in AccurateRip database
Copy OK

Track 5

Filename E:\Mijn Muziek Flac\Klaus Schulze\Klaus Schulze La Vie Electronique II\Cd 1\05-Study For Philip K.Dick.wav

Peak level 87.2 %
Track quality 100.0 %
Test CRC 6E52991C
Copy CRC 6E52991C
Track not present in AccurateRip database
Copy OK


None of the tracks are present in the AccurateRip database

No errors occurred

End of status report

Exact Audio Copy V0.99 prebeta 4 from 23. January 2008

EAC extraction logfile from 20. February 2009, 1:29

Klaus Schulze / La Vie Electronique II

Used drive : PLEXTOR DVDR PX-810SA Adapter: 4 ID: 1

Read mode : Secure
Utilize accurate stream : Yes
Defeat audio cache : Yes
Make use of C2 pointers : No

Read offset correction : 48
Overread into Lead-In and Lead-Out : No
Fill up missing offset samples with silence : Yes
Delete leading and trailing silent blocks : No
Null samples used in CRC calculations : Yes
Used interface : Native Win32 interface for Win NT & 2000
Gap handling : Appended to previous track

Used output format : User Defined Encoder
Selected bitrate : 1024 kBit/s
Quality : High
Add ID3 tag : Yes
Command line compressor : C:\Program Files\Exact Audio Copy\Flac\flac.exe
Additional command line options : -6 -V -T "ARTIST=%a" -T "TITLE=%t" -T "ALBUM=%g" -T "DATE=%y" -T "TRACKNUMBER=%n" -T "GENRE=%m" -T "COMMENT=%e" %s -o %d


TOC of the extracted CD

Track | Start | Length | Start sector | End sector
––––––––––––––––––––––––––––-
1 | 0:00.00 | 6:00.23 | 0 | 27022
2 | 6:00.23 | 7:21.10 | 27023 | 60107
3 | 13:21.33 | 3:16.62 | 60108 | 74869
4 | 16:38.20 | 7:00.33 | 74870 | 106402
5 | 23:38.53 | 16:40.46 | 106403 | 181448
6 | 40:19.24 | 1:33.51 | 181449 | 188474
7 | 41:53.00 | 10:26.28 | 188475 | 235452
8 | 52:19.28 | 9:26.50 | 235453 | 277952
9 | 61:46.03 | 7:14.34 | 277953 | 310536
10 | 69:00.37 | 10:47.32 | 310537 | 359093


Track 1

Filename E:\Mijn Muziek Flac\Klaus Schulze\Klaus Schulze La Vie Electronique II\Cd 2\01-Geburt Der Moderne.wav

Pre-gap length 0:00:02.00

Peak level 93.4 %
Track quality 99.9 %
Test CRC 7969C779
Copy CRC 7969C779
Track not present in AccurateRip database
Copy OK

Track 2

Filename E:\Mijn Muziek Flac\Klaus Schulze\Klaus Schulze La Vie Electronique II\Cd 2\02-Devil My Care.wav

Peak level 89.7 %
Track quality 100.0 %
Test CRC 9028031D
Copy CRC 9028031D
Track not present in AccurateRip database
Copy OK

Track 3

Filename E:\Mijn Muziek Flac\Klaus Schulze\Klaus Schulze La Vie Electronique II\Cd 2\03-Les 7 Boules De Cristal.wav

Peak level 54.1 %
Track quality 100.0 %
Test CRC 865FE663
Copy CRC 865FE663
Track not present in AccurateRip database
Copy OK

Track 4

Filename E:\Mijn Muziek Flac\Klaus Schulze\Klaus Schulze La Vie Electronique II\Cd 2\04-On A Marchй Sur La Lune.wav

Peak level 64.9 %
Track quality 100.0 %
Test CRC A3E807D2
Copy CRC A3E807D2
Track not present in AccurateRip database
Copy OK

Track 5

Filename E:\Mijn Muziek Flac\Klaus Schulze\Klaus Schulze La Vie Electronique II\Cd 2\05-Der Schrecken Vom Amazonas.wav

Peak level 91.7 %
Track quality 100.0 %
Test CRC 97905C67
Copy CRC 97905C67
Track not present in AccurateRip database
Copy OK

Track 6

Filename E:\Mijn Muziek Flac\Klaus Schulze\Klaus Schulze La Vie Electronique II\Cd 2\06-Schier Unendich.wav

Peak level 24.7 %
Track quality 100.0 %
Test CRC 0BF520BA
Copy CRC 0BF520BA
Track not present in AccurateRip database
Copy OK

Track 7

Filename E:\Mijn Muziek Flac\Klaus Schulze\Klaus Schulze La Vie Electronique II\Cd 2\07-Chaos.wav

Peak level 92.3 %
Track quality 100.0 %
Test CRC ED64357F
Copy CRC ED64357F
Track not present in AccurateRip database
Copy OK

Track 8

Filename E:\Mijn Muziek Flac\Klaus Schulze\Klaus Schulze La Vie Electronique II\Cd 2\08-Gaia.wav

Peak level 85.2 %
Track quality 100.0 %
Test CRC 37CDBA62
Copy CRC 37CDBA62
Track not present in AccurateRip database
Copy OK

Track 9

Filename E:\Mijn Muziek Flac\Klaus Schulze\Klaus Schulze La Vie Electronique II\Cd 2\09-Uranos.wav

Peak level 82.1 %
Track quality 100.0 %
Test CRC 47D621B2
Copy CRC 47D621B2
Track not present in AccurateRip database
Copy OK

Track 10

Filename E:\Mijn Muziek Flac\Klaus Schulze\Klaus Schulze La Vie Electronique II\Cd 2\10-Electric Love-Affair.wav

Peak level 87.5 %
Track quality 100.0 %
Test CRC 119255FB
Copy CRC 119255FB
Track not present in AccurateRip database
Copy OK


None of the tracks are present in the AccurateRip database

No errors occurred

End of status report

Exact Audio Copy V0.99 prebeta 4 from 23. January 2008

EAC extraction logfile from 20. February 2009, 1:59

Klaus Schulze / La Vie Electronique II

Used drive : PLEXTOR DVDR PX-810SA Adapter: 4 ID: 1

Read mode : Secure
Utilize accurate stream : Yes
Defeat audio cache : Yes
Make use of C2 pointers : No

Read offset correction : 48
Overread into Lead-In and Lead-Out : No
Fill up missing offset samples with silence : Yes
Delete leading and trailing silent blocks : No
Null samples used in CRC calculations : Yes
Used interface : Native Win32 interface for Win NT & 2000
Gap handling : Appended to previous track

Used output format : User Defined Encoder
Selected bitrate : 1024 kBit/s
Quality : High
Add ID3 tag : Yes
Command line compressor : C:\Program Files\Exact Audio Copy\Flac\flac.exe
Additional command line options : -6 -V -T "ARTIST=%a" -T "TITLE=%t" -T "ALBUM=%g" -T "DATE=%y" -T "TRACKNUMBER=%n" -T "GENRE=%m" -T "COMMENT=%e" %s -o %d


TOC of the extracted CD

Track | Start | Length | Start sector | End sector
––––––––––––––––––––––––––––-
1 | 0:00.00 | 11:14.00 | 0 | 50549
2 | 11:14.00 | 14:51.16 | 50550 | 117390
3 | 26:05.16 | 9:08.32 | 117391 | 158522
4 | 35:13.48 | 9:50.10 | 158523 | 202782
5 | 45:03.58 | 9:24.52 | 202783 | 245134
6 | 54:28.35 | 7:06.56 | 245135 | 277140
7 | 61:35.16 | 4:25.44 | 277141 | 297059
8 | 66:00.60 | 7:04.63 | 297060 | 328922


Track 1

Filename E:\Mijn Muziek Flac\Klaus Schulze\Klaus Schulze La Vie Electronique II\Cd 3\01-Land Der Leeren Hдuser.wav

Pre-gap length 0:00:02.00

Peak level 92.2 %
Track quality 100.0 %
Test CRC 52F0AD39
Copy CRC 52F0AD39
Track not present in AccurateRip database
Copy OK

Track 2

Filename E:\Mijn Muziek Flac\Klaus Schulze\Klaus Schulze La Vie Electronique II\Cd 3\02-Studies For Organ,Keyboards and Drumset.wav

Peak level 91.3 %
Track quality 100.0 %
Test CRC F7577142
Copy CRC F7577142
Track not present in AccurateRip database
Copy OK

Track 3

Filename E:\Mijn Muziek Flac\Klaus Schulze\Klaus Schulze La Vie Electronique II\Cd 3\03-Memento Mori.wav

Peak level 87.5 %
Track quality 100.0 %
Test CRC A29AAB3A
Copy CRC A29AAB3A
Track not present in AccurateRip database
Copy OK

Track 4

Filename E:\Mijn Muziek Flac\Klaus Schulze\Klaus Schulze La Vie Electronique II\Cd 3\04-Tooth Of Time.wav

Peak level 87.5 %
Track quality 100.0 %
Test CRC 25F8FC56
Copy CRC 25F8FC56
Track not present in AccurateRip database
Copy OK

Track 5

Filename E:\Mijn Muziek Flac\Klaus Schulze\Klaus Schulze La Vie Electronique II\Cd 3\05-Every Inch A King.wav

Peak level 81.8 %
Track quality 100.0 %
Test CRC 38DFB08D
Copy CRC 38DFB08D
Track not present in AccurateRip database
Copy OK

Track 6

Filename E:\Mijn Muziek Flac\Klaus Schulze\Klaus Schulze La Vie Electronique II\Cd 3\06-Chronique Scandaleuse.wav

Peak level 90.4 %
Track quality 100.0 %
Test CRC F691C568
Copy CRC F691C568
Track not present in AccurateRip database
Copy OK

Track 7

Filename E:\Mijn Muziek Flac\Klaus Schulze\Klaus Schulze La Vie Electronique II\Cd 3\07-Con Amore.wav

Peak level 69.1 %
Track quality 100.0 %
Test CRC 9382169F
Copy CRC 9382169F
Track not present in AccurateRip database
Copy OK

Track 8

Filename E:\Mijn Muziek Flac\Klaus Schulze\Klaus Schulze La Vie Electronique II\Cd 3\08-Last Not Least.wav

Peak level 94.3 %
Track quality 100.0 %
Test CRC D4CDC805
Copy CRC D4CDC805
Track not present in AccurateRip database
Copy OK


None of the tracks are present in the AccurateRip database

No errors occurred

End of status report




Klaus Schulze - La Vie Electronique I-III (2009) 3 Box Sets, 9CDs [Re-Up]

Klaus Schulze - La Vie Electronique I-III (2009) 3 Box Sets, 9CDs [Re-Up]

Klaus Schulze - La Vie Electronique III (2009) 3CD Box Set
EAC | FLAC | Tracks (Cue&Log) ~ 1.34 Mb | Mp3 (CBR320) ~ 554 Mb | Scans included
Label: Revisited | # REV110 | Time: 03:54:56

The third in Klaus Schulze's series of three-disc compilations of live and rare material (all of it previously released in his 50-disc Ultimate Edition box from 2000) is pure bliss for fans of early-'70s analog synthesizer music. The melodies swoop and whoosh like comets passing by a slowly drifting space station manned by dudes and ladies in unisex jumpsuits with long, perfectly coiffed hair, and beards on the men. Close your eyes and you're there. Many of these tracks are grouped into half-hour suites, but at the same time the whole nearly four-hour document can be seen as one solid piece of art, or a shaving from a vast iceberg. Schulze's droning pulses are like the rhythm of the universe, unending and, while beautiful, totally inhuman. If Kraftwerk was the sound of musicians attempting to become machines, Klaus Schulze's work is the sound of one musician attempting to become a planet. The beeping rhythms, like a heart monitor, provide a slight anchor to keep one from floating away completely as this music spins itself out in ever wider spiraling arcs across endless vistas of empty space, but the ultimate effect is near-total trance.

Review by Phil Freeman, Allmusic.com

Tracklist:

CD1 (Time: 01:18:07):
01. I Scent The Morning Air (08:15)
02. Le Roi S'amuse (21:45)
03. The Rest is Silence (06:22)
04. Well Roard,Lion (09:26)
05. La Vie Es Sueno (08:40)
06. Tant de Bruit Pour Une Omelettel (23:36)

CD2 (Time: 01:16:58):
01. Allumer (18:30)
02. Luer (07:10)
03. Die Lebendige Spur (12:50)
04. La Présence D'Spirit (17:40)
05. TuttoVa Bene (10:16)
06. You Don't Have To Win (10:31)

CD3 (Time: 01:19:50):
01. Für Vaterland Und Menschenfresser (07:15)
02. Paternoster (07:02)
03. Es War Ein Sonnenstrahl (12:25)
04. II Dolce Far Niente (05:29)
05. Semper Idem (11:41)
06. Wann Soll Man Springen? (15:11)
07. Experimentelle Bagatelle (04:15)
08. Kurzes Stück Im Alten Stil (07:06)
09. Gewitter (09:23)


Exact Audio Copy V0.99 prebeta 4 from 23. January 2008

EAC extraction logfile from 15. August 2009, 15:30

Klaus Schulze / La Vie Electronique III

Used drive : PLEXTOR DVDR PX-810SA Adapter: 4 ID: 1

Read mode : Secure
Utilize accurate stream : Yes
Defeat audio cache : Yes
Make use of C2 pointers : No

Read offset correction : 48
Overread into Lead-In and Lead-Out : No
Fill up missing offset samples with silence : Yes
Delete leading and trailing silent blocks : No
Null samples used in CRC calculations : Yes
Used interface : Native Win32 interface for Win NT & 2000
Gap handling : Appended to previous track

Used output format : User Defined Encoder
Selected bitrate : 1024 kBit/s
Quality : High
Add ID3 tag : Yes
Command line compressor : C:\Program Files\Exact Audio Copy\Flac\flac.exe
Additional command line options : -6 -V -T "ARTIST=%a" -T "TITLE=%t" -T "ALBUM=%g" -T "DATE=%y" -T "TRACKNUMBER=%n" -T "GENRE=%m" -T "COMMENT=%e" %s -o %d


TOC of the extracted CD

Track | Start | Length | Start sector | End sector
––––––––––––––––––––––––––––-
1 | 0:00.00 | 8:15.62 | 0 | 37186
2 | 8:15.62 | 21:45.24 | 37187 | 135085
3 | 30:01.11 | 6:22.64 | 135086 | 163799
4 | 36:24.00 | 9:26.37 | 163800 | 206286
5 | 45:50.37 | 8:40.69 | 206287 | 245355
6 | 54:31.31 | 23:36.38 | 245356 | 351593


Track 1

Filename F:\Mijn Muziek Flac\Klaus Schulze La Vie Electronique III\Cd 1\01-I Scent The Morning Air.wav

Pre-gap length 0:00:02.00

Peak level 80.9 %
Track quality 100.0 %
Test CRC 38B58506
Copy CRC 38B58506
Track not present in AccurateRip database
Copy OK

Track 2

Filename F:\Mijn Muziek Flac\Klaus Schulze La Vie Electronique III\Cd 1\02-Le Roi S'amuse.wav

Peak level 88.4 %
Track quality 99.9 %
Test CRC 9C933997
Copy CRC 9C933997
Track not present in AccurateRip database
Copy OK

Track 3

Filename F:\Mijn Muziek Flac\Klaus Schulze La Vie Electronique III\Cd 1\03-The Rest is Silence.wav

Peak level 51.0 %
Track quality 99.9 %
Test CRC DAB925B0
Copy CRC DAB925B0
Track not present in AccurateRip database
Copy OK

Track 4

Filename F:\Mijn Muziek Flac\Klaus Schulze La Vie Electronique III\Cd 1\04-Well Roard,Lion.wav

Pre-gap length 0:00:05.00

Peak level 86.2 %
Track quality 99.9 %
Test CRC 63EA8FEB
Copy CRC 63EA8FEB
Track not present in AccurateRip database
Copy OK

Track 5

Filename F:\Mijn Muziek Flac\Klaus Schulze La Vie Electronique III\Cd 1\05-La Vie Es Sueno.wav

Pre-gap length 0:00:05.00

Peak level 30.2 %
Track quality 100.0 %
Test CRC E100D6CA
Copy CRC E100D6CA
Track not present in AccurateRip database
Copy OK

Track 6

Filename F:\Mijn Muziek Flac\Klaus Schulze La Vie Electronique III\Cd 1\06-Tant de Bruit Pour Une Omelettel.wav

Peak level 91.2 %
Track quality 100.0 %
Test CRC 3C1C1A3C
Copy CRC 3C1C1A3C
Track not present in AccurateRip database
Copy OK


None of the tracks are present in the AccurateRip database

No errors occurred

End of status report

Exact Audio Copy V0.99 prebeta 4 from 23. January 2008

EAC extraction logfile from 15. August 2009, 16:13

Klaus Schulze / La Vie Electronique III

Used drive : PLEXTOR DVDR PX-810SA Adapter: 4 ID: 1

Read mode : Secure
Utilize accurate stream : Yes
Defeat audio cache : Yes
Make use of C2 pointers : No

Read offset correction : 48
Overread into Lead-In and Lead-Out : No
Fill up missing offset samples with silence : Yes
Delete leading and trailing silent blocks : No
Null samples used in CRC calculations : Yes
Used interface : Native Win32 interface for Win NT & 2000
Gap handling : Appended to previous track

Used output format : User Defined Encoder
Selected bitrate : 1024 kBit/s
Quality : High
Add ID3 tag : Yes
Command line compressor : C:\Program Files\Exact Audio Copy\Flac\flac.exe
Additional command line options : -6 -V -T "ARTIST=%a" -T "TITLE=%t" -T "ALBUM=%g" -T "DATE=%y" -T "TRACKNUMBER=%n" -T "GENRE=%m" -T "COMMENT=%e" %s -o %d


TOC of the extracted CD

Track | Start | Length | Start sector | End sector
––––––––––––––––––––––––––––-
1 | 0:00.00 | 18:30.17 | 0 | 83266
2 | 18:30.17 | 7:10.10 | 83267 | 115526
3 | 25:40.27 | 12:50.31 | 115527 | 173307
4 | 38:30.58 | 17:40.26 | 173308 | 252833
5 | 56:11.09 | 10:16.08 | 252834 | 299041
6 | 66:27.17 | 10:31.07 | 299042 | 346373


Track 1

Filename F:\Mijn Muziek Flac\Klaus Schulze La Vie Electronique III\Cd 2\01-Allumer.wav

Pre-gap length 0:00:02.00

Peak level 83.2 %
Track quality 100.0 %
Test CRC B36C0386
Copy CRC B36C0386
Track not present in AccurateRip database
Copy OK

Track 2

Filename F:\Mijn Muziek Flac\Klaus Schulze La Vie Electronique III\Cd 2\02-Luer.wav

Peak level 83.8 %
Track quality 100.0 %
Test CRC 1E9CE1C5
Copy CRC 1E9CE1C5
Track not present in AccurateRip database
Copy OK

Track 3

Filename F:\Mijn Muziek Flac\Klaus Schulze La Vie Electronique III\Cd 2\03-Die Lebendige Spur.wav

Pre-gap length 0:00:05.00

Peak level 92.9 %
Track quality 100.0 %
Test CRC CD895DF6
Copy CRC CD895DF6
Track not present in AccurateRip database
Copy OK

Track 4

Filename F:\Mijn Muziek Flac\Klaus Schulze La Vie Electronique III\Cd 2\04-La Prйsence D'Spirit.wav

Pre-gap length 0:00:05.00

Peak level 93.7 %
Track quality 100.0 %
Test CRC 04164436
Copy CRC 04164436
Track not present in AccurateRip database
Copy OK

Track 5

Filename F:\Mijn Muziek Flac\Klaus Schulze La Vie Electronique III\Cd 2\05-TuttoVa Bene.wav

Pre-gap length 0:00:05.00

Peak level 96.8 %
Track quality 100.0 %
Test CRC F1EBD681
Copy CRC F1EBD681
Track not present in AccurateRip database
Copy OK

Track 6

Filename F:\Mijn Muziek Flac\Klaus Schulze La Vie Electronique III\Cd 2\06-You Don't Have To Win.wav

Peak level 96.8 %
Track quality 100.0 %
Test CRC E87C29CA
Copy CRC E87C29CA
Track not present in AccurateRip database
Copy OK


None of the tracks are present in the AccurateRip database

No errors occurred

End of status report

Exact Audio Copy V0.99 prebeta 4 from 23. January 2008

EAC extraction logfile from 15. August 2009, 16:44

Klaus Schulze / La Vie Electronique III

Used drive : PLEXTOR DVDR PX-810SA Adapter: 4 ID: 1

Read mode : Secure
Utilize accurate stream : Yes
Defeat audio cache : Yes
Make use of C2 pointers : No

Read offset correction : 48
Overread into Lead-In and Lead-Out : No
Fill up missing offset samples with silence : Yes
Delete leading and trailing silent blocks : No
Null samples used in CRC calculations : Yes
Used interface : Native Win32 interface for Win NT & 2000
Gap handling : Appended to previous track

Used output format : User Defined Encoder
Selected bitrate : 1024 kBit/s
Quality : High
Add ID3 tag : Yes
Command line compressor : C:\Program Files\Exact Audio Copy\Flac\flac.exe
Additional command line options : -6 -V -T "ARTIST=%a" -T "TITLE=%t" -T "ALBUM=%g" -T "DATE=%y" -T "TRACKNUMBER=%n" -T "GENRE=%m" -T "COMMENT=%e" %s -o %d


TOC of the extracted CD

Track | Start | Length | Start sector | End sector
––––––––––––––––––––––––––––-
1 | 0:00.00 | 7:15.23 | 0 | 32647
2 | 7:15.23 | 7:02.55 | 32648 | 64352
3 | 14:18.03 | 12:25.12 | 64353 | 120239
4 | 26:43.15 | 5:29.68 | 120240 | 144982
5 | 32:13.08 | 11:41.35 | 144983 | 197592
6 | 43:54.43 | 15:11.32 | 197593 | 265949
7 | 59:06.00 | 4:15.00 | 265950 | 285074
8 | 63:21.00 | 7:06.20 | 285075 | 317044
9 | 70:27.20 | 9:23.08 | 317045 | 359277


Track 1

Filename F:\Mijn Muziek Flac\Klaus Schulze La Vie Electronique III\Cd 3\01-Fьr Vaterland Und Menschenfresser.wav

Pre-gap length 0:00:02.00

Peak level 75.2 %
Track quality 99.9 %
Test CRC 56922ACA
Copy CRC 56922ACA
Track not present in AccurateRip database
Copy OK

Track 2

Filename F:\Mijn Muziek Flac\Klaus Schulze La Vie Electronique III\Cd 3\02-Paternoster.wav

Peak level 72.9 %
Track quality 99.9 %
Test CRC 97AB1D62
Copy CRC 97AB1D62
Track not present in AccurateRip database
Copy OK

Track 3

Filename F:\Mijn Muziek Flac\Klaus Schulze La Vie Electronique III\Cd 3\03-Es War Ein Sonnenstrahl.wav

Peak level 96.3 %
Track quality 99.9 %
Test CRC 5475E8B9
Copy CRC 5475E8B9
Track not present in AccurateRip database
Copy OK

Track 4

Filename F:\Mijn Muziek Flac\Klaus Schulze La Vie Electronique III\Cd 3\04-II Dolce Far Niente.wav

Peak level 95.4 %
Track quality 100.0 %
Test CRC 7CDB417E
Copy CRC 7CDB417E
Track not present in AccurateRip database
Copy OK

Track 5

Filename F:\Mijn Muziek Flac\Klaus Schulze La Vie Electronique III\Cd 3\05-Semper Idem.wav

Pre-gap length 0:00:04.01

Peak level 92.4 %
Track quality 100.0 %
Test CRC A6586841
Copy CRC A6586841
Track not present in AccurateRip database
Copy OK

Track 6

Filename F:\Mijn Muziek Flac\Klaus Schulze La Vie Electronique III\Cd 3\06-Wann Soll Man Springen .wav

Pre-gap length 0:00:04.00

Peak level 92.4 %
Track quality 100.0 %
Test CRC 1F02A4D0
Copy CRC 1F02A4D0
Track not present in AccurateRip database
Copy OK

Track 7

Filename F:\Mijn Muziek Flac\Klaus Schulze La Vie Electronique III\Cd 3\07-Experimentelle Bagatelle.wav

Pre-gap length 0:00:04.00

Peak level 92.9 %
Track quality 99.9 %
Test CRC 88433D6F
Copy CRC 88433D6F
Track not present in AccurateRip database
Copy OK

Track 8

Filename F:\Mijn Muziek Flac\Klaus Schulze La Vie Electronique III\Cd 3\08-Kurzes Stьck Im Alten Stil.wav

Pre-gap length 0:00:04.00

Peak level 93.6 %
Track quality 100.0 %
Test CRC 6CB02903
Copy CRC 6CB02903
Track not present in AccurateRip database
Copy OK

Track 9

Filename F:\Mijn Muziek Flac\Klaus Schulze La Vie Electronique III\Cd 3\09-Gewitter.wav

Pre-gap length 0:00:04.00

Peak level 93.2 %
Track quality 100.0 %
Test CRC CC548621
Copy CRC CC548621
Track not present in AccurateRip database
Copy OK


None of the tracks are present in the AccurateRip database

No errors occurred

End of status report




All thanks to original releaser

More interesting music in My Blog