Subcategories

Kokomo - Rise And Shine! (1975) {Epic Japan}

Posted By: tiburon
Kokomo - Rise And Shine! (1975) {Epic Japan}

Kokomo - Rise And Shine! (1975) {Epic Japan}
EAC 1.0b4 | FLAC tracks level 8 | Cue+Log+M3u | Full Scans 300dpi | 291MB + 5% Recovery
MP3 CBR 320 Kbps | 124MB + 5% Recovery
Genre: Funk, Soul

Rising out of the London pub scene with precisely the kind of loose, frenetic brand of funk which other British bands had signally failed to achieve (let alone perfect), Kokomo then defied even more laws of averages by turning out an album which recaptured their live feel with acres to spare. Bluntly, Rise and Shine! stands as the finest British funk album of the 1970s, a set which counts only Roogalator among its rivals, but squeaks past by virtue of that group's failure to truly get it on in the studio. The opening "Use Your Imagination" has enough funkadelia around its edges to salve the most demanding palate, while "Little Girl" might borrow its vocal arrangements from something slick by Hall & Oates, but nobody told the instruments that. Occasionally the sublime groove does fade – "That's Enough" is a ponderous dirge, again looking towards Hall & Oates for its impetus, and the strangely staccato ballad "Without Me" might have slipped off Bowie's Young Americans. But the title track is insistently nasty, while "Do It Right" and "Feelin' Good" are primal growlers in solid Sly Stone mold. With only "Rise and Shine" breaking the five minute barrier, the album does err on the side of concise caution – live, Kokomo were capable of some truly gargantuan grooves, and it would have been rewarding to catch a couple on vinyl. But still it is a pulse-pounding package, plus it packs one of the most appropriate sleeves of the era as well. Kokomo hit everyone with the force of an express train.
Track List
1. Use Your Imagination (04:07)
2. Little Girl (03:46)
3. That's Enough (04:51)
4. Rise And Shine (05:20)
5. Without Me (03:47)
6. Do It Right (03:00)
7. Angel Love (04:19)
8. Happy Birthday (03:21)
9. Feelin' Good (04:54)

musicians
Alto Saxophone – Mel Collins (tracks: 5, 7)
Arranged By [Horns, Strings] – Mike Lewis (7) (tracks: 1, 2, 4 to 9)
Arranged By [Horns] – Mel Collins (tracks: 3)
Bass Guitar – Alan Spenner
Drums, Percussion – John Sussewell
Flute – Mel Collins (tracks: 3, 8)
Guitar – Neil Hubbard
Keyboards – Tony O'Malley
Lead Vocals – Alan Spenner (tracks: 1), Dyan Birch (tracks: 5, 7), Frank Collins (tracks: 2, 3), Paddy McHugh (tracks: 2, 8), Tony O'Malley (tracks: 4, 6, 9)
Soprano Saxophone – Mel Collins (tracks: 6, 9)
Tambourine – Brad Shapiro (tracks: 7)
Tenor Saxophone – Mel Collins (tracks: 1, 2, 6, 9)
Vocals – Dyan Birch, Frank Collins, Frank Collins, Paddy McHugh, Paddy McHugh

Produced by Brad Shapiro


Exact Audio Copy V1.0 beta 4 from 7. December 2014

EAC extraction logfile from 17. December 2017, 0:37

Kokomo / Rise And Shine!

Used drive : TSSTcorpDVD+-RW TS-H653B Adapter: 1 ID: 0

Read mode : Secure
Utilize accurate stream : Yes
Defeat audio cache : Yes
Make use of C2 pointers : No

Read offset correction : 6
Overread into Lead-In and Lead-Out : No
Fill up missing offset samples with silence : Yes
Delete leading and trailing silent blocks : No
Null samples used in CRC calculations : Yes
Used interface : Native Win32 interface for Win NT & 2000
Gap handling : Appended to previous track

Used output format : User Defined Encoder
Selected bitrate : 128 kBit/s
Quality : High
Add ID3 tag : No
Command line compressor : C:\Program Files (x86)\Exact Audio Copy\Flac\flac.exe
Additional command line options : -8 -V -T "ARTIST=%artist%" -T "TITLE=%title%" -T "ALBUM=%albumtitle%" -T "DATE=%year%" -T "TRACKNUMBER=%tracknr%" -T "TOTALTRACKS=%numtracks%" -T "GENRE=%genre%" -T "ALBUMARTIST=%albumartist%" -T "ALBUM ARTIST=%albumartist%" -T "COMMENT=EAC Secure Mode, Test & Copy, AccurateRip, FLAC -8" %source%


TOC of the extracted CD

Track | Start | Length | Start sector | End sector
––––––––––––––––––––––––––––-
1 | 0:00.00 | 4:10.35 | 0 | 18784
2 | 4:10.35 | 3:49.02 | 18785 | 35961
3 | 7:59.37 | 4:54.26 | 35962 | 58037
4 | 12:53.63 | 5:23.22 | 58038 | 82284
5 | 18:17.10 | 3:50.03 | 82285 | 99537
6 | 22:07.13 | 3:03.17 | 99538 | 113279
7 | 25:10.30 | 4:22.30 | 113280 | 132959
8 | 29:32.60 | 3:24.36 | 132960 | 148295
9 | 32:57.21 | 4:54.11 | 148296 | 170356


Track 1

Filename C:\extract\albums\Kokomo - Rise And Shine! (1975) [FLAC] {EICP 7078 Japan - 2002}\01 - Use Your Imagination.wav

Pre-gap length 0:00:02.00

Peak level 100.0 %
Extraction speed 4.3 X
Track quality 100.0 %
Test CRC 8A2E4542
Copy CRC 8A2E4542
Accurately ripped (confidence 1) [D5E2AA10] (AR v2)
Copy OK

Track 2

Filename C:\extract\albums\Kokomo - Rise And Shine! (1975) [FLAC] {EICP 7078 Japan - 2002}\02 - Little Girl.wav

Pre-gap length 0:00:02.72

Peak level 99.9 %
Extraction speed 4.7 X
Track quality 100.0 %
Test CRC A47FF3C0
Copy CRC A47FF3C0
Accurately ripped (confidence 1) [4875BD87] (AR v2)
Copy OK

Track 3

Filename C:\extract\albums\Kokomo - Rise And Shine! (1975) [FLAC] {EICP 7078 Japan - 2002}\03 - That's Enough.wav

Pre-gap length 0:00:02.54

Peak level 99.1 %
Extraction speed 5.3 X
Track quality 100.0 %
Test CRC 12B9E3B0
Copy CRC 12B9E3B0
Accurately ripped (confidence 1) [5030508A] (AR v2)
Copy OK

Track 4

Filename C:\extract\albums\Kokomo - Rise And Shine! (1975) [FLAC] {EICP 7078 Japan - 2002}\04 - Rise And Shine.wav

Pre-gap length 0:00:02.60

Peak level 100.0 %
Extraction speed 5.9 X
Track quality 100.0 %
Test CRC 85DFE170
Copy CRC 85DFE170
Accurately ripped (confidence 1) [B5BA235B] (AR v2)
Copy OK

Track 5

Filename C:\extract\albums\Kokomo - Rise And Shine! (1975) [FLAC] {EICP 7078 Japan - 2002}\05 - Without Me.wav

Pre-gap length 0:00:02.44

Peak level 100.0 %
Extraction speed 4.9 X
Track quality 99.9 %
Test CRC D83B41D3
Copy CRC D83B41D3
Accurately ripped (confidence 1) [44CB1E30] (AR v2)
Copy OK

Track 6

Filename C:\extract\albums\Kokomo - Rise And Shine! (1975) [FLAC] {EICP 7078 Japan - 2002}\06 - Do It Right.wav

Pre-gap length 0:00:02.68

Peak level 100.0 %
Extraction speed 4.7 X
Track quality 99.9 %
Test CRC 4D7BE28C
Copy CRC 4D7BE28C
Accurately ripped (confidence 1) [35F65014] (AR v2)
Copy OK

Track 7

Filename C:\extract\albums\Kokomo - Rise And Shine! (1975) [FLAC] {EICP 7078 Japan - 2002}\07 - Angel Love.wav

Pre-gap length 0:00:02.31

Peak level 98.1 %
Extraction speed 6.7 X
Track quality 100.0 %
Test CRC 04366FCC
Copy CRC 04366FCC
Accurately ripped (confidence 1) [7442A031] (AR v2)
Copy OK

Track 8

Filename C:\extract\albums\Kokomo - Rise And Shine! (1975) [FLAC] {EICP 7078 Japan - 2002}\08 - Happy Birthday.wav

Pre-gap length 0:00:02.57

Peak level 100.0 %
Extraction speed 5.2 X
Track quality 99.9 %
Test CRC 94080F2C
Copy CRC 94080F2C
Accurately ripped (confidence 1) [FF0A254D] (AR v2)
Copy OK

Track 9

Filename C:\extract\albums\Kokomo - Rise And Shine! (1975) [FLAC] {EICP 7078 Japan - 2002}\09 - Feelin' Good.wav

Pre-gap length 0:00:02.39

Peak level 100.0 %
Extraction speed 6.1 X
Track quality 99.9 %
Test CRC 93FCB061
Copy CRC 93FCB061
Accurately ripped (confidence 1) [6B64AE43] (AR v2)
Copy OK


All tracks accurately ripped

No errors occurred

End of status report

–– CUETools DB Plugin V2.1.4

[CTDB TOCID: mstqIPatBkFcC5PEbFauvTAoCJA-] found
Submit result: mstqIPatBkFcC5PEbFauvTAoCJA- has been confirmed
Track | CTDB Status
1 | (1/2) Accurately ripped, or (1/2) differs in 256 samples @00:16:32
2 | (2/2) Accurately ripped
3 | (2/2) Accurately ripped
4 | (2/2) Accurately ripped
5 | (2/2) Accurately ripped
6 | (2/2) Accurately ripped
7 | (2/2) Accurately ripped
8 | (2/2) Accurately ripped
9 | (2/2) Accurately ripped


==== Log checksum 74E74F2C26C6E0C6AA3C0B1399D30CF134CE0081DD47CB4BB53A7E16AC400165 ====

Kokomo - Rise And Shine! (1975) {Epic Japan}
Kokomo - Rise And Shine! (1975) {Epic Japan}


Thanks to the original ripper