Subcategories

Kraftklub - Randale Live 2015 (2019) [BDRip 1080p]

Posted By: juanchito
Kraftklub - Randale Live 2015 (2019) [BDRip 1080p]

Kraftklub - Randale Live 2015 (2019)
BDRip 1080p | MKV | 1920 x 1080 x264 2PASS - 8842 kbps | 7.94 GB
Audio: German DTS 5.1 @ 1509 kbps | Length: 01:49:00
Genre: Indie Rock, Punk Rock, Rap Rock


Kraftklub is a five-person band from Chemnitz, Germany. Their music combines rock / indie and Sprechgesang with German lyrics and is generally considered to be a mixture of rap and indie.

Kraftklub were founded in 2009, when rapper Felix Brummer (who went by the alias Bernd Bass back then) teamed up with rock band Neon Blocks to record a number of songs mixing indie rock and German-language rap.

Kraftklub - Randale Live 2015 (2019) [BDRip 1080p]

Kraftklub - Randale Live 2015 (2019) [BDRip 1080p]

Kraftklub - Randale Live 2015 (2019) [BDRip 1080p]


Tracklist
01. Fur immer
02. Eure Madchen
03. Ich will nicht nach Berlin
04. Juppe fur's Gehirn
05. Mein Leben
06. Alles wegen Dir
07. Unsere Fans
08. Meine Stadt ist zu laut
09. Hand in Hand
10. Irgendeine Nummer
11. Wie ich
12. Mit K - Medley
13. Deine Gang
14. Blau
15. Schusse in die Luft
16. Karl-Marx-Stadt
17. Songs fur Liam
18. Randale
19. Schei?indiedisko
20. Abspann / Schlagerstar
21. Kleine Laden, gro?e Liebe - Klubtour 2015
22. Schwarz fahren - Inschwarz-Tour 2016
23. Songs fur Liam (Live At Lido Berlin, Germany/2015)
24. Mein Rad (Live In Munster, Germany/2015)
25. Zwei Dosen Sprite (Live In Leipzig, Germany/2015)

General
Unique ID : 198514628280658753678230387449100090677 (0x955886D5D76BE620B7B2F379C9C9BD35)
Complete name : A:\Roberto Cumbreta\Kraftklub.Randale.Live.2015.GERMAN.720p.MBLURAY.x264-MUSiCBD4U\kraftklub.randale.live.2015.german.720p.bluray.x264-musicbd4u.mkv
Format : Matroska
Format version : Version 4
File size : 4.37 GiB
Duration : 1 h 49 min
Overall bit rate : 5 694 kb/s
Encoded date : UTC 2019-06-03 13:18:11
Writing application : mkvmerge v7.9.0 ('Birds') 64bit
Writing library : libebml v1.3.1 + libmatroska v1.4.2

Video
ID : 1
Format : AVC
Format/Info : Advanced Video Codec
Format profile : High@L4.1
Format settings : CABAC / 5 Ref Frames
Format settings, CABAC : Yes
Format settings, Reference frames : 5 frames
Codec ID : V_MPEG4/ISO/AVC
Duration : 1 h 49 min
Bit rate : 4 183 kb/s
Width : 1 280 pixels
Height : 720 pixels
Display aspect ratio : 16:9
Frame rate mode : Constant
Frame rate : 25.000 FPS
Color space : YUV
Chroma subsampling : 4:2:0
Bit depth : 8 bits
Scan type : Progressive
Bits/(Pixel*Frame) : 0.182
Stream size : 3.21 GiB (73%)
Writing library : x264 core 157 r2969 d4099dd
Encoding settings : cabac=1 / ref=5 / deblock=1:0:0 / analyse=0x3:0x133 / me=umh / subme=7 / psy=1 / psy_rd=1.00:0.00 / mixed_ref=1 / me_range=16 / chroma_me=1 / trellis=2 / 8x8dct=1 / cqm=0 / deadzone=21,11 / fast_pskip=0 / chroma_qp_offset=-2 / threads=18 / lookahead_threads=3 / sliced_threads=0 / nr=0 / decimate=1 / interlaced=0 / bluray_compat=0 / constrained_intra=0 / bframes=3 / b_pyramid=2 / b_adapt=1 / b_bias=0 / direct=3 / weightb=1 / open_gop=0 / weightp=2 / keyint=250 / keyint_min=25 / scenecut=40 / intra_refresh=0 / rc_lookahead=50 / rc=2pass / mbtree=1 / bitrate=4183 / ratetol=1.0 / qcomp=0.60 / qpmin=0 / qpmax=69 / qpstep=4 / cplxblur=20.0 / qblur=0.5 / ip_ratio=1.40 / aq=1:1.00
Language : German
Default : Yes
Forced : No

Audio
ID : 2
Format : DTS
Format/Info : Digital Theater Systems
Codec ID : A_DTS
Duration : 1 h 49 min
Bit rate mode : Constant
Bit rate : 1 509 kb/s
Channel(s) : 6 channels
Channel layout : C L R Ls Rs LFE
Sampling rate : 48.0 kHz
Frame rate : 93.750 FPS (512 SPF)
Bit depth : 24 bits
Compression mode : Lossy
Stream size : 1.16 GiB (26%)
Title : DTS
Language : German
Default : Yes
Forced : No

Menu
00:00:00.000 : de:00:00:00.000
00:03:48.200 : de:00:03:48.200
00:08:16.080 : de:00:08:16.080
00:12:46.320 : de:00:12:46.320
00:17:17.760 : de:00:17:17.760
00:20:54.880 : de:00:20:54.880
00:25:38.840 : de:00:25:38.840
00:30:53.280 : de:00:30:53.280
00:36:45.280 : de:00:36:45.280
00:42:33.720 : de:00:42:33.720
00:47:16.920 : de:00:47:16.920
00:51:51.360 : de:00:51:51.360
01:03:10.280 : de:01:03:10.280
01:10:55.800 : de:01:10:55.800
01:17:45.680 : de:01:17:45.680
01:22:02.880 : de:01:22:02.880
01:27:19.760 : de:01:27:19.760
01:33:06.360 : de:01:33:06.360
01:40:04.000 : de:01:40:04.000
01:45:52.280 : de:01:45:52.280




Thanks to the original uploader