Subcategories

Kris Wiley - Breaking The Rules (1999)

Posted By: popsakov
Kris Wiley - Breaking The Rules (1999)

Kris Wiley - Breaking The Rules (1999)
EAC Rip | APE, Img+Cue, Log+Checker ~ 383 Mb | MP3 CBR320 ~ 127 Mb
Scans Included (JPG, 400 dpi) | FileSonic, FileServe, Uploaded | 3% Recovery
Blues | Label: JSP Records | Catalog#: JSPCD2126

Kris Wiley - L.A. female blues guitarist.
Recorded at Pacifica Studio, Los Angeles, California. Includes liner notes by Rich Delgrasso.
Kris Wiley - Breaking The Rules (1999)

Track List:

01. Countdown To Heartache [05:06]
02. Faith In The Wrong People [04:27]
03. Here We Go [05:10]
04. Ain't Nobody's Business [04:23]
05. Two Long Leg [04:09]
06. Working Late [06:22]
07. Bad Situation [05:11]
08. Can't Stand Losing Me [04:51]
09. Iceman - One For Albert [04:46]
10. Two Timin' Man [05:11]

Personnel: Kris Wiley, Kirk Fletcher (guitar); Jonny Viau (tenor saxophone); Troy Jennings (baritone saxophone); Robbie Smith (trumpet); Tom Mahon (piano); Arlan Schierbaum (Hammond B-3 organ); Carl Sealove (bass); Paul Fasulo (drums).

Exact Audio Copy V0.99 prebeta 4 from 23. January 2008

Отчёт EAC об извлечении, выполненном 21. апреля 2011, 4:41

Kris Wilwy / Breaking The Rules

Дисковод: PIONEER DVD-RW DVR-118L Adapter: 0 ID: 0

Режим чтения : Достоверность
Использование точного потока : Да
Отключение кэша аудио : Да
Использование указателей C2 : Нет

Коррекция смещения при чтении : 6
Способность читать области Lead-in и Lead-out : Нет
Заполнение пропущенных сэмплов тишиной : Да
Удаление блоков с тишиной в начале и конце : Нет
При вычислениях CRC использовались нулевые сэмплы : Да
Интерфейс : Встроенный Win32-интерфейс для Win NT/2000

Выходной формат : Внутренние WAV-операции
Формат сэмплов : 44.100 Гц; 16 бит; стерео


TOC извлечённого CD

Трек | Старт | Длительность | Начальный сектор | Конечный сектор
––––––––––––––––––––––––––––––––––-
1 | 0:00.00 | 5:07.27 | 0 | 23051
2 | 5:07.27 | 4:26.36 | 23052 | 43037
3 | 9:33.63 | 5:11.68 | 43038 | 66430
4 | 14:45.56 | 4:23.13 | 66431 | 86168
5 | 19:08.69 | 4:09.38 | 86169 | 104881
6 | 23:18.32 | 6:21.49 | 104882 | 133505
7 | 29:40.06 | 5:09.53 | 133506 | 156733
8 | 34:49.59 | 4:51.45 | 156734 | 178603
9 | 39:41.29 | 4:47.03 | 178604 | 200131
10 | 44:28.32 | 5:08.40 | 200132 | 223271


Характеристики диапазона извлечения и сообщения об ошибках

Выбранный диапазон

Имя файла D:\КОЛЛЕКЦИЯ 11\Новая папка (15)\Kris Wilwy - Breaking The Rules.wav

Пиковый уровень 99.7 %
Качество диапазона 99.9 %
CRC теста 20D01A2B
CRC копии 20D01A2B
Копирование… OK

Ошибок не произошло


AccurateRip: сводка

Трек 1 нет в базе данных
Трек 2 точное извлечение (доверие 2) [C0DF50D0]
Трек 3 точное извлечение (доверие 2) [FDBCDF1E]
Трек 4 точное извлечение (доверие 2) [1CFD6258]
Трек 5 точное извлечение (доверие 2) [77FC4A28]
Трек 6 точное извлечение (доверие 2) [E3C41AE9]
Трек 7 точное извлечение (доверие 2) [A18CFDE2]
Трек 8 точное извлечение (доверие 2) [472A2281]
Трек 9 точное извлечение (доверие 2) [68BAA2A8]
Трек 10 точное извлечение (доверие 2) [986E07E9]

9 трек(и) скопированы точно
1 трек(и) не содержатся в базе AccurateRip

Некоторые треки не прошли проверку на точность

Конец отчёта

AUDIOCHECKER v2.0 beta (build 457) - by Dester - opdester@freemail.hu
~~~~~~~~~~~~~~~~~~~~~~~~~~~~~~~~~~
-=== НЕ РЕДАКТИРУЙТЕ ЭТОТ ФАЙЛ! ===-

Путь: …\Kris Wilwy - Breaking The Rules

1 -=- Kris Wilwy - Breaking The Rules.ape -=- CDDA (100%)

111080996

[Verification date: 20.06.2011 21:59:34]
[Disc ID: 00128d4c-0094d682-7f0ba00a]
Track [ CRC ] Status
01 [5027ec23] (00/00) No matches
02 [c0df50d0] (02/02) Accurately ripped as in pressing(s) #1
03 [fdbcdf1e] (02/02) Accurately ripped as in pressing(s) #1
04 [1cfd6258] (02/02) Accurately ripped as in pressing(s) #1
05 [77fc4a28] (02/02) Accurately ripped as in pressing(s) #1
06 [e3c41ae9] (02/02) Accurately ripped as in pressing(s) #1
07 [a18cfde2] (02/02) Accurately ripped as in pressing(s) #1
08 [472a2281] (02/02) Accurately ripped as in pressing(s) #1
09 [68baa2a8] (02/02) Accurately ripped as in pressing(s) #1
10 [986e07e9] (02/02) Accurately ripped as in pressing(s) #1

Track [ CRC32 ] [W/O NULL] [ LOG ]
– [20D01A2B] [6593944D] CRC32
01 [B611D62C] [DADD9894]
02 [188BEBFA] [CEEA3518]
03 [425909ED] [F9F01B0A]
04 [64CDA6B8] [08F54FA0]
05 [57EDD1FE] [9C9D26C8]
06 [B24F109C] [B1466B8A]
07 [98D311E1] [DAEEE163]
08 [A6450FE4] [CC9F5932]
09 [5DA86273] [4D44B4C7]
10 [52EA2DBB] [064AE34E]

Kris Wiley - Breaking The Rules (1999)

Kris Wiley - Breaking The Rules (1999)

Download:

FileSonic: APE-part 1 | APE-part 2 ||| mp3

FileServe: APE-part 1 | APE-part 2 ||| mp3

Uploaded: APE-part 1 | APE-part 2 ||| mp3

pass: avaxhome.ws

In case you encounter some dead links, please leave the comment here or send me a private message!

Visit my blog!

All thanks go to "ЗУБ2007"