Subcategories

Kristian Bezuidenhout, Gottfried von der Goltz - Mendelssohn: Double Concerto, Piano Concerto (2011)

Posted By: tirexiss
Kristian Bezuidenhout, Gottfried von der Goltz - Mendelssohn: Double Concerto, Piano Concerto (2011)

Kristian Bezuidenhout, Gottfried von der Goltz - Mendelssohn: Double Concerto, Piano Concerto (2011)
EAC | FLAC (tracks+.cue, log) | Covers Included | 1:11:36 | 309 MB
Genre: Classical | Label: Harmonia Mundi | Catalog: HMC902082

For those new to Mendelssohn's music, this might look like a recording of some major works of the composer; be aware that they're virtually unknown music of Mendelssohn's early teens, first published in complete form only in 1999. For those already a fan of Mendelssohn, however, they're very intriguing works that show the developing talents of the young composer in a different light than do the set of twelve-string symphonies that are his most frequently performed works of the period. Those pieces are elegant, compact exegeses in Mozartian style, but the two concertos here show Mendelssohn engaging, not with Beethoven (with whom nobody except perhaps Schubert had quite come to grips), but with the expansive structures of Hummel and Carl Maria von Weber. It's remarkable how well he did. The 15-minute first movement of the Piano Concerto in A minor (1822) is a bit diffuse, but the slow movement offers a fine display of Mendelssohn's distinctive melodic gift. Even more striking is the slightly later Double Concerto for piano, violin, and orchestra in D minor. Sample the opening movement up through where the piano and violin enter: you're in a different world from Mozart, and Mendelssohn keeps you completely guessing as to how the relative roles of the soloists are going to develop. Beyond the merits of the music are the splendid performances of the music by historical-instrument specialist Kristian Bezuidenhout, playing a modern American replica of a piano almost exactly contemporaneous with the music, ably supported by the Freiburg Baroque Orchestra under Gottfried von der Goltz (who also plays the violin in the Double Concerto). The balance, the exuberant mood, the still slightly gawky quality of the music: all are just right in a recording tailor-made for giving to someone who really likes Mendelssohn.

Kristian Bezuidenhout, Gottfried von der Goltz - Mendelssohn: Double Concerto, Piano Concerto (2011)

Track List:

Konzert a-Moll für Klavier und Streichorchester, MWV O2 (1822)
01. I. Allegro [00:14:53]
02. II. Adagio [00:09:13]
03. III. Finale ma non troppo [00:10:16]

Konzert d-Moll für Violine, Klavier und Orchester, MWV O4 (1823)
04. I. Allegro [00:18:20]
05. II. Adagio [00:09:42]
06. III. Allegro molto [00:09:12]

Performers:
Kristian Bezuidenhout - piano
Gottfried von der Goltz - violin
Freiburger Barockorchester
Conductor: Gottfried von der Goltz

Exact Audio Copy V1.0 beta 3 from 29. August 2011

EAC extraction logfile from 26. November 2011, 20:48

Kristian Bezuidenhout (Fortepiano), Gottfried von der Goltz (Violin and direction), Freiburger Barockorchester / Mendelssohn: Double Concerto for Violin & Piano; Piano Concerto in A minor

Used drive : BENQ DVD DC DW240S Adapter: 2 ID: 0

Read mode : Secure
Utilize accurate stream : Yes
Defeat audio cache : Yes
Make use of C2 pointers : No

Read offset correction : 6
Overread into Lead-In and Lead-Out : No
Fill up missing offset samples with silence : Yes
Delete leading and trailing silent blocks : No
Null samples used in CRC calculations : Yes
Used interface : Native Win32 interface for Win NT & 2000
Gap handling : Appended to previous track

Used output format : User Defined Encoder
Selected bitrate : 1024 kBit/s
Quality : High
Add ID3 tag : No
Command line compressor : C:\Program Files (x86)\Exact Audio Copy\FLAC\FLAC.EXE
Additional command line options : -8 -V -T "ARTIST=%artist%" -T "TITLE=%title%" -T "ALBUM=%albumtitle%" -T "DATE=%year%" -T "TRACKNUMBER=%tracknr%" -T "GENRE=%genre%" -T "PERFORMER=%albuminterpret%" -T "COMPOSER=%composer%" %haslyrics%–tag-from-file=LYRICS="%lyricsfile%"%haslyrics% -T "ALBUMARTIST=%albumartist%" -T "DISCNUMBER=%cdnumber%" -T "TOTALDISCS=%totalcds%" -T "TOTALTRACKS=%numtracks%" -T "COMMENT=%comment%" %source% -o %dest%


TOC of the extracted CD

Track | Start | Length | Start sector | End sector
––––––––––––––––––––––––––––-
1 | 0:00.00 | 14:53.02 | 0 | 66976
2 | 14:53.02 | 9:13.20 | 66977 | 108471
3 | 24:06.22 | 10:16.60 | 108472 | 154731
4 | 34:23.07 | 18:20.19 | 154732 | 237250
5 | 52:43.26 | 9:42.72 | 237251 | 280972
6 | 62:26.23 | 9:12.18 | 280973 | 322390


Track 1

Filename J:\[2011] Mendelssohn Double Concerto for Violin & Piano and Concerto for Piano and Strings - Bezuidenhout\01 - Concerto for Piano and Strings MWV02 - I.Allegro.wav

Pre-gap length 0:00:02.00

Peak level 80.1 %
Extraction speed 6.0 X
Track quality 100.0 %
Test CRC CFCF1F7D
Copy CRC CFCF1F7D
Track not present in AccurateRip database
Copy OK

Track 2

Filename J:\[2011] Mendelssohn Double Concerto for Violin & Piano and Concerto for Piano and Strings - Bezuidenhout\02 - Concerto for Piano and Strings MWV02 - II.Adagio.wav

Peak level 57.9 %
Extraction speed 7.1 X
Track quality 100.0 %
Test CRC 92FD6443
Copy CRC 92FD6443
Track not present in AccurateRip database
Copy OK

Track 3

Filename J:\[2011] Mendelssohn Double Concerto for Violin & Piano and Concerto for Piano and Strings - Bezuidenhout\03 - Concerto for Piano and Strings MWV02 - III.Finale ma non troppo.wav

Peak level 96.5 %
Extraction speed 8.0 X
Track quality 100.0 %
Test CRC DB071546
Copy CRC DB071546
Track not present in AccurateRip database
Copy OK

Track 4

Filename J:\[2011] Mendelssohn Double Concerto for Violin & Piano and Concerto for Piano and Strings - Bezuidenhout\04 - Double Concerto for Piano, Violin and Orchestra MWV04 - I.Allegro.wav

Pre-gap length 0:00:06.73

Peak level 98.8 %
Extraction speed 8.9 X
Track quality 99.9 %
Test CRC B3218A22
Copy CRC B3218A22
Track not present in AccurateRip database
Copy OK

Track 5

Filename J:\[2011] Mendelssohn Double Concerto for Violin & Piano and Concerto for Piano and Strings - Bezuidenhout\05 - Double Concerto for Piano, Violin and Orchestra MWV04 - II.Adagio.wav

Peak level 35.0 %
Extraction speed 9.1 X
Track quality 99.9 %
Test CRC 01C3B983
Copy CRC 01C3B983
Track not present in AccurateRip database
Copy OK

Track 6

Filename J:\[2011] Mendelssohn Double Concerto for Violin & Piano and Concerto for Piano and Strings - Bezuidenhout\06 - Double Concerto for Piano, Violin and Orchestra MWV04 - III.Allegro molto.wav

Peak level 98.8 %
Extraction speed 10.5 X
Track quality 100.0 %
Test CRC FF149AA6
Copy CRC FF149AA6
Track not present in AccurateRip database
Copy OK


None of the tracks are present in the AccurateRip database

No errors occurred

End of status report

–– CUETools DB Plugin V2.1.3

[CTDB TOCID: AmqEfEziVNbpMgJwcTO28cr.P5Q-] found, Submit result: already submitted
[747ffd3f] (4/4) Accurately ripped


==== Log checksum AC1F0A0DB5A898763E66EC1F41CA526AF53E2B3C5CC1C1A608D2018D2984063A ====

[CUETools log; Date: 03.02.2018 18:06:51; Version: 2.1.5]
[CTDB TOCID: AmqEfEziVNbpMgJwcTO28cr.P5Q-] found.
Track | CTDB Status
1 | (46/46) Accurately ripped
2 | (46/46) Accurately ripped
3 | (46/46) Accurately ripped
4 | (46/46) Accurately ripped
5 | (43/46) Accurately ripped
6 | (45/46) Accurately ripped
[AccurateRip ID: 0011dd6c-005eb699-5b10ca06] found.
Track [ CRC | V2 ] Status
01 [2fa7d447|eaaa8e23] (03+29/32) Accurately ripped
02 [54384aa3|00ba9f44] (03+30/33) Accurately ripped
03 [47f98cf1|6b090bcd] (03+31/34) Accurately ripped
04 [0ce97dca|d593f1ac] (03+31/34) Accurately ripped
05 [8ff5910c|fc51ff12] (03+30/33) Accurately ripped
06 [dfc42330|b57eb5d6] (03+30/33) Accurately ripped

Track Peak [ CRC32 ] [W/O NULL] [ LOG ]
– 98,8 [2292CF5B] [C092B348]
01 80,1 [CFCF1F7D] [FDA2F260] CRC32
02 57,9 [92FD6443] [BEE78009] CRC32
03 96,5 [DB071546] [754081D4] CRC32
04 98,8 [B3218A22] [C83FE297] CRC32
05 35,0 [01C3B983] [28909BD6] CRC32
06 98,8 [FF149AA6] [B18481B8] CRC32

Thanks to the Original ripper (unknown)!

Download: