Subcategories

Lenny Bruce - The Lenny Bruce Originals Volume 1 (1991) {Fantasy} **[RE-UP]**

Posted By: TestTickles
Lenny Bruce - The Lenny Bruce Originals Volume 1 (1991) {Fantasy} **[RE-UP]**

Lenny Bruce - The Lenny Bruce Originals Volume 1 (1991) {Fantasy}
EAC Rip | FLAC with CUE and log | scans | 235 mb
MP3 CBR 320kbps | RAR | 166 mb
Genre: comedy

The Lenny Bruce Originals Volume 1 is a compilation CD by comedian Lenny Bruce. It puts together material from three different albums by Bruce originally released on the Fantasy label of material recorded in 1958. This was released by Fantasy Records.

Lenny Bruce - The Lenny Bruce Originals Volume 1 (1991) {Fantasy} **[RE-UP]**

1. The Interview (2:34)
2. Djinni In The Candy Store (1:53)
3. Enchanting Transylvania (2:54)
4. Interview With Dr. Sholem Stein (8:00)
5. The March Of High Fidelity (4:54)
6. Maria Ouspenskaya Interview (0:14)
7. Father Flotsky's Triumph (Unexpurgated) (7:52)
8. All Broadway Musicals Sound The Same, Especially The Baritones (0:43)
9. Shorty Petterstein Interview (4:17)
10. Non Skeddo Flies Again (7:59)
11. The Kid In The Well (2:58)
12. Adolph Hitler And The MCA (7:12)
13. Ike, Sherm, And Nick (6:01)
14. Psychopathia Sexualis (2:25)
15. Religions Inc. (9:46)
16. Three Message Movies
a) Narcotics
b) Truth
c) Tolerance (4:28)

Liner notes by Grover Sales
Mastered by Kirk Felton

Material originally released on the following albums
Interviews Of Our Times (1958) (tracks 1 to 6, 8 & 9)
Lenny Bruce - American (1961) (tracks 7 & 16)
The Sick Humor Of Lenny Bruce (1959) (tracks 10 to 15)

EAC extraction logfile from 21. April 2007, 2:33 for CD
Lenny Bruce / The Lenny Bruce Originals Volume 1

Used drive : HL-DT-STCDRW/DVD GCC4482 Adapter: 1 ID: 0
Read mode : Secure with NO C2, accurate stream, disable cache
Read offset correction : 6
Overread into Lead-In and Lead-Out : No

Used output format : C:\Eac\Codecs\flac.exe (User Defined Encoder)
320 kBit/s
Additional command line options : -8 -V -T "artist=%a" -T "title=%t" -T "album=%g" -T "date=%y" -T "tracknumber=%n" -T "genre=%m" -T "comment=EAC Flac 1.1.2 -8" %s

Other options :
Fill up missing offset samples with silence : Yes
Delete leading and trailing silent blocks : No
Installed external ASPI interface


Track 1
Filename C:\FLAC\Lenny Bruce - The Lenny Bruce Originals Volume 1 (1991) [FLAC] {Fantasy}\01 - The Interview.wav

Pre-gap length 0:00:02.00

Peak level 96.6 %
Track quality 100.0 %
Test CRC CE1E905F
Copy CRC CE1E905F
Copy OK

Track 2
Filename C:\FLAC\Lenny Bruce - The Lenny Bruce Originals Volume 1 (1991) [FLAC] {Fantasy}\02 - Djinni In The Candy Store.wav

Pre-gap length 0:00:01.66

Peak level 79.4 %
Track quality 100.0 %
Test CRC 216236D1
Copy CRC 216236D1
Copy OK

Track 3
Filename C:\FLAC\Lenny Bruce - The Lenny Bruce Originals Volume 1 (1991) [FLAC] {Fantasy}\03 - Enchanting Transylvania.wav

Pre-gap length 0:00:02.06

Peak level 90.6 %
Track quality 100.0 %
Test CRC 8497E2CD
Copy CRC 8497E2CD
Copy OK

Track 4
Filename C:\FLAC\Lenny Bruce - The Lenny Bruce Originals Volume 1 (1991) [FLAC] {Fantasy}\04 - Interview With Dr. Sholem Stein.wav

Pre-gap length 0:00:03.06

Peak level 82.3 %
Track quality 100.0 %
Test CRC 7C78FD13
Copy CRC 7C78FD13
Copy OK

Track 5
Filename C:\FLAC\Lenny Bruce - The Lenny Bruce Originals Volume 1 (1991) [FLAC] {Fantasy}\05 - The March Of High Fidelity.wav

Pre-gap length 0:00:03.46

Peak level 93.1 %
Track quality 100.0 %
Test CRC AE0CEFB7
Copy CRC AE0CEFB7
Copy OK

Track 6
Filename C:\FLAC\Lenny Bruce - The Lenny Bruce Originals Volume 1 (1991) [FLAC] {Fantasy}\06 - Maria Ouspenskaya Interview.wav

Pre-gap length 0:00:02.66

Peak level 100.0 %
Track quality 100.0 %
Test CRC 4DC39EE6
Copy CRC 4DC39EE6
Copy OK

Track 7
Filename C:\FLAC\Lenny Bruce - The Lenny Bruce Originals Volume 1 (1991) [FLAC] {Fantasy}\07 - Father Flotski's Truimph (Unexpurgated).wav

Pre-gap length 0:00:02.20

Peak level 95.4 %
Track quality 100.0 %
Test CRC 393E5498
Copy CRC 393E5498
Copy OK

Track 8
Filename C:\FLAC\Lenny Bruce - The Lenny Bruce Originals Volume 1 (1991) [FLAC] {Fantasy}\08 - All Broadway Musicals Sound The Same.wav

Pre-gap length 0:00:01.86

Peak level 79.1 %
Track quality 100.0 %
Test CRC 24B82BEF
Copy CRC 24B82BEF
Copy OK

Track 9
Filename C:\FLAC\Lenny Bruce - The Lenny Bruce Originals Volume 1 (1991) [FLAC] {Fantasy}\09 - Shorty Petterstein Interview.wav

Pre-gap length 0:00:02.64

Peak level 94.6 %
Track quality 100.0 %
Test CRC FCA72AB4
Copy CRC FCA72AB4
Copy OK

Track 10
Filename C:\FLAC\Lenny Bruce - The Lenny Bruce Originals Volume 1 (1991) [FLAC] {Fantasy}\10 - Non Skeddo Flies Again.wav

Pre-gap length 0:00:02.96

Peak level 80.3 %
Track quality 100.0 %
Test CRC 4812AE30
Copy CRC 4812AE30
Copy OK

Track 11
Filename C:\FLAC\Lenny Bruce - The Lenny Bruce Originals Volume 1 (1991) [FLAC] {Fantasy}\11 - The Kid In The Well.wav

Pre-gap length 0:00:02.17

Peak level 91.7 %
Track quality 100.0 %
Test CRC DA1939BA
Copy CRC DA1939BA
Copy OK

Track 12
Filename C:\FLAC\Lenny Bruce - The Lenny Bruce Originals Volume 1 (1991) [FLAC] {Fantasy}\12 - Adolph Hitler And The M.C.A..wav

Pre-gap length 0:00:03.09

Peak level 100.0 %
Track quality 100.0 %
Test CRC F696B5D0
Copy CRC F696B5D0
Copy OK

Track 13
Filename C:\FLAC\Lenny Bruce - The Lenny Bruce Originals Volume 1 (1991) [FLAC] {Fantasy}\13 - Ike, Sherm, And Nick.wav

Pre-gap length 0:00:02.86

Peak level 86.9 %
Track quality 100.0 %
Test CRC 262D7FE6
Copy CRC 262D7FE6
Copy OK

Track 14
Filename C:\FLAC\Lenny Bruce - The Lenny Bruce Originals Volume 1 (1991) [FLAC] {Fantasy}\14 - Psychopathia Sexualis.wav

Pre-gap length 0:00:02.49

Peak level 58.0 %
Track quality 100.0 %
Test CRC C381F4AF
Copy CRC C381F4AF
Copy OK

Track 15
Filename C:\FLAC\Lenny Bruce - The Lenny Bruce Originals Volume 1 (1991) [FLAC] {Fantasy}\15 - Religions, Inc..wav

Pre-gap length 0:00:02.86

Peak level 82.0 %
Track quality 100.0 %
Test CRC 8660EDF3
Copy CRC 8660EDF3
Copy OK

Track 16
Filename C:\FLAC\Lenny Bruce - The Lenny Bruce Originals Volume 1 (1991) [FLAC] {Fantasy}\16 - Three Message Movies.wav

Pre-gap length 0:00:01.73

Peak level 97.4 %
Track quality 100.0 %
Test CRC CA9D8C46
Copy CRC CA9D8C46
Copy OK

No errors occured


End of status report


Thank you to the original uploader.

Lenny Bruce - The Lenny Bruce Originals Volume 1 (1991) {Fantasy} **[RE-UP]**