Subcategories

La Gaia Scienza - Schubert: Piano Trios (1998) (Repost)

Posted By: tirexiss
La Gaia Scienza - Schubert: Piano Trios (1998) (Repost)

La Gaia Scienza - Schubert: Piano Trios (1998)
EAC | APE (image+.cue, log) | Covers Included | 01:42:35 | 399 MB
Genre: Classical | Label: Winter & Winter | Catalog: 910018

This provides a most welcome sequel to La Gaia Scienza’s splendid account of the E flat Schubert Trio (Winter & Winter, 12/97). On that disc Federica Valli plays a Schantz fortepiano with an extremely pungent range of sonorities; here she exchanges it for an 1827 Conrad Graf instrument that is rather more suave and silvery, though recorded with equal immediacy. Indeed, the recording brings out most vividly the character of all three instruments – listen to the start of the Notturno, where the harp-like piano chords contrast most picturesquely with the grainy tone of the gut-strung strings. The memorable sound of the record is complemented by playing of exceptional physical vitality; in the triumphant middle section of the Notturno, any limitation of the sonorous impact due to the period piano is more than offset by the sheer impetus of the playing. The lightness and vivacity of D898’s finale and the forceful vigour of the first movement are equally notable.
For a period-instrument version of the Trio, this is a strong recommendation. On modern instruments, Schiff, Shiokawa and Perenyi are serious rivals – less immediately striking in terms of sound, but offering interpretations of exceptional insight and expressive range. And their two-CD set of the Trio also includes a wonderful performance of the Arpeggione Sonata. To combine the virtues of these versions of the B flat Trio, you would have to go back to the famous 1926 Cortot/Thibaud/ Casals recording.'

La Gaia Scienza - Schubert: Piano Trios (1998) (Repost)

Track List:

CD 1:
Trio in E-flat Major for Piano, Violin and Cello, Op. 100, D. 929
I. Allegro 15:22
II. Andante con moto 8:44
III. Scherzando: Allegro Moderato 6:58
IV. Allegro Moderato 13:47
Sonata in B Major for Piano, Violin and Cello, D. 28 10:33

Exact Audio Copy V0.99 prebeta 5 from 4. May 2009

EAC extraction logfile from 20. December 2010, 2:18

Schubert - La Gaia Scienza / Franz Schubert: Trio in Es-Dur Op. 100

Used drive : ASUS CRW-5232AS Adapter: 3 ID: 1

Read mode : Secure
Utilize accurate stream : Yes
Defeat audio cache : Yes
Make use of C2 pointers : No

Read offset correction : 6
Overread into Lead-In and Lead-Out : No
Fill up missing offset samples with silence : Yes
Delete leading and trailing silent blocks : No
Null samples used in CRC calculations : Yes
Used interface : Native Win32 interface for Win NT & 2000

Used output format : Internal WAV Routines
Sample format : 44.100 Hz; 16 Bit; Stereo


TOC of the extracted CD

Track | Start | Length | Start sector | End sector
––––––––––––––––––––––––––––-
1 | 0:00.00 | 15:22.22 | 0 | 69171
2 | 15:22.22 | 8:44.10 | 69172 | 108481
3 | 24:06.32 | 6:58.53 | 108482 | 139884
4 | 31:05.10 | 13:47.70 | 139885 | 201979
5 | 44:53.05 | 10:33.42 | 201980 | 249496


Range status and errors

Selected range

Filename F:\Temp\Music\Schubert - Piano Trios (Gaia scienza)\CDImage1.wav

Peak level 100.0 %
Range quality 99.9 %
Copy CRC E88EF17E
Copy OK

No errors occurred


AccurateRip summary

Track 1 accurately ripped (confidence 6) [2D312CDA]
Track 2 accurately ripped (confidence 6) [517E2D3D]
Track 3 accurately ripped (confidence 6) [EE6B1CBE]
Track 4 accurately ripped (confidence 6) [5D8AD697]
Track 5 accurately ripped (confidence 6) [B3549CEA]

All tracks accurately ripped

End of status report

[CUETools log; Date: 10.01.2018 11:40:27; Version: 2.1.5]
[CTDB TOCID: OWhLZpySgwIchJ79C1_rhRK3aKU-] found.
Track | CTDB Status
1 | (19/20) Accurately ripped
2 | (20/20) Accurately ripped
3 | (20/20) Accurately ripped
4 | (20/20) Accurately ripped
5 | (19/20) Accurately ripped
[AccurateRip ID: 000bbbf8-0035dde5-4e0cfe05] found.
Track [ CRC | V2 ] Status
01 [2d312cda|36cf0b5d] (06+04/28) Accurately ripped
02 [517e2d3d|02cbf61e] (06+05/29) Accurately ripped
03 [ee6b1cbe|4f0375b7] (06+05/27) Accurately ripped
04 [5d8ad697|fdadb2c9] (06+05/28) Accurately ripped
05 [b3549cea|f1d79d03] (06+05/31) Accurately ripped
Offsetted by -680:
01 [92e5bce4] (07/28) Accurately ripped
02 [82711529] (07/29) Accurately ripped
03 [efd61342] (07/27) Accurately ripped
04 [032f0145] (07/28) Accurately ripped
05 [c87e51d2] (07/31) Accurately ripped
Offsetted by -721:
01 [036cee50] (00/28) No match
02 [35598d4d] (00/29) No match
03 [b2d29167] (00/27) No match (V2 was not tested)
04 [82096194] (00/28) No match (V2 was not tested)
05 [9570a563] (00/31) No match (V2 was not tested)
Offsetted by 1:
01 [ef269a17] (02/28) Accurately ripped
02 [72c7f3e0] (02/29) Accurately ripped
03 [a45e45dd] (00/27) No match (V2 was not tested)
04 [d205ed34] (02/28) Accurately ripped
05 [05bf17c1] (02/31) Accurately ripped

Track Peak [ CRC32 ] [W/O NULL] [ LOG ]
– 100,0 [E88EF17E] [A9EB2DEF] CRC32
01 99,9 [B9BAE4C4] [E725C16E]
02 96,5 [D24384C8] [13BE5A27]
03 81,0 [89014D50] [91FA2762]
04 98,4 [C09E6D57] [6BFF1D97]
05 100,0 [1BF59E7F] [4E10DBEF]

CD 2:
Trio in B Major for Piano, Violin and Cello, Op. 99, D. 898
I. Allegro moderato 13:57
II. Andante un poco mosso 9:47
III. Scherzo 6:28
IV. Rondo 8:25
Trio Notturno in E-flat Major for Piano, Violin and Cello, Op. 148, D. 897: Adagio 8:25

Exact Audio Copy V0.99 prebeta 5 from 4. May 2009

EAC extraction logfile from 20. December 2010, 2:41

La Gaia Scienza / Franz Schubert: Trio in B-Dur Op.99

Used drive : ASUS CRW-5232AS Adapter: 3 ID: 1

Read mode : Secure
Utilize accurate stream : Yes
Defeat audio cache : Yes
Make use of C2 pointers : No

Read offset correction : 6
Overread into Lead-In and Lead-Out : No
Fill up missing offset samples with silence : Yes
Delete leading and trailing silent blocks : No
Null samples used in CRC calculations : Yes
Used interface : Native Win32 interface for Win NT & 2000

Used output format : Internal WAV Routines
Sample format : 44.100 Hz; 16 Bit; Stereo


TOC of the extracted CD

Track | Start | Length | Start sector | End sector
––––––––––––––––––––––––––––-
1 | 0:00.00 | 13:57.10 | 0 | 62784
2 | 13:57.10 | 9:47.70 | 62785 | 106879
3 | 23:45.05 | 6:28.40 | 106880 | 136019
4 | 30:13.45 | 8:25.22 | 136020 | 173916
5 | 38:38.67 | 8:25.30 | 173917 | 211821


Range status and errors

Selected range

Filename F:\Temp\Music\Schubert - Piano Trios (Gaia scienza)\CDImage2.wav

Peak level 100.0 %
Range quality 100.0 %
Copy CRC D3E2FCA5
Copy OK

No errors occurred


AccurateRip summary

Track 1 accurately ripped (confidence 6) [4A96279D]
Track 2 accurately ripped (confidence 7) [E33378D3]
Track 3 accurately ripped (confidence 7) [A5617201]
Track 4 accurately ripped (confidence 7) [BFA4C0CD]
Track 5 accurately ripped (confidence 7) [2DC41923]

All tracks accurately ripped

End of status report

[CUETools log; Date: 10.01.2018 11:41:10; Version: 2.1.5]
[CTDB TOCID: nGPpLHVVGFX5tY17k80.WP.QUSw-] found.
Track | CTDB Status
1 | (13/13) Accurately ripped
2 | (13/13) Accurately ripped
3 | (13/13) Accurately ripped
4 | (13/13) Accurately ripped
5 | (13/13) Accurately ripped
[AccurateRip ID: 000a8ce0-002fc5b8-3a0b0805] found.
Track [ CRC | V2 ] Status
01 [4a96279d|f2ecaa0c] (07+04/22) Accurately ripped
02 [e33378d3|efdc9fd6] (08+04/23) Accurately ripped
03 [a5617201|eb38c837] (07+04/22) Accurately ripped
04 [bfa4c0cd|28e09301] (08+04/23) Accurately ripped
05 [2dc41923|39087041] (08+04/23) Accurately ripped
Offsetted by -669:
01 [2d06ca1b] (05/22) Accurately ripped
02 [89b15029] (05/23) Accurately ripped
03 [e2ba60f1] (05/22) Accurately ripped
04 [bb769f7b] (05/23) Accurately ripped
05 [67a4629c] (05/23) Accurately ripped

Track Peak [ CRC32 ] [W/O NULL] [ LOG ]
– 99,9 [D3E2FCA5] [706295BC] CRC32
01 85,6 [DFD21BA3] [B9357795]
02 66,1 [5CF679CF] [9D22359E]
03 70,2 [55730464] [8755F6E0]
04 99,9 [ECEEC325] [5D1DB38E]
05 77,8 [DD6A4325] [8D5EC7E3]

Performers:
La Gaia Scienza:

Federica Valli, fortepiano
Stefano Barneschi, violin
Paolo Beschi, cello

Thanks to the Original ripper "суходристчев"!

Download: