Subcategories

La Fiesta De Pascua En Piazza Navona (2012)

Posted By: peotuvave
La Fiesta De Pascua En Piazza Navona (2012)

La Fiesta De Pascua En Piazza Navona (2012)
X Lossless Decoder | Flac (Tracks + cue + log) | 2 CD | Full Scans | 639 MB
Genre: Classical | Label: Lauda | Catalog Number: 12

Easter celebrations in the Piazza Navona. T. L. de Victoria and the Spanish Confraternity of the Resurrection in Rome The confraternity of the Resurrection of S. Giacomo degli Spagnoli – the Castilian national church in Rome – was responsible, from 1579 onwards, for organizing the Easter celebrations in the Piazza Navona, one of the most spectacular public festivities during the time of Spanish supremacy in Italy.

For the solemn procession, which took place before dawn, the square would be decked out with ephemeral constructions and allegorical scenes, accompanied by lights, fireworks and music provided by the finest singers in the city situated either in platforms or in the procession itself. Indeed it was organized as a symbol of the hegemony of the Spanish nation and functioned as a powerful propaganda tool. As a member of the confraternity, Tomás Luis de Victoria was associated with the procession before his return to Spain in 1585. This double CD offers a never before undertaken evocation of the music that might have been heard in the church and around the square during this most important of Roman celebrations.

It brings together an enormously varied selection of vocal and instrumental pieces by composers who, together with Victoria, were either involved in the organisation of the festivities (such as Francisco Soto or Ruggiero Giovanelli) or whose music was preserved in the S. Giacomo degli Spagnoli archive (Jacobus de Kerle, Giovanni P. da Palestrina, Giovanni Animuccia, Rocco Rodio and Francisco Guerrero). This superb recreation, as well as offering us a new reading of Victoria’s work, submerges us, in a wholly new way, in the sonorities that he would have been familiar with in the latter part of his Roman period: from sumptuous polychoral works with Venetian influences to the simple laude spirituali associated with the Oratory of Saint Philip Neri. In short, it is another first for La Grande Chapelle, establishing a context in which to place one of the greatest composers of the Spanish Renaissance.

Composer: Ruggiero Giovannelli, Jacobus de Kerle, Giovanni Palestrina, Tomás Luis de Victoria, …
Performer: Ingeborg Dalheim, Nicholas Mulroy, Simon Wall, David Allsopp, …
Conductor: Albert Recasens
Orchestra/Ensemble: La Grande Chapelle

Reviews: Easter celebrations in the Piazza Navona. T. L. de Victoria and the Spanish Confraternity of the Resurrection in Rome The confraternity of the Resurrection of S. Giacomo degli Spagnoli - the Castilian national church in Rome - was responsible, from 1579 onwards, for organizing the Easter celebrations in the Piazza Navona, one of the most spectacular public festivities during the time of Spanish supremacy in Italy. For the solemn procession, which took place before dawn, the square would be decked out with ephemeral constructions and allegorical scenes, accompanied by lights, fireworks and music provided by the finest singers in the city situated either in platforms or in the procession itself. Indeed it was organized as a symbol of the hegemony of the Spanish nation and functioned as a powerful propaganda tool. As a member of the confraternity, Tomás Luis de Victoria was associated with the procession before his return to Spain in 1585. This double CD offers a never before undertaken evocation of the music that might have been heard in the church and around the square during this most important of Roman celebrations. It brings together an enormously varied selection of vocal and instrumental pieces by composers who, together with Victoria, were either involved in the organisation of the festivities (such as Francisco Soto or Ruggiero Giovanelli) or whose music was preserved in the S. Giacomo degli Spagnoli archive (Jacobus de Kerle, Giovanni P. da Palestrina, Giovanni Animuccia, Rocco Rodio and Francisco Guerrero). This superb recreation, as well as offering us a new reading of Victoria's work, submerges us, in a wholly new way, in the sonorities that he would have been familiar with in the latter part of his Roman period: from sumptuous polychoral works with Venetian influences to the simple laude spirituali associated with the Oratory of Saint Philip Neri. In short, it is another first for La Grande Chapelle, establishing a context in which to place one of the greatest composers of the Spanish Renaissance.

Tracklisting:

1. Jubilate Deo for chorus by Ruggiero Giovannelli
Conductor: Albert Recasens
Orchestra/Ensemble: La Grande Chapelle
Period: Renaissance
Venue: Augustinus Miziekcentrum, Amberes
Length: 3 Minutes 25 Secs.

2. Domine, quid multiplicati sunt, psalm for 5 voices by Jacobus de Kerle
Conductor: Albert Recasens
Orchestra/Ensemble: La Grande Chapelle
Period: Renaissance
Venue: Augustinus Miziekcentrum, Amberes
Length: 4 Minutes 44 Secs.

3. Haec dies, motet for 8 voices by Giovanni Palestrina
Conductor: Albert Recasens
Orchestra/Ensemble: La Grande Chapelle
Period: Renaissance
Venue: Augustinus Miziekcentrum, Amberes
Length: 2 Minutes 12 Secs.

4. Tantum ergo, hymn for 5 voices by Tomás Luis de Victoria
Conductor: Albert Recasens
Orchestra/Ensemble: La Grande Chapelle
Period: Renaissance
Venue: Augustinus Miziekcentrum, Amberes
Length: 2 Minutes 52 Secs.

5. Fanfarria by Cesare Bendinelli
Conductor: Albert Recasens
Orchestra/Ensemble: La Grande Chapelle
Period: Renaissance
Venue: Augustinus Miziekcentrum, Amberes
Length: 2 Minutes 29 Secs.

6. Surrexit Pastor Bonus, motet for 6 voices by Tomás Luis de Victoria
Conductor: Albert Recasens
Orchestra/Ensemble: La Grande Chapelle
Period: Renaissance
Venue: Augustinus Miziekcentrum, Amberes
Length: 2 Minutes 58 Secs.

7. Ad coenam Agni providi, hymn for 5 voices (from Complete Hymns) by Giovanni Palestrina
Conductor: Albert Recasens
Orchestra/Ensemble: La Grande Chapelle
Period: Renaissance
Written: 1589
Venue: Augustinus Miziekcentrum, Amberes
Length: 7 Minutes 47 Secs.

8. Ardens est cor meum, motet for 6 voices by Tomás Luis de Victoria
Performer: Ingeborg Dalheim (), Nicholas Mulroy (), Simon Wall (),
David Allsopp (), Jesús García Aréjula (), Greg Skidmore ()
Conductor: Albert Recasens
Orchestra/Ensemble: La Grande Chapelle
Period: Renaissance
Written: 1576
Venue: Augustinus Miziekcentrum, Amberes
Length: 3 Minutes 8 Secs.

9. Victimae paschali laudes, for 6 voices by Fernando de las Infantas
Conductor: Albert Recasens
Orchestra/Ensemble: La Grande Chapelle
Venue: Augustinus Miziekcentrum, Amberes
Length: 3 Minutes 33 Secs.

10. Ego sum panis vivus, motet for 4 voices by Tomás Luis de Victoria
Conductor: Albert Recasens
Orchestra/Ensemble: La Grande Chapelle
Period: Renaissance
Venue: Augustinus Miziekcentrum, Amberes
Length: 3 Minutes 8 Secs.

11. Jesu nostra redemptio, hymn for 4 voices by Tomás Luis de Victoria
Performer: Gabriel Diaz Cuesta (), Richard [Bass-Baritone Vocal] Savage (), Nicholas Mulroy (),
Jan Van Elsacker ()
Conductor: Albert Recasens
Orchestra/Ensemble: La Grande Chapelle
Period: Renaissance
Venue: Augustinus Miziekcentrum, Amberes
Length: 5 Minutes 18 Secs.

12. Ricercar No. 5 sopra la sol fa re mi, for organ by Rocco Rodio
Conductor: Albert Recasens
Orchestra/Ensemble: La Grande Chapelle
Period: Renaissance
Venue: Augustinus Miziekcentrum, Amberes
Length: 2 Minutes 42 Secs.

13. Expurgate vetus fermentum, motet for 8 voices by Giovanni Palestrina
Conductor: Albert Recasens
Orchestra/Ensemble: La Grande Chapelle
Period: Renaissance
Venue: Augustinus Miziekcentrum, Amberes
Length: 3 Minutes 20 Secs.

14. Te Deum laudamus, hymn for 6 voices by Jacobus de Kerle
Performer: Simon Wall (), Helen Neeves (), Nicholas Mulroy (),
Ingeborg Dalheim (), Gerardo Lopez Gamez (), Jesús García Aréjula (),
David Allsopp ()
Conductor: Albert Recasens
Orchestra/Ensemble: La Grande Chapelle
Period: Renaissance
Venue: Augustinus Miziekcentrum, Amberes
Length: 14 Minutes 57 Secs.

15. Tiento de segundo tono por Gsolreut, for keyboard by Bernardo Clavijo del Cast
Conductor: Albert Recasens
Orchestra/Ensemble: La Grande Chapelle
Period: Renaissance
Venue: Augustinus Miziekcentrum, Amberes
Length: 4 Minutes 11 Secs.

16. O sacrum convivium a 4 by Tomás Luis de Victoria
Performer: Greg Skidmore (), Jesús García Aréjula (), Nicholas Mulroy (),
Javier Jimenez Cuevas ()
Conductor: Albert Recasens
Orchestra/Ensemble: La Grande Chapelle
Period: Renaissance
Written: Spain
Venue: Augustinus Miziekcentrum, Amberes
Length: 3 Minutes 21 Secs.

17. Victimae Paschali, motet for 8 voices (unspecified of 4) by Giovanni Palestrina
Performer: David Allsopp (), Simon Wall (), Helen Neeves (),
Ingeborg Dalheim ()
Conductor: Albert Recasens
Orchestra/Ensemble: La Grande Chapelle
Period: Renaissance
Venue: Augustinus Miziekcentrum, Amberes
Length: 3 Minutes 31 Secs.

18. Si tus penas no pruebo, villanella for 3 voices by Francisco Guerro
Performer: Gerardo Lopez Gamez (), Nicholas Mulroy (), Jesús García Aréjula ()
Conductor: Albert Recasens
Orchestra/Ensemble: La Grande Chapelle
Period: Renaissance
Venue: Augustinus Miziekcentrum, Amberes
Length: 6 Minutes 2 Secs.

19. Christus resurgens, for 5 voices by Giovanni Animuccia
Performer: Nicholas Mulroy (), Jan Van Elsacker (), Richard [Bass-Baritone Vocal] Savage (),
Ingeborg Dalheim (), Gabriel Diaz Cuesta ()
Conductor: Albert Recasens
Orchestra/Ensemble: La Grande Chapelle
Period: Renaissance
Venue: Augustinus Miziekcentrum, Amberes
Length: 2 Minutes 19 Secs.

20. In exitu, salmi passaggiati by Giovanni Luca Conforti
Conductor: Albert Recasens
Orchestra/Ensemble: La Grande Chapelle
Period: Renaissance
Venue: Augustinus Miziekcentrum, Amberes
Length: 6 Minutes 38 Secs.

21. Crucem sanctam, motet for 5 voices (from Motets Book I) by Giovanni Palestrina
Performer: Ingeborg Dalheim (), Richard [Bass-Baritone Vocal] Savage (), Nicholas Mulroy (),
Jan Van Elsacker (), Gabriel Diaz Cuesta ()
Conductor: Albert Recasens
Orchestra/Ensemble: La Grande Chapelle
Period: Renaissance
Written: 1569
Venue: Augustinus Miziekcentrum, Amberes
Length: 2 Minutes 53 Secs.

22. Regina coeli à 8 by Tomás Luis de Victoria
Conductor: Albert Recasens
Orchestra/Ensemble: La Grande Chapelle
Period: Renaissance
Written: Spain
Venue: Augustinus Miziekcentrum, Amberes
Length: 4 Minutes 22 Secs.

23. Christo ver'huom' e Dio, for 3 voices by Serafino Razzi
Performer: Jan Van Elsacker (), Nicholas Mulroy (), Gabriel Diaz Cuesta ()
Conductor: Albert Recasens
Orchestra/Ensemble: La Grande Chapelle
Period: Renaissance
Venue: Augustinus Miziekcentrum, Amberes
Length: 2 Minutes 32 Secs.

24. Anima mia, che pensi?, for 3 voices by Anonymous
Performer: Greg Skidmore (), Jesús García Aréjula (), Simon Wall (),
Nicholas Mulroy (), Gerardo Lopez Gamez ()
Conductor: Albert Recasens
Orchestra/Ensemble: La Grande Chapelle
Period: Renaissance
Venue: Augustinus Miziekcentrum, Amberes
Length: 4 Minutes 39 Secs.

X Lossless Decoder version 20121027 (142.1)

XLD extraction logfile from 2012-12-28 23:23:05 +0100

La Grande Chapelle, Albert Recasens / La Fiesta de Pascua en Piazza Navona [CD1]

Used drive : MATSHITA DVD-R UJ-898 (revision HA07)

Ripper mode : XLD Secure Ripper
Disable audio cache : OK for the drive with a cache less than 1375KiB
Make use of C2 pointers : NO
Read offset correction : 102
Max retry count : 20
Gap status : Analyzed, Appended (except HTOA)

TOC of the extracted CD
Track | Start | Length | Start sector | End sector
––––––––––––––––––––––––––––-
1 | 00:00:00 | 03:25:62 | 0 | 15436
2 | 03:25:62 | 04:44:17 | 15437 | 36753
3 | 08:10:04 | 02:12:26 | 36754 | 46679
4 | 10:22:30 | 02:52:58 | 46680 | 59637
5 | 13:15:13 | 02:29:67 | 59638 | 70879
6 | 15:45:05 | 02:58:02 | 70880 | 84231
7 | 18:43:07 | 02:32:01 | 84232 | 95632
8 | 21:15:08 | 07:47:72 | 95633 | 130729
9 | 29:03:05 | 03:08:53 | 130730 | 144882
10 | 32:11:58 | 03:33:12 | 144883 | 160869
11 | 35:44:70 | 03:08:41 | 160870 | 175010
12 | 38:53:36 | 05:18:22 | 175011 | 198882
13 | 44:11:58 | 02:42:54 | 198883 | 211086
14 | 46:54:37 | 03:20:19 | 211087 | 226105
15 | 50:14:56 | 01:52:57 | 226106 | 234562

AccurateRip Summary
Disc not found in AccurateRip DB.

All Tracks
Album gain : 0.02 dB
Peak : 0.938354
Statistics
Read error : 0
Jitter error (maybe fixed) : 0
Retry sector count : 0
Damaged sector count : 0

Track 01
Filename : /Volumes/MUSIC/T/Various Artists - La fiesta de Pascua en Piazza Navona (2012) [FLAC] {Lauda, 2 CD Set}/01 - [ MAITINES Y LAUDES ] - R. Giovanelli - Motete. Iubilate Deo, omnis terra, a 8.flac
Pre-gap length : 00:02:00

Track gain : -1.71 dB
Peak : 0.860840
CRC32 hash (test run) : 2822DC06
CRC32 hash : 2822DC06
CRC32 hash (skip zero) : F2DE11E1
AccurateRip v1 signature : 514BF8EE
AccurateRip v2 signature : 013E9B1E
->Track not present in AccurateRip database.
Statistics
Read error : 0
Jitter error (maybe fixed) : 0
Retry sector count : 0
Damaged sector count : 0

Track 02
Filename : /Volumes/MUSIC/T/Various Artists - La fiesta de Pascua en Piazza Navona (2012) [FLAC] {Lauda, 2 CD Set}/02 - Jacobus de Kerle - Salmo. Domine, quid multiplicati sunt, a 5.flac

Track gain : 1.85 dB
Peak : 0.606720
CRC32 hash (test run) : 158F50E7
CRC32 hash : 158F50E7
CRC32 hash (skip zero) : E29C4A63
AccurateRip v1 signature : CB11E986
AccurateRip v2 signature : 698B9425
->Track not present in AccurateRip database.
Statistics
Read error : 0
Jitter error (maybe fixed) : 0
Retry sector count : 0
Damaged sector count : 0

Track 03
Filename : /Volumes/MUSIC/T/Various Artists - La fiesta de Pascua en Piazza Navona (2012) [FLAC] {Lauda, 2 CD Set}/03 - G.P. da Palestrina - Antifona. Haec dies quam fecit Dominus, a 8.flac

Track gain : -0.95 dB
Peak : 0.747986
CRC32 hash (test run) : AC8A2F27
CRC32 hash : AC8A2F27
CRC32 hash (skip zero) : 37DADC70
AccurateRip v1 signature : 90AB10B0
AccurateRip v2 signature : 8717F587
->Track not present in AccurateRip database.
Statistics
Read error : 0
Jitter error (maybe fixed) : 0
Retry sector count : 0
Damaged sector count : 0

Track 04
Filename : /Volumes/MUSIC/T/Various Artists - La fiesta de Pascua en Piazza Navona (2012) [FLAC] {Lauda, 2 CD Set}/04 - T.L. de Victoria - Himno. Tantum ergo, a 5.flac

Track gain : -2.86 dB
Peak : 0.938354
CRC32 hash (test run) : E6FA19AB
CRC32 hash : E6FA19AB
CRC32 hash (skip zero) : AAD13548
AccurateRip v1 signature : A1BE8C0B
AccurateRip v2 signature : 603C8EAF
->Track not present in AccurateRip database.
Statistics
Read error : 0
Jitter error (maybe fixed) : 0
Retry sector count : 0
Damaged sector count : 0

Track 05
Filename : /Volumes/MUSIC/T/Various Artists - La fiesta de Pascua en Piazza Navona (2012) [FLAC] {Lauda, 2 CD Set}/05 - [ PROCESION EN PIAZZA NAVONA ] - C. Bendinelli - Fanfarria (instrumental).flac

Track gain : -0.75 dB
Peak : 0.769043
CRC32 hash (test run) : CF5DAD3B
CRC32 hash : CF5DAD3B
CRC32 hash (skip zero) : 0F114B25
AccurateRip v1 signature : 2596D924
AccurateRip v2 signature : 628C573F
->Track not present in AccurateRip database.
Statistics
Read error : 0
Jitter error (maybe fixed) : 0
Retry sector count : 0
Damaged sector count : 0

Track 06
Filename : /Volumes/MUSIC/T/Various Artists - La fiesta de Pascua en Piazza Navona (2012) [FLAC] {Lauda, 2 CD Set}/06 - T.L. de Victoria - Motete. Surrexit pastor bonus, a 6.flac

Track gain : -0.96 dB
Peak : 0.786377
CRC32 hash (test run) : 41D47B75
CRC32 hash : 41D47B75
CRC32 hash (skip zero) : 9267F85C
AccurateRip v1 signature : 2702445C
AccurateRip v2 signature : 916B7C3A
->Track not present in AccurateRip database.
Statistics
Read error : 0
Jitter error (maybe fixed) : 0
Retry sector count : 0
Damaged sector count : 0

Track 07
Filename : /Volumes/MUSIC/T/Various Artists - La fiesta de Pascua en Piazza Navona (2012) [FLAC] {Lauda, 2 CD Set}/07 - S. Razzi, F. Belcari - Lauda. Christo ver'huom' e Dio, a 3.flac

Track gain : 10.11 dB
Peak : 0.197693
CRC32 hash (test run) : 7ACB7842
CRC32 hash : 7ACB7842
CRC32 hash (skip zero) : 2F38D805
AccurateRip v1 signature : 0A5AA276
AccurateRip v2 signature : 71FBBC6D
->Track not present in AccurateRip database.
Statistics
Read error : 0
Jitter error (maybe fixed) : 0
Retry sector count : 0
Damaged sector count : 0

Track 08
Filename : /Volumes/MUSIC/T/Various Artists - La fiesta de Pascua en Piazza Navona (2012) [FLAC] {Lauda, 2 CD Set}/08 - De Victoria, Da Palestrina - Himno. Ad caenam agni providi, a 4 o 5.flac

Track gain : 2.06 dB
Peak : 0.699280
CRC32 hash (test run) : 545095E2
CRC32 hash : 545095E2
CRC32 hash (skip zero) : 30153452
AccurateRip v1 signature : 22BC41B0
AccurateRip v2 signature : B3C949D2
->Track not present in AccurateRip database.
Statistics
Read error : 0
Jitter error (maybe fixed) : 0
Retry sector count : 0
Damaged sector count : 0

Track 09
Filename : /Volumes/MUSIC/T/Various Artists - La fiesta de Pascua en Piazza Navona (2012) [FLAC] {Lauda, 2 CD Set}/09 - T.L. de Victoria - Motete. Ardens est cor meum, a 6.flac

Track gain : 3.61 dB
Peak : 0.515320
CRC32 hash (test run) : CEA12939
CRC32 hash : CEA12939
CRC32 hash (skip zero) : 13170279
AccurateRip v1 signature : FA3DEC93
AccurateRip v2 signature : 073FDB7E
->Track not present in AccurateRip database.
Statistics
Read error : 0
Jitter error (maybe fixed) : 0
Retry sector count : 0
Damaged sector count : 0

Track 10
Filename : /Volumes/MUSIC/T/Various Artists - La fiesta de Pascua en Piazza Navona (2012) [FLAC] {Lauda, 2 CD Set}/10 - F. de las Infantas - Victimae paschali laudes (instrumental).flac

Track gain : 2.13 dB
Peak : 0.521759
CRC32 hash (test run) : FFC96B69
CRC32 hash : FFC96B69
CRC32 hash (skip zero) : A67C5BCF
AccurateRip v1 signature : 6CBEAF1A
AccurateRip v2 signature : 0232CAAE
->Track not present in AccurateRip database.
Statistics
Read error : 0
Jitter error (maybe fixed) : 0
Retry sector count : 0
Damaged sector count : 0

Track 11
Filename : /Volumes/MUSIC/T/Various Artists - La fiesta de Pascua en Piazza Navona (2012) [FLAC] {Lauda, 2 CD Set}/11 - T.L. de Victoria - Motete. Ego sum panis vivus, a 4.flac

Track gain : 4.83 dB
Peak : 0.414459
CRC32 hash (test run) : 978F705C
CRC32 hash : 978F705C
CRC32 hash (skip zero) : A7B062B2
AccurateRip v1 signature : 6EE233D5
AccurateRip v2 signature : E0D80F87
->Track not present in AccurateRip database.
Statistics
Read error : 0
Jitter error (maybe fixed) : 0
Retry sector count : 0
Damaged sector count : 0

Track 12
Filename : /Volumes/MUSIC/T/Various Artists - La fiesta de Pascua en Piazza Navona (2012) [FLAC] {Lauda, 2 CD Set}/12 - G.M. Asola, T.L. de Victoria - Himno. Iesu, nostra redemptio, a 4.flac

Track gain : 7.19 dB
Peak : 0.285767
CRC32 hash (test run) : 173E8491
CRC32 hash : 173E8491
CRC32 hash (skip zero) : AD3793CE
AccurateRip v1 signature : EAB1E1CE
AccurateRip v2 signature : 1E259237
->Track not present in AccurateRip database.
Statistics
Read error : 0
Jitter error (maybe fixed) : 0
Retry sector count : 0
Damaged sector count : 0

Track 13
Filename : /Volumes/MUSIC/T/Various Artists - La fiesta de Pascua en Piazza Navona (2012) [FLAC] {Lauda, 2 CD Set}/13 - R. Rodio - Ricercata sobre 'Bassa Castiglia'. La mi re fa mi re (instrumental).flac

Track gain : 4.86 dB
Peak : 0.394379
CRC32 hash (test run) : E95E8DCB
CRC32 hash : E95E8DCB
CRC32 hash (skip zero) : 421609C3
AccurateRip v1 signature : EBD07803
AccurateRip v2 signature : 65329624
->Track not present in AccurateRip database.
Statistics
Read error : 0
Jitter error (maybe fixed) : 0
Retry sector count : 0
Damaged sector count : 0

Track 14
Filename : /Volumes/MUSIC/T/Various Artists - La fiesta de Pascua en Piazza Navona (2012) [FLAC] {Lauda, 2 CD Set}/14 - G.P. da Palestrina - Responsorio. Expurgate vetus fermentum, a 8.flac

Track gain : -1.38 dB
Peak : 0.902313
CRC32 hash (test run) : 363AE736
CRC32 hash : 363AE736
CRC32 hash (skip zero) : 27DF31FD
AccurateRip v1 signature : 78DF03EA
AccurateRip v2 signature : 8497CF55
->Track not present in AccurateRip database.
Statistics
Read error : 0
Jitter error (maybe fixed) : 0
Retry sector count : 0
Damaged sector count : 0

Track 15
Filename : /Volumes/MUSIC/T/Various Artists - La fiesta de Pascua en Piazza Navona (2012) [FLAC] {Lauda, 2 CD Set}/15 - C. Bendinelli - Fanfarria (instrumental).flac

Track gain : 0.78 dB
Peak : 0.570007
CRC32 hash (test run) : 7C904678
CRC32 hash : 7C904678
CRC32 hash (skip zero) : E20C2C84
AccurateRip v1 signature : D88FD6A1
AccurateRip v2 signature : 91B6BF88
->Track not present in AccurateRip database.
Statistics
Read error : 0
Jitter error (maybe fixed) : 0
Retry sector count : 0
Damaged sector count : 0

No errors occurred

End of status report

X Lossless Decoder version 20121027 (142.1)

XLD extraction logfile from 2012-12-29 00:43:15 +0100

La Grande Chapelle, Albert Recasens / La Fiesta de Pascua en Piazza Navona [CD2]

Used drive : MATSHITA DVD-R UJ-898 (revision HA07)

Ripper mode : XLD Secure Ripper
Disable audio cache : OK for the drive with a cache less than 1375KiB
Make use of C2 pointers : NO
Read offset correction : 102
Max retry count : 20
Gap status : Analyzed, Appended (except HTOA)

TOC of the extracted CD
Track | Start | Length | Start sector | End sector
––––––––––––––––––––––––––––-
1 | 00:00:00 | 14:57:27 | 0 | 67301
2 | 14:57:27 | 04:11:32 | 67302 | 86158
3 | 19:08:59 | 03:21:48 | 86159 | 101281
4 | 22:30:32 | 03:31:04 | 101282 | 117110
5 | 26:01:36 | 06:02:09 | 117111 | 144269
6 | 32:03:45 | 02:19:51 | 144270 | 154745
7 | 34:23:21 | 06:38:22 | 154746 | 184617
8 | 41:01:43 | 02:53:08 | 184618 | 197600
9 | 43:54:51 | 04:39:13 | 197601 | 218538
10 | 48:33:64 | 04:22:51 | 218539 | 238239

AccurateRip Summary
Disc not found in AccurateRip DB.

All Tracks
Album gain : 1.68 dB
Peak : 0.914581
Statistics
Read error : 0
Jitter error (maybe fixed) : 0
Retry sector count : 0
Damaged sector count : 0

Track 01
Filename : /Volumes/MUSIC/T/Various Artists - La fiesta de Pascua en Piazza Navona (2012) [FLAC] {Lauda, 2 CD Set}/01 - [ MISA, VISPERAS Y COMPLETAS ] - J. de Kerle - Himno. Te Deum laudamus, a 6.flac
Pre-gap length : 00:02:00

Track gain : 1.50 dB
Peak : 0.744202
CRC32 hash (test run) : 792DF43E
CRC32 hash : 792DF43E
CRC32 hash (skip zero) : 4075AB0A
AccurateRip v1 signature : 4BCEBA7D
AccurateRip v2 signature : 0CA795E9
->Track not present in AccurateRip database.
Statistics
Read error : 0
Jitter error (maybe fixed) : 0
Retry sector count : 0
Damaged sector count : 0

Track 02
Filename : /Volumes/MUSIC/T/Various Artists - La fiesta de Pascua en Piazza Navona (2012) [FLAC] {Lauda, 2 CD Set}/02 - B. Clavijo del Castillo - Tiento de 2o tono por Gsolreut (organo).flac

Track gain : 16.23 dB
Peak : 0.084564
CRC32 hash (test run) : 8F51509A
CRC32 hash : 8F51509A
CRC32 hash (skip zero) : 0558D072
AccurateRip v1 signature : B4F77B74
AccurateRip v2 signature : 2336EF93
->Track not present in AccurateRip database.
Statistics
Read error : 0
Jitter error (maybe fixed) : 0
Retry sector count : 0
Damaged sector count : 0

Track 03
Filename : /Volumes/MUSIC/T/Various Artists - La fiesta de Pascua en Piazza Navona (2012) [FLAC] {Lauda, 2 CD Set}/03 - T.L. de Victoria - Motete. O sacrum convivium, a 4.flac

Track gain : 6.67 dB
Peak : 0.281830
CRC32 hash (test run) : 170F43D5
CRC32 hash : 170F43D5
CRC32 hash (skip zero) : 85566526
AccurateRip v1 signature : 02B51090
AccurateRip v2 signature : B5422F49
->Track not present in AccurateRip database.
Statistics
Read error : 0
Jitter error (maybe fixed) : 0
Retry sector count : 0
Damaged sector count : 0

Track 04
Filename : /Volumes/MUSIC/T/Various Artists - La fiesta de Pascua en Piazza Navona (2012) [FLAC] {Lauda, 2 CD Set}/04 - G.P. da Palestrina (attrib.) - Secuencia. Victimae paschale laudes, a 8.flac

Track gain : 2.03 dB
Peak : 0.595154
CRC32 hash (test run) : 7A944EED
CRC32 hash : 7A944EED
CRC32 hash (skip zero) : E042E558
AccurateRip v1 signature : 2C2B1888
AccurateRip v2 signature : BDE4633B
->Track not present in AccurateRip database.
Statistics
Read error : 0
Jitter error (maybe fixed) : 0
Retry sector count : 0
Damaged sector count : 0

Track 05
Filename : /Volumes/MUSIC/T/Various Artists - La fiesta de Pascua en Piazza Navona (2012) [FLAC] {Lauda, 2 CD Set}/05 - F. Guerrero - Villanesca. Si tus penas no pruebo, a 3.flac

Track gain : 8.10 dB
Peak : 0.276855
CRC32 hash (test run) : 4AD6F1A0
CRC32 hash : 4AD6F1A0
CRC32 hash (skip zero) : 50428CDA
AccurateRip v1 signature : D847A267
AccurateRip v2 signature : D9C59296
->Track not present in AccurateRip database.
Statistics
Read error : 0
Jitter error (maybe fixed) : 0
Retry sector count : 0
Damaged sector count : 0

Track 06
Filename : /Volumes/MUSIC/T/Various Artists - La fiesta de Pascua en Piazza Navona (2012) [FLAC] {Lauda, 2 CD Set}/06 - G. Animuccia - Antifona. Christus resurgens, a 5.flac

Track gain : 7.33 dB
Peak : 0.321991
CRC32 hash (test run) : 50965B89
CRC32 hash : 50965B89
CRC32 hash (skip zero) : 100DDCEF
AccurateRip v1 signature : 52EFA38A
AccurateRip v2 signature : 75422917
->Track not present in AccurateRip database.
Statistics
Read error : 0
Jitter error (maybe fixed) : 0
Retry sector count : 0
Damaged sector count : 0

Track 07
Filename : /Volumes/MUSIC/T/Various Artists - La fiesta de Pascua en Piazza Navona (2012) [FLAC] {Lauda, 2 CD Set}/07 - G.L. Conforti - Salmo. In exitu (Salmi passaggiatti).flac

Track gain : 12.59 dB
Peak : 0.168732
CRC32 hash (test run) : D2CBAD64
CRC32 hash : D2CBAD64
CRC32 hash (skip zero) : A4B3AAA6
AccurateRip v1 signature : 98C072BC
AccurateRip v2 signature : 458E5C9F
->Track not present in AccurateRip database.
Statistics
Read error : 0
Jitter error (maybe fixed) : 0
Retry sector count : 0
Damaged sector count : 0

Track 08
Filename : /Volumes/MUSIC/T/Various Artists - La fiesta de Pascua en Piazza Navona (2012) [FLAC] {Lauda, 2 CD Set}/08 - G.P. da Palestrina - Antifona. Crucem sanctam subiit, a 5.flac

Track gain : 8.16 dB
Peak : 0.231995
CRC32 hash (test run) : 8E50A21E
CRC32 hash : 8E50A21E
CRC32 hash (skip zero) : 9B8802C4
AccurateRip v1 signature : B373604D
AccurateRip v2 signature : 7D4E8BC0
->Track not present in AccurateRip database.
Statistics
Read error : 0
Jitter error (maybe fixed) : 0
Retry sector count : 0
Damaged sector count : 0

Track 09
Filename : /Volumes/MUSIC/T/Various Artists - La fiesta de Pascua en Piazza Navona (2012) [FLAC] {Lauda, 2 CD Set}/09 - Anonymous, A. Manni - Lauda. Anima mia, che pensi, a 3.flac

Track gain : 7.85 dB
Peak : 0.277435
CRC32 hash (test run) : 8E317574
CRC32 hash : 8E317574
CRC32 hash (skip zero) : 25857446
AccurateRip v1 signature : 3E6678C4
AccurateRip v2 signature : 291964FB
->Track not present in AccurateRip database.
Statistics
Read error : 0
Jitter error (maybe fixed) : 0
Retry sector count : 0
Damaged sector count : 0

Track 10
Filename : /Volumes/MUSIC/T/Various Artists - La fiesta de Pascua en Piazza Navona (2012) [FLAC] {Lauda, 2 CD Set}/10 - T.L. de Victoria - Antifona. Regina caeli, a 8.flac

Track gain : -2.69 dB
Peak : 0.914581
CRC32 hash (test run) : F45A9C1A
CRC32 hash : F45A9C1A
CRC32 hash (skip zero) : 6EAC7B23
AccurateRip v1 signature : 38D2A724
AccurateRip v2 signature : 3AAC1FD9
->Track not present in AccurateRip database.
Statistics
Read error : 0
Jitter error (maybe fixed) : 0
Retry sector count : 0
Damaged sector count : 0

No errors occurred

End of status report


Thanks to the original releaser

Download:

Filepost

CD 1 | CD 2
Scans

Uploaded

CD 1 | CD 2
Scans